#TITLE:Kuyashisa wa Tane;
#SUBTITLE:Digimon Adventure 2020 Ending 1;
#ARTIST:Chiai Fujikawa;
#TITLETRANSLIT:;
#SUBTITLETRANSLIT:;
#ARTISTTRANSLIT:;
#GENRE:;
#CREDIT:;
#BANNER:KWTBN.jpg;
#BACKGROUND:KWTBG.jpg;
#LYRICSPATH:;
#CDTITLE:cdtitle_ukiarrow.png;
#MUSIC:Kuyashisa wa Tane.mp3;
#OFFSET:0.514097;
#SAMPLESTART:62.139957;
#SAMPLELENGTH:12.000000;
#SELECTABLE:YES;
#BPMS:0.000000=182.000000
;
#STOPS:
;
#BGCHANGES:47.000=Kuyashisa wa Tane.avi=1.000=0=0=1=====,
100.000=Kuyashisa wa Tane.avi=0.100=0=0=1=====,
135.500=Kuyashisa wa Tane.avi=1.000=0=0=1=====,
257.000=Kuyashisa wa Tane.avi=0.100=0=0=1=====,
289.000=KWTBG.jpg=1.000=0=0=1=====,
99999=-nosongbg-=1.000=0=0=0 // don't automatically add -songbackground-
;
#KEYSOUNDS:;
#ATTACKS:;

//---------------dance-single - ----------------
#NOTES:
     dance-single:
     :
     Hard:
     13:
     0.687960,0.772373,0.132356,0.244349,0.162900,473.000000,460.000000,13.000000,24.000000,0.000000,0.000000,0.687960,0.772373,0.132356,0.244349,0.162900,473.000000,460.000000,13.000000,24.000000,0.000000,0.000000:
0000
0000
0000
0000
,
0000
0000
0000
0000
,
0000
0000
0000
0000
,
0000
0000
0000
0000
0000
0000
0001
0001
,
0000
1001
0000
1000
0100
0010
0100
0000
,
1000
0010
0100
0010
1000
0000
0100
0010
,
0001
0011
0000
0001
0100
0010
0100
0000
,
0001
0000
0010
0000
0100
0000
0010
0000
0001
0000
0100
0000
0000
0000
0001
1000
,
0010
1000
0001
0000
0100
0000
0100
0000
0010
0000
1000
0000
0000
0000
0001
0000
,
0010
0010
0100
1000
0000
0001
0100
0010
,
0100
0000
0010
1000
0100
0010
0100
1000
,
0010
0100
0000
0010
0100
0001
1000
0100
,
0010
0011
0010
0001
,
0001
1000
0100
1000
0001
0000
0001
0000
,
0001
0100
0010
0000
0100
0000
0010
0000
,
0100
0001
0010
0001
0100
0001
1000
0000
,
0100
0010
0200
0000
1000
0000
1300
0000
,
0010
1000
0010
0100
0001
0000
0100
0001
,
0100
0000
0010
1000
0001
1000
0100
0000
,
0010
0000
0001
0000
0100
0000
0001
0000
0010
0000
0100
0010
0100
0000
1000
0000
,
0001
0100
0020
0000
1000
0000
1030
0010
,
0100
0001
1000
0000
0001
0000
0001
0010
,
0100
1000
0001
0000
1000
0001
1000
0000
,
0100
0010
0001
1000
0100
0010
0100
0000
,
1000
0000
0010
0100
0020
0000
0000
0000
0100
0000
0000
0000
0130
0000
0000
0000
,
0010
1000
0001
1000
0100
0000
0010
0000
,
0100
0010
0002
0000
0010
0000
0013
0000
,
0001
0000
0001
1000
0010
0100
0001
0010
,
0100
1000
0020
0000
0000
0130
0001
0000
,
1000
0100
0000
0010
0000
0001
1000
0000
,
0010
0100
0020
0000
0000
1030
0100
0000
,
0010
0100
0000
1000
0000
0001
1000
0100
,
0010
0000
0002
0000
0000
0103
0010
0000
,
1000
0010
0000
0100
0000
0001
0010
0000
,
1001
1100
0011
1100
,
0001
0000
0100
0000
0000
0000
0010
0000
0000
0000
0100
0010
0100
0000
0001
0000
,
0000
0000
1000
0100
0100
0010
0100
0100
,
0001
0100
0100
0010
0100
0100
1000
0010
,
0100
0000
1000
0100
0100
0010
0100
0100
,
0001
0100
0100
0010
0100
0100
0001
0010
,
0100
0000
0010
0010
0001
1000
1000
0100
,
0001
0001
0100
0010
0010
0100
1000
0001
,
0100
0000
0010
0010
0100
0001
0001
1000
,
0100
0000
0100
0000
0010
0000
0001
0000
0001
0000
1000
0100
0010
0000
0001
1000
,
0001
1000
0001
0000
0100
0000
0010
0000
0100
0000
0000
0010
0100
0000
0001
0000
,
1000
0100
0000
0010
0001
0010
0100
1000
,
0001
0100
0001
0100
0010
0000
1000
0000
0001
0000
0010
0000
0100
0000
1000
0000
,
0001
0200
0000
0000
0000
0000
0300
0000
,
0000
0110
0000
0010
1000
0001
1000
0100
,
0010
0000
0011
0000
0000
0000
0010
0000
0001
0000
0000
0100
0010
0000
0100
0000
,
0001
0011
0000
0010
0100
1000
0001
1000
,
0010
0000
0100
0000
0000
0000
0010
0000
1000
0000
0100
0010
0100
0000
1000
0000
,
0001
0101
0000
0001
0100
0010
1000
0100
,
0010
0000
0100
0000
0000
0000
0010
0000
0001
0000
1000
0001
1000
0000
0010
0000
,
0100
0000
0010
1000
0010
0000
0000
0000
0100
0000
0001
0000
1000
0000
0001
0000
,
0100
0000
0110
0000
0000
0000
0010
0000
1000
0000
0001
0100
0001
0000
0010
0001
,
0010
0001
0020
0000
0000
0000
0130
0000
1000
0000
0000
0000
0010
0000
1000
0000
,
0100
0000
0010
0000
0000
0000
0001
0000
0100
0000
0010
0100
0010
0000
0100
0000
,
0001
0020
0000
0031
0100
0010
1000
0001
,
0010
0000
0100
0000
0000
0000
0010
0000
0100
0000
1000
0100
1000
0000
0010
1000
,
0010
1000
0020
0000
0000
0000
0130
0000
0010
0000
0100
0000
0001
0000
0010
0000
,
0100
0000
1000
0000
0000
0000
0100
0000
0010
0000
0100
1000
0100
0000
1000
0000
,
0010
0100
0020
0000
0000
0000
0130
0000
0001
0000
0010
0000
0100
0000
1000
0000
,
0001
0000
0101
0000
0000
0000
0010
0000
1000
0000
0001
0000
0010
0001
0010
0001
,
0100
0001
0100
0000
0010
0000
0010
0000
1000
0000
0001
0000
0001
0000
0010
0000
,
0100
0100
1000
0010
0010
0100
0001
0000
,
1000
0000
0010
1000
0010
0000
0010
0000
0100
0000
0100
0000
0001
0000
0001
0000
,
1000
0000
1000
0000
0010
0000
0100
0000
0001
0000
1000
0000
0010
0100
0010
0100
,
0010
0100
0010
0100
0002
0000
0000
0000
0000
0000
0203
0000
0000
0000
0000
0000
,
0320
0000
0000
2030
0000
0000
3200
0000
,
0320
0000
0032
0000
0000
0203
0000
0000
,
0320
0000
0000
2030
0000
0000
3200
0000
,
0020
0330
0000
0000
;

//---------------dance-single - ----------------
#NOTES:
     dance-single:
     :
     Medium:
     10:
     0.543968,0.551695,0.050906,0.132356,0.000000,374.000000,369.000000,5.000000,13.000000,0.000000,0.000000,0.543968,0.551695,0.050906,0.132356,0.000000,374.000000,369.000000,5.000000,13.000000,0.000000,0.000000:
0000
0000
0000
0000
,
0000
0000
0000
0000
,
0000
0000
0000
0000
,
0000
0000
0000
0000
0000
0000
0100
0100
,
0000
0010
0000
0001
0100
0010
1000
0000
,
0010
1000
0100
0010
0001
0000
0001
0100
,
0010
0010
0000
1000
0010
0100
0001
0000
,
0100
0001
0010
0100
1000
0100
0000
0100
,
0010
0000
0001
0010
0001
0010
0000
0010
,
0100
1000
0100
1000
0000
1000
0010
0000
,
0100
0000
0001
0100
0001
0000
0001
0100
,
0010
1000
0000
0010
0100
0001
0000
1000
,
0001
1000
1000
1000
,
1000
0000
0010
0100
0001
0000
0100
0000
,
0010
0100
0001
0000
0001
0000
0001
0000
,
0001
0000
0010
0001
1000
0001
0100
0000
,
0010
0100
0010
0000
0010
0000
0100
0000
,
0100
0000
0001
0100
0001
0000
1000
0100
,
1000
0100
0100
0100
,
0100
0010
0001
0000
1000
0000
0001
0100
,
0010
1000
0010
0000
1000
0000
0001
0000
,
0100
0000
0010
1000
0001
0000
1000
0000
,
0010
1000
0001
0000
0010
0000
0100
0000
,
1000
0100
0010
0100
1000
0000
0010
0000
,
0100
0001
0010
0000
0010
0000
0001
0000
,
0001
0000
1000
0100
1000
0000
0001
0000
,
1000
0100
0010
0000
0001
0000
0100
0000
,
0010
0000
1000
0010
0100
0000
0010
0100
,
0001
0000
0020
0000
0000
0130
1000
0000
,
0001
0100
0000
0010
0000
0100
0001
0000
,
1000
0100
0010
0000
0001
0010
0100
0000
,
1000
0001
0000
0100
0000
0010
0100
0000
,
0001
0100
0020
0000
0000
1030
0010
0000
,
0100
0001
0000
1000
0000
0001
0010
0000
,
0100
1000
0002
0000
0203
0000
0320
0000
,
1030
0010
0000
1000
0000
0001
0100
0010
,
0000
0000
1000
0100
0010
0001
0000
0001
,
1000
0100
0010
0001
0000
0001
1000
0010
,
0100
0000
0001
0100
0010
1000
0000
1000
,
0001
0100
0010
1000
0000
1000
0010
0100
,
0010
0000
0100
0000
0001
0100
0000
0010
,
1000
0000
0001
0010
0000
0100
1000
0000
,
0010
0000
0100
0001
0000
1000
0100
0000
,
0010
0001
0000
1000
0010
0000
0100
0010
,
0100
0000
0010
0000
1000
0000
0001
0100
,
0010
0000
0100
0000
0001
0000
1000
0100
,
0010
0000
0001
0000
1000
0010
1000
0010
,
0100
2000
0000
0000
0000
0000
0000
0000
,
3000
0110
0000
0100
0001
0000
1000
0001
,
0010
0001
0000
0100
0001
0000
1000
0001
,
0000
1001
0000
0100
1000
0000
0010
1000
,
0000
0001
0000
1000
0100
1000
0001
1000
,
0000
0110
0000
0100
0001
0100
0010
1000
,
0000
0010
0000
1000
0010
0100
0001
0100
,
0001
0000
0010
0000
0100
1000
0000
0001
,
0000
0100
0000
0010
0100
0010
0100
0001
,
0010
0100
0000
1000
0100
0000
0010
0001
,
0000
1000
0000
0001
0100
0000
0010
1000
,
0010
0100
0000
0001
1000
0000
0100
1000
,
0100
0010
0000
0001
0010
0000
0001
1000
,
0001
0100
0000
0000
0110
0000
1000
0001
,
1000
0100
0000
0010
0001
0000
0100
0010
,
0100
0001
0000
0010
0100
0010
0001
1000
,
0001
1000
0000
0010
0100
0001
0000
0010
,
0100
1000
0001
0000
0001
0100
0000
0100
,
1000
0000
1000
0010
0000
0010
0001
0000
,
1001
0000
1000
0000
0100
0010
0100
0010
,
0100
1000
0000
0001
0010
0100
0010
0100
,
0010
0100
2000
0000
0000
3100
0000
0000
,
2000
0000
0000
3100
0000
0000
0020
0000
,
0031
0000
0002
0000
0000
0103
0000
0000
,
0002
0000
0000
0103
0000
0000
0020
0000
,
0200
0330
0000
0000
;

//---------------dance-single - ----------------
#NOTES:
     dance-single:
     :
     Easy:
     6:
     0.331617,0.367797,0.183262,0.244349,0.000000,228.000000,210.000000,18.000000,24.000000,0.000000,0.000000,0.331617,0.367797,0.183262,0.244349,0.000000,228.000000,210.000000,18.000000,24.000000,0.000000,0.000000:
0000
0000
0000
0000
,
0000
0000
0000
0000
,
0000
0000
0000
0000
,
0000
0000
0000
0000
,
0000
1000
0000
0000
0001
0000
0100
0000
,
0010
1000
0001
1000
,
0000
0100
0000
0000
0010
0000
0001
0000
,
1000
0001
0100
0010
,
1000
0000
0001
0000
0000
0001
0000
0000
,
1000
0000
0000
1000
0000
0000
0010
0000
,
0100
0001
0010
0100
,
0000
1000
0000
0000
0010
0000
0100
0000
,
0001
2000
0000
3000
,
1000
0001
0100
0010
,
0100
0002
0000
0003
,
0001
0010
0001
0100
,
0010
2000
0000
3000
,
0000
0100
0100
0010
,
0010
0000
0002
0000
0000
0023
0000
0000
,
0230
0000
0000
2300
0000
0000
3001
0000
,
0000
1000
1000
1000
,
1000
0001
0100
0010
,
0100
0001
0001
0001
,
0001
0010
0100
0010
,
0100
2000
0000
3000
,
0010
0100
0001
0100
,
0010
1000
0002
0000
,
0003
0100
0001
1000
,
0010
2010
0000
3100
,
0000
1200
0000
0310
,
0000
0012
0000
0103
,
0000
0210
0000
0301
,
0000
2001
0000
3100
,
0000
0012
0000
1003
,
0000
0001
0001
1000
,
1000
1001
0000
0110
,
0000
0010
1000
0010
,
1000
0001
0100
0001
,
0000
0010
0010
0010
,
0010
0100
1000
0100
,
0000
0010
0001
1000
,
0100
1000
0001
0010
,
0001
0000
1000
0000
0000
0010
0000
0000
,
0100
0000
0000
0001
0000
0000
0010
0000
,
0100
1000
0001
1000
,
0100
1000
0001
1000
,
0010
1000
0100
0010
,
0000
0002
0000
0000
0003
0000
0000
0000
,
0000
1001
0000
0000
0100
0000
0010
0000
,
0001
0100
0010
1000
,
0000
0001
0010
1000
,
0010
0001
0000
1000
,
0000
1001
0000
0000
0001
0000
0100
0000
,
0010
0100
0001
1000
,
0000
0010
0100
1000
,
0000
1001
0000
0000
0010
0000
0100
0000
,
0000
0110
0000
0000
0010
0000
1000
0000
,
0001
0010
0100
1000
,
0000
0001
0100
1000
,
0100
0001
0000
1000
,
0000
0110
0000
0000
0001
0000
1000
0000
,
0000
0110
0000
0000
0010
0000
0100
0000
,
0000
1001
0000
0000
1000
0000
0001
0000
,
1000
0001
0000
0000
1000
0000
0020
0000
,
0000
0000
0130
0000
0000
0101
0000
0000
,
0001
0000
0000
0011
0000
0000
0010
0000
,
0110
0100
1000
0010
,
0100
0001
0010
0100
,
1000
0001
2000
0000
0000
0000
0000
0000
,
3020
0000
0000
0230
,
0000
0302
0000
0000
,
0023
0000
0000
0230
,
2000
3300
0000
0000
;

//---------------dance-single - ----------------
#NOTES:
     dance-single:
     :
     Challenge:
     15:
     0.798499,0.993051,0.335980,0.274893,0.381796,549.000000,516.000000,33.000000,27.000000,0.000000,0.000000,0.798499,0.993051,0.335980,0.274893,0.381796,549.000000,516.000000,33.000000,27.000000,0.000000,0.000000:
// measure 0
0000
0000
0000
0000
,  // measure 1
0000
0000
0000
0000
,  // measure 2
0000
0000
0000
0000
,  // measure 3
0000
0000
0000
0000
0000
0000
0001
0010
,  // measure 4
0000
1100
0000
1000
0100
0010
0011
0000
,  // measure 5
1000
0010
0100
0010
1010
0000
1000
0100
,  // measure 6
0010
0011
0000
0001
0100
0010
0110
0000
,  // measure 7
0100
0000
0010
0000
0001
0000
0010
0000
0100
0000
0101
0000
0000
0000
0001
1000
,  // measure 8
0100
1000
0001
0000
0100
0000
0010
0000
0100
0000
0001
0000
0010
0000
0001
0000
,  // measure 9
1000
0010
1000
0001
0100
0001
1000
0100
,  // measure 10
0110
0000
0010
0001
0100
1000
0100
0001
,  // measure 11
0010
0000
0200
0000
0000
0000
1300
0000
0010
0000
0100
0000
0001
0010
0100
1000
,  // measure 12
0010
0100
0001
0000
1001
0000
0000
0000
0001
0000
0000
0000
0001
0000
0000
0000
,  // measure 13
0001
0000
1000
0000
0100
0000
1000
0000
0001
0000
0100
0000
0010
0000
0000
0100
,  // measure 14
0001
0100
0010
1000
0001
0000
0010
0000
,  // measure 15
0100
0000
1000
0000
0010
0000
0100
0000
0001
0000
1000
0000
0100
0000
0000
0010
,  // measure 16
0100
0000
0010
0000
0200
0000
0000
0000
0001
0000
0000
0000
1300
0000
0000
1000
,  // measure 17
0010
1000
0010
0100
0001
0000
0100
0001
,  // measure 18
0100
0010
1000
0000
0001
0000
0100
0000
0001
0000
1000
0000
0100
0000
1000
0000
,  // measure 19
0001
0000
0010
0000
0001
0000
1000
0000
0010
0000
1000
0001
0100
0000
0010
0000
,  // measure 20
0100
0001
0020
0000
1000
0000
0031
0010
,  // measure 21
0100
1100
1000
0000
0010
0000
0100
0001
,  // measure 22
0011
0010
0100
0000
1000
0001
1000
0100
,  // measure 23
0010
0000
0011
0000
0001
0000
1000
0000
0100
0000
0010
0100
1000
0000
0001
0000
,  // measure 24
0101
0000
0001
0100
0020
0000
0000
0000
0001
0000
0000
0000
1030
0000
0000
0000
,  // measure 25
1000
0000
1001
0000
0001
0000
1000
0000
0100
0000
0010
0000
0001
0000
0000
0001
,  // measure 26
0100
0010
0200
0000
1000
0000
0301
1000
,  // measure 27
0001
0000
0011
0000
0001
0000
1000
0000
1000
0000
0100
0010
0001
0000
0010
0000
,  // measure 28
0100
1000
0020
0000
0000
0130
0002
0000
,  // measure 29
0000
0013
0000
0100
0000
1000
0002
0000
,  // measure 30
0013
0100
0020
0000
0000
0031
0100
0000
,  // measure 31
0010
0000
0100
0000
0000
0000
0001
0000
0000
0000
0010
0000
0110
0000
0100
1000
,  // measure 32
0001
0000
0002
0000
0000
0103
0020
0000
,  // measure 33
0000
1030
0000
0010
0000
0100
0001
0000
,  // measure 34
1001
0000
2000
0000
0000
3100
0020
0000
,  // measure 35
0000
0000
0031
0000
0000
0000
0100
0000
0000
0000
0010
1000
0100
0000
0010
0000
,  // measure 36
0000
0000
0001
0100
1000
0001
0010
1000
,  // measure 37
0001
0100
1000
0001
0010
1000
0100
0100
,  // measure 38
0010
0010
1000
0010
0001
1000
0100
0001
,  // measure 39
1000
0010
0001
1000
0100
0001
1000
1000
,  // measure 40
0010
0001
1000
0000
0010
0100
0001
0000
1000
0000
0100
0010
0001
0000
0100
0000
,  // measure 41
0010
1000
0001
0000
0100
0000
0010
0100
0001
0000
0100
0000
0010
1000
0001
0000
,  // measure 42
0100
0001
1000
0000
0010
1000
0010
0000
0100
0000
0001
0010
0001
0000
1000
0000
,  // measure 43
0100
0010
0100
0000
0010
0000
0001
1000
0001
0000
1000
0100
0010
0000
0001
0100
,  // measure 44
0010
1000
0001
0010
0100
0000
0010
0000
0100
0000
0000
0010
0100
0000
1000
0000
,  // measure 45
0010
0100
0000
0010
0001
0010
0100
0001
,  // measure 46
0010
0100
1000
0001
0010
0000
1000
0000
0010
0000
0100
0000
1000
0000
0001
0000
,  // measure 47
0100
0020
0000
0000
0000
0000
0030
0000
,  // measure 48
0000
0000
0110
0000
0000
0000
0010
0000
1000
0000
0001
1000
0100
0000
0010
0000
,  // measure 49
0001
0000
0011
0000
0000
0000
0010
0000
0001
0000
0100
0010
0100
0000
0001
0000
,  // measure 50
0010
0000
0011
0000
0000
0000
0010
0000
0100
0000
1000
0001
1000
0000
0010
0000
,  // measure 51
0100
0000
0101
0000
0000
0000
0010
0000
1000
0000
0100
0010
0100
0000
1000
0001
,  // measure 52
0100
0000
0101
0000
0000
0000
0001
0000
0100
0000
0010
0000
1000
0000
0100
0010
,  // measure 53
0100
0000
1100
0000
0000
0000
0010
0000
0001
0000
1000
0001
1000
0000
0010
0000
,  // measure 54
0100
0000
0010
1000
0010
0000
0100
0000
0001
0000
0010
0000
0100
0000
1000
0000
,  // measure 55
0010
0000
0110
0000
0000
0000
0010
0000
1000
0000
0001
0100
0010
0000
1000
0100
,  // measure 56
0010
0001
0020
0000
0000
0000
0130
0000
1000
0000
0000
1000
0010
0000
1000
0000
,  // measure 57
0100
0000
0110
0000
0000
0000
0001
0000
0100
0000
0010
0100
0010
0000
0100
0000
,  // measure 58
0001
0000
0021
0000
0000
0000
0031
0000
0100
0000
0010
0000
1000
0000
0001
0010
,  // measure 59
0100
0000
1100
0000
0000
0000
0010
0000
0100
0000
1000
0010
0100
0000
0010
1000
,  // measure 60
0001
0100
0020
0000
0000
0000
0130
0000
0010
0000
0100
0001
0010
0000
0100
0000
,  // measure 61
1000
0000
1010
0000
0000
0000
0010
0000
0100
0000
0001
0010
0100
0000
1000
0000
,  // measure 62
0001
0100
0020
0000
0000
0000
0130
0000
0001
0000
0010
0000
0100
0000
1000
0001
,  // measure 63
0100
0000
0101
0000
0000
0000
0010
0000
1000
0000
0001
0000
0010
0001
0100
0001
,  // measure 64
0010
0100
1000
0000
0010
1000
0010
0000
1000
0000
0001
0010
0001
0000
0010
0000
,  // measure 65
0100
1000
0100
0000
1000
0000
0010
0100
0010
0000
0100
0000
0002
0000
0000
0000
,  // measure 66
1003
0010
0100
0020
1000
0000
0000
0000
0130
0010
0100
0000
0001
0100
0001
0000
,  // measure 67
1000
0001
1000
0000
0010
0100
0001
1000
0010
0100
0001
0100
0001
0010
0001
0010
,  // measure 68
0100
1000
0100
1000
0002
0000
0000
0000
0000
0000
0103
0000
0000
0000
0000
0000
,  // measure 69
0120
0000
0000
1030
0000
0000
1200
0000
,  // measure 70
0310
0000
0012
0000
0000
0103
0000
0000
,  // measure 71
0120
0000
0000
1030
0000
0000
1200
0000
,  // measure 72
0020
0330
0000
0000
;
