#TITLE:Kuusou Mesorogiwi;
#SUBTITLE:Mirai Nikki Opening 1;
#ARTIST:Yousei Teikoku;
#TITLETRANSLIT:;
#SUBTITLETRANSLIT:;
#ARTISTTRANSLIT:;
#GENRE:;
#CREDIT:Magna Trick;
#BANNER:KMBN.jpg;
#BACKGROUND:KMBG.jpg;
#LYRICSPATH:;
#CDTITLE:Magna Trick title!.png;
#MUSIC:Küsö Mesorogiwi.mp3;
#OFFSET:-0.120000;
#SAMPLESTART:52.400002;
#SAMPLELENGTH:14.000000;
#SELECTABLE:YES;
#BPMS:0.000000=57.509998
,4.000000=28.754999
,5.000000=57.509998
,7.000000=230.039993
,71.000000=172.529999
,74.000000=115.019997
,90.000000=230.039993
,122.000000=115.019997
,138.000000=57.509998
,138.500000=115.019997
,139.500000=230.039993
,199.500000=115.019997
,216.500000=230.039993
,247.500000=57.509998
,249.000000=115.000000
;
#STOPS:199.500000=0.261000,
199.750000=0.261000
;
#BGCHANGES:0.000=Küsö Mesorogiwi.avi=1.000=0=0=0=StretchNoLoop====,
0.063=Küsö Mesorogiwi.avi=1.000=0=0=1=====,
248.833=KMBG.jpg=1.000=0=0=1=====,
99999=-nosongbg-=1.000=0=0=0 // don't automatically add -songbackground-
;
#KEYSOUNDS:;
#ATTACKS:;

//---------------dance-single - ----------------
#NOTES:
     dance-single:
     :
     Hard:
     13:
     0.659162,0.879404,0.158328,0.294038,0.180946,408.000000,394.000000,14.000000,26.000000,0.000000,0.000000,0.659162,0.879404,0.158328,0.294038,0.180946,408.000000,394.000000,14.000000,26.000000,0.000000,0.000000:
0001
0010
0100
1000
0002
0000
0000
0000
2003
0000
3000
0000
0010
0100
0001
1000
0200
0000
0000
0000
0000
0000
0000
0000
0320
0000
0000
0000
0032
0000
0000
0000
,
2003
0000
0000
3000
0020
0000
0130
0001
1000
0100
0010
0001
1001
0000
0000
0000
,
0100
0000
1000
0010
0000
0100
0000
0001
,
0000
0010
0000
0001
0010
0000
0001
0000
,
1000
0000
0010
0100
0000
0010
0100
0000
,
0010
0100
0000
0001
1000
0000
1001
0000
,
0100
0000
0010
0100
0000
1000
0000
0001
,
0000
0100
0000
0010
0100
0000
0010
0000
,
1000
0000
0001
1000
0000
0001
1000
0000
,
0001
1000
0000
0100
0010
0000
0110
0000
,
0001
0000
1000
0000
0010
0000
0100
0001
,
0100
0001
0000
1000
0010
0000
1000
0000
,
0100
0000
0010
0000
0100
0000
0010
0100
,
0010
0000
0100
0010
0100
0000
1000
0000
,
0001
0000
0100
0000
0010
0000
0100
0001
,
1000
0100
0000
0010
0100
0000
0010
0000
,
0001
0000
1000
0000
0010
0000
1000
0010
,
1000
0000
0000
0000
0001
0000
0100
0000
0001
0000
0000
0000
1000
0000
0000
0001
,
0000
0000
0000
0000
1000
0000
0000
0000
0000
0000
0001
0000
0000
1000
0000
0000
1001
0000
0000
0000
0000
0000
0000
0000
0100
0000
0000
0000
0000
0000
0000
0000
,
1000
0010
0010
0100
0100
0001
1000
0100
,
1000
0001
0100
0001
1001
0000
0010
0000
,
1000
1000
0001
0001
0100
0010
0110
0010
,
1000
0001
1000
0001
1000
0100
1000
0001
,
0100
0001
1000
0010
1000
0001
0010
0000
,
0002
0000
2003
0000
3001
0010
0001
1000
,
0010
1000
0001
0100
0001
1000
0200
0000
,
2300
0000
3001
0000
0100
0010
0100
0001
,
0010
0100
0010
0001
1000
0010
0200
0000
,
0302
0000
2003
0000
3100
0010
0100
1000
,
0010
0100
0010
1000
0100
0010
0001
0000
,
2000
0000
0000
0000
3000
0000
0000
0000
1000
0000
0001
0100
0001
0000
1000
0000
,
0010
0000
1000
0000
0100
0000
0010
0000
0001
0000
0010
0100
1000
0000
0001
0000
,
0100
0000
0010
0000
0200
0000
0001
0000
2300
0000
0100
0010
3001
0000
1000
0000
,
0010
0000
0100
0001
0000
1000
0100
0000
0020
0000
0031
0100
1000
0000
0001
0010
,
1000
0000
0001
1000
0001
1000
0100
0010
2001
0000
3001
0000
0000
0000
1000
0000
,
0100
1000
0001
0000
0001
0100
0000
0001
,
0000
1000
0000
0010
0000
1000
0000
0001
,
0100
0010
1000
0000
1000
0010
0000
0100
,
0000
0001
0000
1000
0000
0100
0000
0010
,
0001
1000
0100
0000
0100
0010
0000
0001
,
0000
1000
0000
0010
0000
0100
0000
0001
,
1000
0010
0100
0001
1000
0100
0000
0010
,
0000
0001
0000
0010
0000
0100
0000
1100
,
0000
1000
0001
0000
0001
1000
0000
0010
,
0000
0100
0000
0001
0100
0001
0100
0010
,
0000
0010
1000
0000
1000
0100
0000
0010
,
0000
0001
0000
0010
0000
0100
0000
1000
,
0001
0100
0010
0000
0010
1000
0100
0020
,
0000
0000
0032
0000
0000
2003
3000
0220
,
0000
0000
0000
0000
0000
0000
0330
0000
0000
0000
0000
0000
0000
0000
0101
1010
,
1001
1100
0100
0010
0001
1000
0010
0100
,
0001
0000
1000
0000
0100
0000
1000
0000
0001
0000
0100
0000
0001
0000
1000
0010
,
1000
0010
1000
0000
0001
0000
0100
0000
0010
0000
1000
0000
0100
0000
0010
0000
,
0001
0000
0000
0010
0000
0000
0001
0000
0000
0000
0000
0000
1000
0000
0000
0000
0000
0000
0001
0000
0000
0000
0000
0000
1000
0000
0000
0000
0000
0000
0001
0000
0000
0000
0010
0000
0000
0000
0100
0000
0000
0000
1000
0000
0000
0000
0000
0000
,
0000
0001
1000
0100
1000
0001
0100
0001
,
1000
0010
1000
0001
0010
0001
1000
0010
,
0000
1000
0001
0100
0001
1000
0100
1000
,
0000
0001
0010
0001
1000
0000
0010
1000
,
0000
0001
1000
0010
1000
0001
0100
0001
,
1000
0100
1000
0001
0010
0001
1000
0000
,
0000
0100
1000
0010
0100
0001
0010
0000
,
0100
0000
0000
0000
0000
0000
1000
0000
0000
0000
0000
0000
0010
0000
0000
0000
0000
0000
1000
0000
0000
0000
0000
0000
0100
0000
0000
0000
0000
0000
0000
0000
0000
0000
0000
0000
0012
0000
0000
0000
0000
0000
0003
0000
0000
0000
0000
0001
,
0000
0000
1000
0000
0001
0000
0000
2000
0000
0000
3000
0000
0000
0000
0000
0000
0000
0000
0000
0000
0000
0000
0000
0000
0000
0000
0000
0000
0000
0000
0000
0000
0000
0000
0000
0000
0000
0000
0000
0000
0000
0000
0000
0000
0000
0000
0000
0000
;

//---------------dance-single - ----------------
#NOTES:
     dance-single:
     :
     Challenge:
     15:
     0.785178,1.512575,0.169637,0.294038,0.446711,486.000000,471.000000,15.000000,26.000000,0.000000,0.000000,0.785178,1.512575,0.169637,0.294038,0.446711,486.000000,471.000000,15.000000,26.000000,0.000000,0.000000:
// measure 0
1000
0100
0010
0001
1000
0100
0010
0001
1000
0100
1000
0100
0010
0001
0010
0001
0100
0010
1000
0001
0100
0010
1000
0001
0100
0010
0100
0010
1000
0001
1000
0001
,  // measure 1
0200
0000
0000
0000
0320
0000
1000
1030
0001
0010
0100
1000
1001
0000
0000
0000
,  // measure 2
0010
0000
0001
0100
0000
0010
0000
1000
,  // measure 3
0000
0100
1000
1000
0100
0000
1000
0000
,  // measure 4
0001
0000
0100
0010
0000
0100
1000
0000
,  // measure 5
0100
0001
0000
1000
0001
0100
1001
0000
,  // measure 6
0010
0000
0100
0010
0000
0001
0000
1000
,  // measure 7
0000
0010
1000
0100
0010
0000
0100
0000
,  // measure 8
0001
0100
1000
0001
0000
1000
0100
0000
,  // measure 9
1000
0010
0000
0100
0010
1000
0110
0000
,  // measure 10
1000
0000
0001
0001
0100
0000
0010
1000
,  // measure 11
0010
1000
0001
0001
0100
0000
0001
0001
,  // measure 12
0010
0000
1000
1000
0010
0000
0100
0100
,  // measure 13
0100
0000
0010
0010
0010
0000
1000
1000
,  // measure 14
0100
0000
0001
0001
0100
0000
0010
1000
,  // measure 15
0001
0010
0100
0100
0010
0000
0100
0100
,  // measure 16
1000
1000
0001
0001
0100
0000
0001
0001
,  // measure 17
0001
0000
0000
0000
1000
0000
1000
0000
1000
0000
0000
0000
0001
0000
0000
1000
,  // measure 18
0000
0000
0000
0000
0000
0000
0001
0000
0000
0000
0000
0000
0000
0000
0000
1000
0000
0100
0000
0010
0000
0001
0000
0000
2000
0000
0000
0000
0000
0000
0000
0000
0000
0000
0000
0000
3010
0000
0000
0000
0000
0000
0000
0000
0000
0000
0000
0000
,  // measure 19
1000
0000
0100
0000
0110
0000
0011
0000
0001
0000
1000
0001
0100
0010
1000
0000
,  // measure 20
0001
1000
0100
0000
0010
0001
1000
0000
1002
0000
0000
0000
0103
0000
0000
0000
,  // measure 21
0001
0000
0000
0000
0000
0000
0001
0000
0000
0000
0000
0000
1000
0000
0000
0000
0000
0000
1000
0000
0010
0000
0100
0000
0001
0000
0000
0000
0000
0000
0100
0000
0000
0000
0000
0000
0010
0000
0000
1000
0000
0000
0100
0000
0000
0000
0000
0000
,  // measure 22
0010
0001
0100
0000
0001
0100
1000
0000
0001
0000
0010
0000
1000
0000
0100
0000
,  // measure 23
0010
1000
0001
0100
0010
0001
0100
0000
,  // measure 24
2000
0000
3002
0000
1003
0100
0001
0010
,  // measure 25
0100
0001
1000
0010
0100
1000
0020
0000
,  // measure 26
0032
0000
0000
0000
1003
0100
1000
0100
0001
0000
0001
0000
0010
0000
1000
0000
,  // measure 27
0001
0100
0010
0001
1000
0100
0020
0000
,  // measure 28
2030
0000
3002
0000
0103
1000
0010
0001
,  // measure 29
1000
0100
0010
1000
0100
0010
0001
0001
,  // measure 30
0002
0000
0000
0000
1003
0000
1000
0000
0001
0000
1000
0010
0100
0000
0001
0000
,  // measure 31
0100
0000
0001
0000
0010
0000
0100
0000
1000
0000
0100
0010
0001
0000
1000
0000
,  // measure 32
0010
0000
0100
0000
0020
0000
1000
0000
0032
0000
0010
0100
1003
0000
0001
0000
,  // measure 33
0100
0000
0010
1000
0000
0001
0010
0000
0200
0000
1300
0010
0001
0000
1000
0100
,  // measure 34
0001
0000
0000
0000
0000
0000
1000
0000
0000
0001
0000
0000
1000
0000
0000
0001
0000
0000
0010
0000
0000
0100
0000
0000
1002
0000
0000
0000
0000
0000
1003
0000
0100
0000
1000
0000
0100
0000
1000
0000
0100
0000
0010
0000
0000
0000
0000
0000
,  // measure 35
0000
0001
0001
0000
1000
1000
0000
1000
,  // measure 36
0000
0001
0000
0100
0010
1000
0100
1000
,  // measure 37
0010
0100
0001
1000
0001
0200
0000
0310
,  // measure 38
0000
1000
0000
0001
0010
0100
0000
0100
,  // measure 39
1000
0001
0001
0010
0100
0100
0000
1000
,  // measure 40
0000
0001
0000
0100
0010
1000
0000
1000
,  // measure 41
0001
0100
0010
1000
0001
0010
0000
0200
,  // measure 42
0000
2300
0000
3200
0010
0301
0000
0011
,  // measure 43
0000
0001
1000
0000
1000
0001
0000
0100
,  // measure 44
0000
0010
0000
1000
0010
1000
0010
0100
,  // measure 45
0000
0100
0001
0000
0001
0010
0000
0100
,  // measure 46
0000
1000
0000
0100
0010
0001
0000
0001
,  // measure 47
1000
0010
0100
0000
0100
0001
0010
0200
,  // measure 48
0000
0000
2300
0000
0000
3002
0003
0120
,  // measure 49
0000
0000
1000
0000
0000
0000
0030
0000
0000
0000
1000
0000
0000
0000
1010
0101
,  // measure 50
1001
0000
0011
0000
0010
0000
0100
1000
0100
1000
0001
0000
0100
0000
0010
1000
,  // measure 51
0010
1000
0001
0000
0010
0000
0001
0100
0010
1000
0100
0000
1000
0000
0001
0100
,  // measure 52
0010
0000
0100
0000
0001
0000
1000
0000
0000
0000
0000
0000
1000
0000
0000
0000
0000
0000
0010
0000
0000
0100
0000
0000
0001
0000
0000
0100
0000
0000
0001
0000
0000
0000
0000
0000
0010
0000
0000
0000
0000
0000
0100
0000
0000
1000
0000
0000
,  // measure 53
0100
0000
0000
1000
0000
0000
0001
0000
0000
0000
0000
0000
1000
0000
0000
0000
0000
0000
0100
0000
0000
0010
0000
0000
0001
0000
0000
1000
0000
0000
0100
0000
0000
0000
0010
0000
0000
0000
0001
0000
0000
0000
1001
0000
0000
0000
0000
0000
,  // measure 54
0000
1000
0001
0010
0100
0001
1000
0010
,  // measure 55
0001
0100
1000
0100
0001
0010
0001
1000
,  // measure 56
0000
0001
1000
0010
1000
0100
0001
0100
,  // measure 57
0000
1000
0100
0001
0010
0000
0001
0100
,  // measure 58
0000
1000
0010
0100
0001
0010
1000
0010
,  // measure 59
0100
1000
0010
0001
0010
0100
0001
0000
,  // measure 60
0000
0010
0001
0100
1000
0010
1000
0000
,  // measure 61
0100
0000
0000
0000
0000
0000
0001
0000
0000
0000
0000
0000
0010
0000
0000
0000
0000
0000
0100
0000
0000
0000
0000
0000
1000
0000
0000
0000
0000
0000
0000
0000
0000
0000
0000
0000
2100
0000
0000
0000
0000
0000
3000
0000
0000
0000
0000
1000
,  // measure 62
0000
0000
0001
0000
1000
0000
0000
0002
0000
0000
0003
0000
0000
0000
0000
0000
0000
0000
0000
0000
0000
0000
0000
0000
0000
0000
0000
0000
0000
0000
0000
0000
0000
0000
0000
0000
0000
0000
0000
0000
0000
0000
0000
0000
0000
0000
0000
0000
;

//---------------dance-single - ----------------
#NOTES:
     dance-single:
     :
     Medium:
     9:
     0.458828,0.769729,0.248801,0.463675,0.062200,284.000000,262.000000,22.000000,41.000000,0.000000,0.000000,0.458828,0.769729,0.248801,0.463675,0.062200,284.000000,262.000000,22.000000,41.000000,0.000000,0.000000:
0000
0000
0000
0000
,
2000
0000
0000
3000
0020
0000
0130
0001
1000
0100
0010
0001
1000
0000
0000
0000
,
0001
1000
0010
0100
,
0001
0000
0010
0001
0010
0000
0001
0000
,
1000
0100
1000
0001
,
0100
0010
0110
1001
,
0010
1000
0100
1000
,
0001
0010
0001
1000
,
0010
0100
0001
1000
,
0010
1000
0001
0100
,
0010
0100
0010
0100
,
0001
1000
0010
0100
,
1000
0100
0001
1001
,
0000
1001
0000
1000
,
0100
1000
0100
0010
,
0001
0010
0001
1000
,
1000
0001
0001
0110
,
0000
0000
0000
0000
0110
0000
0000
0000
0000
0000
0000
0000
1000
0000
0000
0001
,
0000
0000
1000
0000
0000
0001
0000
0000
1001
0000
0000
0000
0001
0000
0000
0000
,
1000
0001
0001
1000
1000
0010
0100
0020
,
0000
1000
0000
1000
1030
0000
0001
0000
,
0010
0010
0100
0100
1000
0001
0100
0020
,
0000
1000
0000
1030
1100
0000
1100
0000
,
1100
1100
1100
0001
,
0010
0001
0101
0101
,
0101
0101
0101
1000
,
0010
0100
0010
0010
,
0010
0010
0010
1000
,
0100
1000
0001
0001
,
0001
0001
0001
0010
,
0200
0000
0000
0000
0300
0000
0000
0000
1000
0000
0001
1000
0001
0000
2000
0000
,
0000
0000
3200
0000
0320
0000
0000
0000
0032
0000
0000
0203
0000
0000
0320
0000
,
0000
0000
0000
0000
2030
0000
0000
3000
0200
0000
0000
0000
0000
0000
0000
0000
,
0320
0000
0000
0032
0000
0000
0203
0000
0320
0000
0000
0000
0000
0000
2030
0000
,
3002
0000
0000
0003
2001
3001
0000
1000
,
0000
0100
0000
1000
0000
0020
0000
0030
,
0000
0001
0000
0100
0000
0001
0000
2000
,
0000
3000
2000
0000
3000
2000
0000
0000
,
0000
3000
0000
0001
0000
0100
0000
0010
,
0000
1000
0000
0200
0300
0200
0000
0300
,
0000
0010
0000
0001
0000
0100
0000
0020
,
0000
0000
0230
0000
0000
0302
0000
0000
,
0003
0001
0000
0100
0000
0001
0000
2000
,
0000
3000
2000
0000
0000
0000
0000
0000
,
0000
3000
0000
0020
0000
0000
0000
0230
,
0000
0300
0200
0000
0000
0000
0000
0000
,
0000
0000
0000
0300
0000
0000
0000
0001
,
0100
0001
0100
0000
0000
0010
1000
0020
,
0000
0000
2030
0000
0000
3200
0000
0320
,
0000
0000
0000
0000
0000
0000
0000
0000
0030
0000
0000
0000
0000
0000
0101
1010
,
1001
0110
1000
0001
1000
0001
0100
0010
,
0100
0010
0100
0001
0010
0001
0010
0100
,
1000
0010
0100
0001
0100
0001
0100
0010
,
1000
0000
0000
0100
0000
0000
0010
0000
0000
0001
0000
0000
1000
0000
0000
0001
0000
0010
0000
0100
0000
1000
0000
0000
,
0000
1000
0001
1000
,
0010
0100
0001
0020
,
0030
0000
0001
1000
0001
1000
0001
0000
,
0000
0100
0010
0100
0010
0000
0100
0010
,
0000
0000
0100
0010
0100
0010
0100
0000
,
0001
0000
1000
0001
1000
0001
2000
0000
,
3000
0000
0001
0010
0001
0010
0001
0000
,
0000
1000
0100
1000
0100
0000
0020
0030
;

//---------------dance-single - ----------------
#NOTES:
     dance-single:
     :
     Easy:
     6:
     0.334428,0.489827,0.214874,0.248801,0.028273,207.000000,188.000000,19.000000,22.000000,0.000000,0.000000,0.334428,0.489827,0.214874,0.248801,0.028273,207.000000,188.000000,19.000000,22.000000,0.000000,0.000000:
0000
0000
0000
0000
,
0000
0000
0000
0000
,
0001
0000
1000
0000
,
0001
0000
0100
0000
,
0010
0000
0100
0000
,
0001
0000
1000
1000
,
0000
0000
0001
0000
,
0010
0000
0100
0000
,
1000
0000
0001
0000
,
1000
0000
0010
0010
,
0000
1000
0000
0001
,
0000
1000
0000
0100
,
0000
0010
0000
1001
,
0000
1001
0000
1000
,
0000
0001
0000
1000
,
0000
0010
0000
0100
,
0000
0001
0000
0110
,
0000
0110
0000
0000
,
0000
0000
1001
1000
,
0001
1000
1000
0001
0001
1000
0001
2000
,
0000
3001
0000
0001
0001
0000
1000
0000
,
1000
1000
0001
0001
1000
0001
1000
0002
,
0000
0003
1001
1001
,
1001
1001
1001
0000
,
0000
0000
0110
0110
,
0110
0110
0110
0000
,
0000
0000
0001
0001
,
0001
0001
0001
0000
,
0000
0000
1000
1000
,
1000
1000
1000
0100
,
0020
0000
0030
0000
0000
0000
0000
0002
,
0000
0000
0023
0000
0230
0000
0000
0000
2300
0000
0000
3020
0000
0000
0230
0000
,
0000
0000
0000
0000
0302
0000
0000
0003
0020
0000
0000
0000
0000
0000
0000
0000
,
0230
0000
0000
2300
0000
0000
3020
0000
0230
0000
0000
0000
0000
0000
0302
0000
,
2003
0000
0000
3000
1002
1003
0000
0000
,
0000
1000
0000
0000
0000
0001
0000
0000
,
0000
0100
0000
0000
0000
0010
0000
0000
,
0000
0100
0000
0000
0000
0001
0000
0000
,
0000
1000
0000
0000
0000
0100
0000
0000
,
0000
0010
0000
0000
0000
0001
0000
0000
,
0000
1000
0000
0000
0000
0001
0000
0000
,
0000
0100
0000
0000
0000
0010
0000
0000
,
0000
0100
0000
0000
0000
0001
0000
1000
,
0000
0001
0000
1000
0000
0000
0000
0001
,
0000
0000
0000
1000
0000
0000
0000
0100
,
0000
0010
0000
0100
0000
0000
0000
0010
,
0000
0000
0000
0001
0000
0000
0000
1000
,
0000
0001
0000
1000
0000
0010
0000
0100
,
0000
0010
0000
0100
0000
0001
0000
2000
,
0000
0000
0000
0000
0000
0000
3001
0000
0000
0000
0000
0000
0000
0000
1001
0110
,
1001
0001
0001
1000
,
1000
0100
0100
0010
,
0010
0001
0001
1000
,
0010
0000
0000
0000
0000
0000
0100
0000
0000
0000
0000
0000
0001
0000
0000
1000
0000
0100
0000
0010
0000
0001
0000
0000
,
0000
0001
1000
0001
,
0100
0010
1000
0200
,
0300
0000
1000
0001
1000
0001
1000
0000
,
0000
0010
0100
0010
0100
0000
0010
0100
,
0000
0000
0010
0100
0010
0100
0010
0000
,
1000
0000
0001
1000
0001
1000
0002
0000
,
0003
0000
1000
0100
1000
0100
1000
0000
,
0000
0001
0010
0001
0010
0000
0200
0300
;
