#TITLE:Koi no Uta;
#SUBTITLE:Tonikaku Kawaii Opening;
#ARTIST:Yunomi ft. Akari Kito;
#TITLETRANSLIT:;
#SUBTITLETRANSLIT:;
#ARTISTTRANSLIT:;
#GENRE:;
#CREDIT:;
#BANNER:Koi no Uta-bn.jpg;
#BACKGROUND:Koi no Uta-bg.jpg;
#LYRICSPATH:;
#CDTITLE:cdtitle_ukiarrow.png;
#MUSIC:Koi no Uta.mp3;
#OFFSET:-0.837682;
#SAMPLESTART:1.140000;
#SAMPLELENGTH:12.000000;
#SELECTABLE:YES;
#BPMS:0.000000=80.000000
,49.000000=160.000000
,113.000000=80.000000
,129.000000=160.000000
;
#STOPS:
;
#BGCHANGES:0.000=Koi no Uta.avi=1.000=0=0=0=StretchNoLoop====,
161.000=Koi no Uta-bg.jpg=1.000=0=0=1=====,
99999=-nosongbg-=1.000=0=0=0 // don't automatically add -songbackground-
;
#KEYSOUNDS:;
#ATTACKS:;

//---------------dance-single - ----------------
#NOTES:
     dance-single:
     :
     Hard:
     14:
     0.558300,0.675752,0.011263,0.045050,0.765852,347.000000,346.000000,1.000000,4.000000,0.000000,0.000000,0.558300,0.675752,0.011263,0.045050,0.765852,347.000000,346.000000,1.000000,4.000000,0.000000,0.000000:
0000
0000
0000
0000
,
0000
0000
0000
0000
,
0000
0000
1000
0000
0100
1000
0001
0000
,
0001
0100
0010
0000
0010
0100
0002
0000
,
0003
1000
0100
0000
0010
0001
0100
0000
,
0010
1000
0100
0000
0010
0100
1000
1000
,
0000
1000
0001
0000
0100
0010
1000
0000
,
0010
0100
0001
0000
0010
0100
2000
0000
,
3000
0000
0000
0000
1000
0000
1000
0000
0100
0100
0000
0010
0000
0001
1000
0001
,
0100
0010
0100
0000
0010
0000
0010
0000
1000
0100
0000
0020
0000
0000
0031
0000
,
1000
0000
0000
0001
0100
0000
0100
0000
0010
1000
0000
0001
0000
1000
0100
1000
,
0100
0010
0001
0000
1000
0000
0010
0100
0001
0100
0000
0010
0000
1000
0001
0000
,
1000
0000
0000
0000
0001
0000
1000
0000
0100
0010
0000
0100
0000
0000
0010
0100
,
0010
0000
0001
0000
1000
0000
0010
0000
0100
0010
0000
0100
0000
0010
1000
0000
,
0001
0000
0000
0000
1000
0000
0100
0000
0010
0100
0000
0010
0000
0000
0001
0010
,
0100
0000
1000
0000
0001
0000
0001
0000
0100
0001
0000
1000
0000
0010
0100
0000
,
0010
0000
0000
0000
1000
0100
1000
0000
0001
0100
0000
0010
0000
0100
0001
1000
,
0001
0000
0010
0000
0100
0010
0100
0000
1000
0100
0000
0010
0000
0100
1000
0000
,
0001
0000
0000
0001
0100
0000
0010
1000
0001
1000
0000
0010
0000
0100
0001
1000
,
0010
0000
1000
0001
0100
0000
0001
0100
0010
1000
0000
0001
0000
0010
0100
0000
,
1000
0000
0000
0000
0001
0100
0001
0000
1000
0100
0000
0010
0000
0001
0010
0100
,
1000
0000
0001
0000
0100
0010
1000
0000
0100
0010
0000
0001
0000
0100
0010
0000
,
1000
0000
0000
0000
1000
0010
0100
0000
0001
0100
0000
0010
0000
0100
0001
1000
,
0100
0000
1000
0000
0001
0000
0100
0010
1000
0001
0000
1000
0000
0001
0100
0000
,
0010
0000
0000
0000
1000
0100
0010
0000
0001
0010
0000
0001
0000
1000
0000
0010
,
0100
0001
0010
0000
0001
1000
0001
0000
0010
0100
0000
1000
0000
0001
0100
0000
,
0010
0000
0000
0010
0100
0001
0100
0001
0100
0010
0100
0010
0100
1000
0100
1000
,
0100
0001
1000
0001
2000
0000
0000
0000
0000
0000
0000
0000
0000
0000
0000
0000
,
3000
0000
0000
0000
0000
0000
0000
0000
1001
0000
0000
0000
0000
0000
0000
0000
0100
0000
0000
0000
0000
0000
0010
0000
0000
0000
0000
0001
1000
0000
0000
0000
,
0010
0000
0000
0000
0100
0000
0001
0000
0000
0000
0000
0000
0000
0000
0000
0000
0100
0000
0000
0000
0010
0000
0000
0000
1000
0000
0000
0001
0100
0000
0000
0000
,
0010
0000
0100
0000
0001
0000
1000
0000
0100
0000
0000
0000
0100
0000
0000
0000
0010
0000
0000
0000
0001
0000
1000
0000
0000
0000
0000
0010
0100
0000
0000
0000
,
0001
0000
0000
0000
0010
0000
0100
0000
1000
0000
1000
0000
0010
0000
0100
0001
0100
0000
0001
0000
1000
0000
0100
0000
0010
0000
0001
1000
0001
0000
0100
0000
,
0010
0000
1000
0000
0001
0100
0010
0000
0100
0000
0000
0000
0001
0000
0000
0000
0010
0000
0100
0000
0000
0000
1000
0000
0000
0000
0100
0000
0001
0000
0000
0000
,
0100
0000
1000
0000
0010
1000
0000
0001
0010
0100
0000
0010
0001
0000
1000
0000
,
0010
0000
0000
0000
0100
0000
0100
0000
0001
1000
0000
0010
0000
0000
0100
0001
,
1000
0000
0100
1000
0010
0000
0100
0001
1000
0000
0100
0010
0000
0001
1000
0000
,
0100
0000
0000
0000
0010
0000
0001
0000
1000
0010
0000
0100
0000
0010
0000
1000
,
0001
0000
0010
0000
0100
0000
1000
0100
1000
0001
0000
0100
0000
0010
1000
0000
,
0001
0000
0000
0000
0100
0000
0001
0000
0010
0100
0000
0010
0000
0001
0100
0010
,
1000
0000
0001
0000
1000
0000
0100
0010
0001
1000
0000
0100
0000
1000
0010
0000
,
0100
0000
0000
0000
;

//---------------dance-single - ----------------
#NOTES:
     dance-single:
     :
     Medium:
     12:
     0.450501,0.495551,0.045050,0.101363,0.106994,280.000000,276.000000,4.000000,9.000000,0.000000,0.000000,0.450501,0.495551,0.045050,0.101363,0.106994,280.000000,276.000000,4.000000,9.000000,0.000000,0.000000:
0000
0000
0000
0000
,
0000
0000
0000
0000
,
0000
0000
0000
0000
1000
0000
0000
0000
0001
0010
0001
0000
0100
0000
0000
0000
,
0010
1000
0001
0000
0100
0000
0010
0100
0010
0000
1000
0000
0200
0000
0000
0000
,
0300
0000
0010
0000
0001
0000
0000
0000
1000
0100
0010
0000
0001
0000
0000
0000
,
0100
0000
0001
0000
1000
0000
0001
0010
0100
0000
1000
0000
0001
0000
0100
0000
,
0000
0000
0100
0000
0010
0000
0000
0000
1000
0001
0100
0000
0001
0000
0000
0000
,
0100
0010
1000
0000
0010
0000
0100
0001
0100
0000
0010
0000
2000
0000
0000
0000
,
3000
0000
0000
0000
1000
0000
0100
0000
0020
0000
0000
0000
0031
0100
0001
0000
,
1000
0100
1000
0000
0010
0000
0010
0000
0200
0000
0000
0000
0301
0000
1000
0000
,
1001
0000
0001
0010
0200
0000
1300
0100
,
0010
0001
1000
0000
0010
0000
0100
0000
0002
0000
0000
0000
1003
0000
0010
0000
,
1001
0000
1000
0100
1000
0000
0001
0010
,
0100
1000
0001
0100
0001
0000
0010
0100
,
1000
0000
0001
0100
0001
0000
1000
0100
,
0010
0001
1000
0100
1000
0000
0001
0100
,
0010
0000
1000
0100
1000
0100
0010
0001
,
0100
0000
0001
0100
0001
0100
0010
1000
,
0100
0000
0010
0001
0100
0001
0010
0100
,
1000
1000
0010
1000
0100
1000
0010
0100
,
0001
0000
1000
0100
0010
0010
0001
0010
,
0100
0100
1000
0010
0100
0001
0010
0100
,
1000
0000
0001
0100
0010
0010
1000
0010
,
0100
0100
0001
0010
0100
0010
0001
0100
,
1000
0000
1000
0100
0010
0100
0001
1000
,
0001
0010
0100
0010
1000
0010
0001
0100
,
0010
0000
1000
0100
0010
0001
1000
0100
,
0010
0002
2000
0000
0000
0000
0000
0000
,
3003
0000
1001
0000
0100
0000
0010
0100
,
1001
0000
0010
0010
0000
0000
0000
0000
0100
0000
0001
0000
0200
0000
0300
0000
,
0100
0010
1000
0100
0010
0000
0001
0000
0010
0000
0100
1000
0000
0000
0001
0000
,
1000
0000
0001
0000
0100
0000
0010
0100
0010
0000
0100
1000
0100
0000
0010
0001
,
0010
0000
0100
0001
1000
0000
0100
0000
0010
0000
0001
0000
0001
0000
0010
0000
,
0100
1000
0001
0010
0100
1000
0010
0100
,
0001
0000
0001
0100
0010
1000
0001
0010
,
0100
1000
1000
0001
0100
0010
0100
0010
,
1000
0000
0001
0010
0100
0010
0100
1000
,
0001
0100
0010
0100
1000
0100
0001
1000
,
0001
0000
1000
0010
0001
0001
0010
0100
,
0100
0001
0010
1000
0010
0100
0100
1000
,
0010
0000
0000
0000
;

//---------------dance-single - ----------------
#NOTES:
     dance-single:
     :
     Easy:
     9:
     0.376490,0.360401,0.033788,0.067575,0.000000,234.000000,231.000000,3.000000,6.000000,0.000000,0.000000,0.376490,0.360401,0.033788,0.067575,0.000000,234.000000,231.000000,3.000000,6.000000,0.000000,0.000000:
0000
0000
0000
0000
,
0000
0000
0000
0000
,
0000
0000
1000
0000
0001
0010
0100
0000
,
0100
1000
0001
0000
0001
0100
0020
0000
,
0030
0000
1000
0000
0001
1000
0100
0000
,
0100
0010
0001
0000
0001
1000
0020
0000
,
0030
0000
0010
0000
1000
0001
0100
0000
,
0100
0010
1000
0000
1000
0001
2002
0000
,
3003
0000
1000
1000
0100
0000
1000
1000
,
0010
0100
0001
0001
0010
0000
0001
0100
,
0101
0000
0001
0001
0100
0000
0001
0010
,
0010
0100
1000
0100
0100
0000
1000
0010
,
1010
1000
0100
0001
,
0100
0000
1000
0000
0010
0000
1000
0001
,
1000
0001
0100
1000
,
0100
0000
0001
0000
0010
0000
0001
1000
,
0001
0000
1000
0100
1000
0100
1000
0000
,
0100
0000
0010
0001
0010
0001
0010
0000
,
0001
0000
0100
0001
0100
0001
0100
0000
,
0001
0000
1000
0010
1000
0010
1000
0000
,
0001
0000
1000
0100
1000
0100
1000
0100
,
1000
0000
0100
0010
0100
0010
0100
0010
,
0100
0000
0010
0001
0010
0001
0010
0001
,
0010
0000
0001
0100
0001
0100
0001
0100
,
0001
0000
1000
0001
1000
0001
1000
0001
,
1000
0001
0100
0010
0100
0010
0100
0010
,
0100
0000
0001
0100
0001
0100
0010
1000
,
0010
1000
0002
0000
0000
0000
0000
0000
,
0003
0000
0001
0000
0100
0000
0001
0010
,
0100
0000
1000
0000
0010
0000
1000
0100
,
0010
0001
1000
0000
0100
0000
0001
0100
,
1000
0001
1000
1000
0010
0010
0100
0100
,
0002
0003
1000
0100
1000
0100
1000
0100
,
0010
0000
0001
0010
0001
0010
0001
0010
,
0100
0000
1000
0010
1000
0010
1000
0010
,
0100
0000
0001
0100
0001
0100
0001
0100
,
0010
0000
1000
0001
1000
0001
1000
0001
,
0100
0000
0010
0100
0010
0100
0001
1000
,
0001
0000
1000
0100
1000
0100
0010
0001
,
0010
0001
1000
0100
1000
0100
0010
0001
,
1000
0000
0000
0000
;

//---------------dance-single - ----------------
#NOTES:
     dance-single:
     :
     Challenge:
     16:
     0.704713,0.883968,0.135150,0.078838,1.109359,438.000000,426.000000,12.000000,7.000000,0.000000,0.000000,0.704713,0.883968,0.135150,0.078838,1.109359,438.000000,426.000000,12.000000,7.000000,0.000000,0.000000:
// measure 0
0000
0000
0000
0000
,  // measure 1
0000
0000
0000
0000
,  // measure 2
0000
0000
1000
0000
1000
0000
0000
1000
0001
0010
0100
1000
0001
0000
0000
0000
,  // measure 3
0001
0100
0010
1000
0001
0000
0001
0010
0100
1000
0010
0000
0200
0000
0000
0000
,  // measure 4
0300
0000
0010
0000
1000
0000
0000
1000
0100
0010
0001
0010
0100
0000
0000
0000
,  // measure 5
1000
0010
0100
0001
0100
0000
0001
0100
0010
1000
0001
0000
0010
0000
0100
0000
,  // measure 6
0000
0000
0100
0000
0010
0000
0000
0010
0001
0010
0100
1000
0001
0000
0000
0000
,  // measure 7
0100
0010
1000
0100
0010
0000
0001
0010
0100
1000
0001
0000
2000
0000
0000
0000
,  // measure 8
3000
0000
0000
0000
1000
0000
0100
0000
0010
0001
0000
0100
0000
0010
1000
0100
,  // measure 9
0010
0001
0100
0000
0010
0000
0100
0000
0001
0010
0000
0100
0000
0000
1000
0000
,  // measure 10
1001
0000
0000
1000
0001
0000
0010
0000
0100
1000
0000
0010
0000
0100
0001
0010
,  // measure 11
0001
0100
0010
0000
1000
0000
0100
0010
0001
0100
0000
0010
0000
1000
0001
0000
,  // measure 12
1001
0000
0000
0000
1000
0000
0100
0000
1000
0001
0000
0010
0000
0000
0010
0100
,  // measure 13
1000
0000
0001
0000
0100
0000
0010
0000
0100
0001
0000
0010
0000
0100
1000
0000
,  // measure 14
0001
0000
0000
1000
0001
0000
0100
0000
0001
1000
0000
0100
0000
0010
0001
1000
,  // measure 15
0100
0000
1000
0000
0010
0000
0100
0000
0001
0010
0000
0100
0000
1000
0010
0000
,  // measure 16
0100
0000
0000
0000
0010
1000
0100
0000
0010
0001
0000
0100
0000
0001
0010
0100
,  // measure 17
1000
0010
0100
0000
0001
0000
0100
0000
0010
1000
0000
0100
0000
0010
0001
0000
,  // measure 18
1000
0000
0000
1000
0001
0000
0010
0100
1000
0010
0000
0100
0000
0001
0010
0100
,  // measure 19
1000
0000
0001
1000
0010
0000
0100
0001
0010
0100
0000
1000
0000
0010
0100
0000
,  // measure 20
0001
0000
0000
0000
1000
0000
0010
0000
1000
0100
0000
0010
0000
0001
0100
0010
,  // measure 21
0100
0000
0001
0000
0010
0000
0100
0000
1000
0001
0000
0010
0000
0100
1000
0000
,  // measure 22
1001
0000
0000
0000
0001
0000
0100
0000
0010
1000
0000
0100
0000
0010
0001
0010
,  // measure 23
0100
1000
0010
0000
0100
0000
0001
0010
0100
0010
0000
0001
0000
1000
0100
0000
,  // measure 24
0110
0000
0000
0000
0010
0000
0001
0000
1000
0100
0000
0010
0000
0100
0000
1000
,  // measure 25
0001
0010
0100
0000
0010
0000
0100
0000
1000
0001
0000
0010
0000
0001
1000
0000
,  // measure 26
0100
0000
0000
1000
0100
0010
0001
1000
0100
0010
0001
1000
0100
1000
0001
0010
,  // measure 27
0100
1000
0001
0010
0100
0000
1000
0001
0010
0100
0000
1000
0000
0001
0010
0000
,  // measure 28
0100
0000
0000
0000
0000
0000
0000
0000
1001
0000
1000
0000
1000
0100
0000
0010
0000
0000
0001
0000
0001
0000
0100
0000
0010
0000
1000
0000
1000
0100
0000
0010
,  // measure 29
0000
0000
0001
0000
0001
0000
0100
0000
0010
0000
1000
0000
1000
0100
0000
0010
0000
0000
0001
0000
0010
0100
1000
0001
0010
0000
0001
0010
0100
1000
0000
0001
,  // measure 30
0000
1000
0010
0000
0100
0000
0001
0000
1000
0000
0100
0000
0010
0001
0000
0010
0000
0000
0100
0000
1000
0000
0001
0000
0010
0000
0001
0000
1000
0100
0000
0010
,  // measure 31
0000
0001
1000
0000
0001
0000
0100
0000
0010
0000
1000
0000
0100
0000
0010
0001
0100
0000
0010
0000
0100
0000
0001
0000
0010
0000
0100
1000
0010
0000
0100
0000
,  // measure 32
0001
0010
0100
0000
0100
1000
0100
0010
0001
0000
0100
0000
0010
0000
0100
0000
0001
0000
1000
0000
0000
0000
0001
0000
1000
0000
0100
0000
0010
0000
0001
0000
,  // measure 33
1000
0000
0100
0000
0010
0001
0000
1000
0010
0001
0000
0010
1000
0100
0010
0000
,  // measure 34
0020
0000
0031
0000
1000
0100
0010
0001
0010
0100
0000
1000
0001
0010
0100
0010
,  // measure 35
0001
0000
1000
0000
0101
0000
1010
0000
1100
0000
0010
0001
0000
0001
0100
0000
,  // measure 36
0102
0000
1003
0000
0011
0000
0110
0000
0001
0010
0001
1000
0000
0001
1000
0100
,  // measure 37
0010
0000
0001
0000
0100
0001
0100
0010
1000
0010
0000
0100
0001
0010
0100
0000
,  // measure 38
0200
0000
0300
0000
0001
0010
0001
1000
0001
0100
0001
0010
0100
1000
0010
0100
,  // measure 39
0001
0000
0010
0001
0010
0100
1000
0010
0100
0010
0100
0001
0100
0010
1000
0000
,  // measure 40
0202
0303
0000
0000
;
