#TITLE:キン肉マン Go Fight!;
#SUBTITLE:Kinnikuman Opening 1 Remix;
#ARTIST:Quiqman feat. Kenji Kanamaru;
#TITLETRANSLIT:Kinnikuman Go Fight!;
#SUBTITLETRANSLIT:;
#ARTISTTRANSLIT:;
#GENRE:;
#CREDIT:;
#BANNER:Kinnikuman go fight-bn.png;
#BACKGROUND:Kinnikuman go fight-bg.png;
#LYRICSPATH:;
#CDTITLE:cdtitle.png;
#MUSIC:Kinnikuman Go Fight.ogg;
#OFFSET:-5.091268;
#SAMPLESTART:37.922001;
#SAMPLELENGTH:12.000000;
#SELECTABLE:YES;
#BPMS:0.000000=189.996994
;
#STOPS:
;
#BGCHANGES:0.125=Kinnikuman Go Fight.avi=1.000=0=0=1=====,
356.000=Kinnikuman go fight-bg.png=1.000=0=0=1=====,
99999=-nosongbg-=1.000=0=0=0 // don't automatically add -songbackground-
;
#KEYSOUNDS:;
#ATTACKS:;

//---------------dance-single - ----------------
#NOTES:
     dance-single:
     :
     Challenge:
     15:
     0.809426,0.859131,0.235033,0.092335,0.125911,675.000000,647.000000,28.000000,11.000000,0.000000,0.000000,0.809426,0.859131,0.235033,0.092335,0.125911,675.000000,647.000000,28.000000,11.000000,0.000000,0.000000:
// measure 0
0010
1000
0010
1000
0010
0100
0010
0100
,  // measure 1
0001
0010
0001
0010
0100
0010
0001
0010
,  // measure 2
0100
0010
0001
1000
0010
0100
0010
0100
,  // measure 3
0110
0000
0001
0001
,  // measure 4
1000
0010
1000
0010
0100
0001
0010
0100
,  // measure 5
0010
0001
0010
0100
0010
0001
0010
0001
,  // measure 6
0010
0001
0010
0000
0001
0010
0100
0000
,  // measure 7
0010
0001
1000
0010
0100
0001
1000
0010
,  // measure 8
0100
0001
1000
0100
1000
0100
1000
0010
,  // measure 9
0100
0010
0100
0000
0010
0100
0001
1000
,  // measure 10
0001
0010
0100
0010
0001
0010
0100
0010
,  // measure 11
0001
0000
0010
0000
0001
0010
0001
0010
,  // measure 12
0100
1000
0010
1000
0010
1000
0010
0100
,  // measure 13
0010
0000
1000
0000
0001
1000
0001
0010
,  // measure 14
0100
0010
0001
0010
0100
0010
0001
1000
,  // measure 15
0010
0100
0010
1000
0001
0100
0010
1000
,  // measure 16
0001
1000
0010
0000
1000
0100
1000
0000
,  // measure 17
0001
0100
1000
0000
0100
0010
1000
0000
,  // measure 18
0001
0010
0001
0010
0001
0010
0001
1000
,  // measure 19
1001
0000
1000
0001
1000
0000
0001
1000
0001
0000
0100
0010
0100
0010
0100
0010
,  // measure 20
1000
1000
0001
0001
0010
0010
0001
0100
,  // measure 21
0001
0100
0010
0100
0001
0010
0001
0010
,  // measure 22
1001
0000
1001
0000
1001
0000
0100
0001
,  // measure 23
0000
0100
0001
0000
1000
1000
1000
0001
,  // measure 24
1000
1000
0001
0001
0100
0100
0010
0010
,  // measure 25
0100
0000
0100
0000
0010
0000
0010
0000
0100
0000
0100
0000
0010
0100
0010
0100
,  // measure 26
0020
0000
1030
0000
0010
1000
0100
1000
,  // measure 27
0002
0000
1003
0000
0001
0100
0010
1000
,  // measure 28
0001
1000
0001
0000
0001
1000
0001
0000
,  // measure 29
1000
0000
0000
1000
0010
0000
0100
0000
0001
0000
0100
0000
0010
0100
0001
0000
,  // measure 30
0101
0000
0001
1000
0001
1000
0100
1000
,  // measure 31
0100
0000
1000
0010
1000
0100
1000
0001
,  // measure 32
0100
0000
0001
0100
0001
0000
1000
0010
1000
0000
0010
0100
0010
0100
0001
0100
,  // measure 33
0010
1000
0010
0100
0010
0100
0010
0100
,  // measure 34
0001
0001
0001
0000
1001
0000
1000
0001
,  // measure 35
0000
0101
0101
0000
1000
0100
0010
0000
,  // measure 36
0001
0100
0010
1000
0100
0010
0100
1000
,  // measure 37
0001
0100
0001
1000
0001
1000
0001
1000
,  // measure 38
0002
0000
1000
1000
1000
0000
0103
0000
,  // measure 39
1001
1010
1100
1010
,  // measure 40
0200
0000
1000
1000
1000
0000
0310
0000
,  // measure 41
0011
0000
0001
1000
0002
0000
1003
0000
,  // measure 42
0110
0000
0100
1000
0200
0000
1300
0000
,  // measure 43
0101
0000
0010
1000
0020
0000
1030
0000
,  // measure 44
1000
0100
1000
0100
1000
0001
0100
0010
,  // measure 45
1000
0010
0100
0010
0100
0010
0100
0010
,  // measure 46
2002
0000
0000
3003
,  // measure 47
0100
0001
1000
0010
0100
0001
1000
0100
,  // measure 48
1000
1000
0001
0100
0001
0100
0100
0001
,  // measure 49
0100
0010
1000
0001
0010
0100
1000
0001
,  // measure 50
1000
0001
0001
0100
0001
0100
0100
0001
,  // measure 51
0100
0001
0100
0001
0100
0010
0100
0010
,  // measure 52
1000
0100
1000
0100
0010
0100
1000
0100
,  // measure 53
0010
0100
1000
0001
0100
0010
0100
0010
,  // measure 54
0110
0000
1000
1000
,  // measure 55
0001
0100
0001
0100
0010
1000
0100
0010
,  // measure 56
0100
1000
0100
0010
0100
1000
0100
1000
,  // measure 57
0100
1000
0100
0000
1000
0100
0010
0000
,  // measure 58
0100
1000
0001
0100
0010
1000
0001
0100
,  // measure 59
0010
1000
0001
0010
0001
0010
0001
0100
,  // measure 60
0010
0100
0010
0000
0100
0010
1000
0001
,  // measure 61
1000
0100
0010
0100
1000
0100
0010
0100
,  // measure 62
1000
0000
0100
0000
1000
0100
1000
0100
,  // measure 63
0010
0001
0100
0001
0100
0001
0100
0010
,  // measure 64
0100
0000
0001
0000
1000
0001
1000
0100
,  // measure 65
0010
0100
1000
0100
0010
0100
1000
0001
,  // measure 66
0100
0010
0100
0001
1000
0010
0100
0001
,  // measure 67
1000
0001
0100
0000
0001
0010
1001
0000
,  // measure 68
1000
0010
0001
0000
0010
0100
1001
0000
,  // measure 69
1000
0100
1000
0100
1000
0100
1000
0001
,  // measure 70
1001
0000
0001
1000
0001
0000
1000
0001
1000
0000
0010
0100
0010
0100
0010
0100
,  // measure 71
0001
0001
1000
1000
0100
0100
1000
0010
,  // measure 72
1000
0010
0100
0010
1000
0100
1000
0100
,  // measure 73
1001
0000
1001
0000
1001
0000
0010
1000
,  // measure 74
0000
0010
1000
0000
0001
0001
0001
1000
,  // measure 75
0001
0001
1000
1000
0010
0010
0100
0100
,  // measure 76
0010
0000
0010
0000
0100
0000
0100
0000
0010
0000
0010
0000
0100
0010
0100
0010
,  // measure 77
0200
0000
0301
0000
0100
0001
0010
0001
,  // measure 78
2000
0000
3001
0000
1000
0010
0100
0001
,  // measure 79
1000
0001
1000
0000
1000
0001
1000
0000
,  // measure 80
0001
0000
0000
0001
0100
0000
0010
0000
1000
0000
0010
0000
0100
0010
1000
0000
,  // measure 81
1010
0000
1000
0001
1000
0001
0010
0001
,  // measure 82
0010
0000
0001
0100
0001
0010
0001
1000
,  // measure 83
0010
0000
1000
0010
1000
0000
0001
0100
0001
0000
0100
0010
0100
0010
1000
0010
,  // measure 84
0100
0001
0100
0010
0100
0010
0100
0010
,  // measure 85
1000
1000
1000
0000
1001
0000
0001
1000
,  // measure 86
0000
1010
1010
0000
0001
0010
0100
0000
,  // measure 87
1000
0010
0100
0001
0010
0100
0010
0001
,  // measure 88
1000
0000
0010
0000
1000
0000
0001
0000
1000
0000
0001
0000
1000
0001
1000
0001
,  // measure 89
1000
0000
0000
0000
;

//---------------dance-single - ----------------
#NOTES:
     dance-single:
     :
     Hard:
     11:
     0.603172,0.597656,0.243427,0.251821,0.000000,503.000000,474.000000,29.000000,30.000000,0.000000,0.000000,0.603172,0.597656,0.243427,0.251821,0.000000,503.000000,474.000000,29.000000,30.000000,0.000000,0.000000:
1000
0010
1000
0010
1000
0000
0010
0000
,
0010
1010
0010
0101
,
1001
0101
1010
0110
,
2002
3003
0001
0001
,
1000
0000
0010
1000
0010
0000
0010
0000
,
0100
0000
0001
0000
0100
0010
0100
0001
,
0100
0001
0100
0000
0010
1000
0010
0000
,
1000
0000
0100
0000
1000
0010
1000
0000
,
0010
0000
0100
0000
0001
0100
0001
0000
,
0001
0010
0001
0000
0001
0010
0001
0010
,
0100
0010
0001
0000
0010
0001
0010
0000
,
0001
0010
0001
0100
0010
1000
0001
1000
,
0100
0000
0010
0001
0010
0000
0001
0010
,
0001
0000
1000
0000
0010
1000
0010
1000
,
0010
0000
1000
0010
0100
0000
0001
0100
,
0010
0000
1000
0000
0001
1000
0001
0000
,
1000
0010
1000
1010
,
0010
0100
0001
1001
,
0001
0010
0001
0000
0001
0010
0100
0000
,
1000
0010
0100
0001
0010
1000
0010
0000
,
0001
0001
0001
0001
1000
1000
1000
0000
,
0010
0010
0010
0000
1000
0010
1010
0000
,
0200
0000
0302
0000
2003
0000
3001
2000
,
0000
0010
0000
0001
0000
3001
1000
0100
,
1000
1000
1000
0000
0001
0001
0001
0000
,
0100
0100
0100
0000
0001
0001
0001
0000
,
0012
0000
1003
0000
0001
1000
0010
1000
,
0020
0000
1030
0000
0010
0100
0001
0100
,
0001
0000
1000
0010
1000
0000
0001
1000
,
0002
0000
0013
0000
0100
0010
0001
0010
,
0002
1000
1000
1003
,
0010
0000
1000
0010
1000
0000
0010
0100
,
0010
0100
0010
1000
0010
1000
0010
1000
,
0010
0010
0010
0110
,
0220
0000
0000
0000
,
0000
0000
0330
0001
,
1000
0000
0001
1000
0001
0000
0001
1000
,
0001
0000
1000
0010
1000
0010
0100
0010
,
2000
0000
3001
0010
0100
0000
1000
0000
,
0020
0230
0302
1003
,
1001
0000
0001
1000
0001
0000
0100
0000
,
0010
0000
1000
0010
1000
0000
0010
0000
,
0110
0000
0001
0100
0001
0000
1000
0000
,
1001
0000
0001
1000
0001
0000
1000
0000
,
0010
0000
0100
0010
0100
0000
0001
0000
,
1000
0010
1000
0001
1000
0010
0100
0001
,
2000
0000
3000
0000
,
1000
0010
1000
0010
0100
0010
0100
0000
,
0001
0010
0001
0000
0010
0100
0010
0000
,
0001
1000
0010
1000
0001
1000
0001
0000
,
0001
0010
0001
0000
1000
0010
1000
0000
,
0010
0100
0001
1000
0010
0100
0010
0000
,
0010
0110
0001
1001
,
0011
0011
1100
1100
,
0220
0330
0010
1000
,
0010
0000
1000
0010
1000
0000
0001
0000
,
1000
0000
0100
0000
0010
0001
0010
0001
,
0010
0100
1000
0000
0010
0000
0100
0001
,
0100
0000
0010
0000
1000
0000
0001
0010
,
0001
0010
0100
1000
,
0010
0000
0100
0000
0010
1000
0010
0000
,
1000
0001
1000
0000
0001
0000
0010
0000
,
0100
1000
0010
1000
,
0020
0000
1030
0000
0010
0000
0100
0001
,
0100
0000
0010
1000
0010
1000
0010
0000
,
1000
0000
0100
1000
0010
0000
1000
0000
,
0010
0100
0001
0000
0001
0010
0100
0000
,
0010
0001
1000
1010
,
0010
1000
0001
0000
0010
0000
0011
0000
,
0001
0010
0100
0000
0100
0010
0001
0000
,
1000
0010
0100
0001
1000
0010
1000
0000
,
0010
0010
0010
0010
1000
1000
1000
0000
,
0001
0001
0001
0000
1000
1000
1000
0000
,
0020
0000
0130
0000
0010
0000
0100
0020
,
0000
0130
0000
0010
0000
0100
0010
0100
,
0010
0010
0010
0010
1000
1000
1000
0000
,
0001
0001
0001
0000
1000
0001
1000
0000
,
2001
0000
0010
0000
0001
0000
3010
0100
,
0020
0000
1030
0000
0001
0010
0100
0010
,
0001
0010
0001
0000
0010
0001
0010
0001
,
2000
3020
1030
0010
,
0020
1000
1030
0200
,
0320
0000
1030
0000
0010
1000
0010
1000
,
0100
0000
1000
0010
0100
0000
0010
0100
,
0001
0001
0001
0011
,
0012
0010
0010
0013
,
0000
0001
0010
0000
0001
0000
0010
0000
,
0100
0000
0100
1000
0010
0000
0010
0100
,
0010
0000
0100
0010
0100
0000
0010
0000
,
1001
0000
0000
0000
;

//---------------dance-single - ----------------
#NOTES:
     dance-single:
     :
     Easy:
     5:
     0.315376,0.373535,0.134305,0.318974,0.000000,263.000000,247.000000,16.000000,38.000000,0.000000,0.000000,0.315376,0.373535,0.134305,0.318974,0.000000,263.000000,247.000000,16.000000,38.000000,0.000000,0.000000:
0010
0010
0010
0010
,
1010
0000
1010
0000
,
0101
0000
0110
0000
,
2002
0000
3003
0000
,
0001
0000
1000
0000
,
0001
0000
1000
0010
,
1000
0000
0010
0000
,
0100
0000
0010
0010
,
0010
0000
0100
0000
,
0001
0000
0010
0001
,
0010
0000
0001
0000
,
1000
0000
0010
0010
,
1000
0000
0010
0000
,
1000
0000
0010
1000
,
0001
0000
1000
0000
,
0001
0000
1000
1000
,
0010
0010
1000
0000
,
0001
0001
1000
0000
,
0010
0010
1000
0000
,
0001
0010
0001
0000
,
1000
1000
1000
1000
,
0001
0001
1000
1000
,
0001
1000
0001
2000
,
0002
0000
3003
0000
,
1000
0010
1000
0010
,
0100
0010
0100
0010
,
2000
0000
0000
0001
,
3001
0000
0000
0001
,
0002
0000
2003
0000
,
3020
0000
1030
0010
,
2000
0000
0001
0001
,
3001
0000
0001
1000
,
0001
0001
1000
0000
,
0001
1000
0010
1000
,
2020
0000
0000
0000
,
3030
0000
0000
0010
,
2000
0010
0010
0010
,
0010
0010
0010
3010
,
2000
0000
3001
0000
,
0001
1000
0010
1000
,
0020
0000
1000
0000
,
0230
0000
0320
0000
,
2030
0001
0001
3001
,
0002
1000
1000
1003
,
2000
0010
3020
0100
,
0230
0010
0310
0100
,
1001
0000
0000
0000
,
0001
0001
0001
0000
,
1000
1000
1000
0000
,
0010
0010
0010
0000
,
0100
0100
0100
0000
,
0001
1000
0001
1000
,
0010
0000
1010
0000
,
1001
0000
0110
0000
,
2002
0000
3003
0000
,
0001
0000
1000
0000
,
0001
0000
1000
0001
,
1000
0000
0010
0000
,
0100
0000
0010
1000
,
0010
0000
1000
0000
,
0001
0000
0010
0001
,
0010
0000
0001
0000
,
1000
0000
0010
0010
,
0010
0000
0100
0000
,
0010
0000
1000
0001
,
1000
0000
1010
0000
,
0101
0000
0010
0010
,
0100
0010
0200
0300
,
0010
1000
0002
0003
,
1000
0010
1000
0001
,
1000
0001
0010
0000
,
0001
0001
1000
0001
,
1000
0001
1000
0001
,
1000
1000
1000
0002
,
2000
0000
3003
0000
,
0010
0010
0100
0100
,
0010
0100
0010
0100
,
0220
0330
0000
0010
,
0010
0000
0000
1000
,
0020
0000
2030
0000
,
3002
0000
1003
1000
,
2000
0000
0001
0001
,
3001
0000
1000
0001
,
2000
0000
3020
0000
,
0130
0010
0010
0010
,
0220
0000
0000
0000
,
0330
0000
0000
0010
,
0200
0010
0010
0010
,
0010
0010
0310
0000
,
1001
0000
0000
0000
;

//---------------dance-single - ----------------
#NOTES:
     dance-single:
     :
     Medium:
     7:
     0.486855,0.597656,0.193063,0.335762,0.000000,406.000000,383.000000,23.000000,40.000000,0.000000,0.000000,0.486855,0.597656,0.193063,0.335762,0.000000,406.000000,383.000000,23.000000,40.000000,0.000000,0.000000:
1000
0001
1000
0010
,
0010
1010
0010
1010
,
1001
1001
1001
1001
,
2002
3003
0001
1000
,
0001
1000
0010
1000
,
0001
0000
1000
0010
,
1000
0000
0001
0000
1000
0000
0010
1000
,
0010
0000
1000
0001
,
0010
0001
0010
0001
,
0100
0000
0010
0100
,
0010
0000
1000
0000
0001
0000
1000
0001
,
1000
0000
0010
0010
,
0001
0000
1000
0000
0001
0000
1000
0001
,
1000
0010
1000
0010
,
0100
0000
0010
0000
1000
0000
0010
0100
,
0010
1000
0001
0001
,
1000
0010
2000
3000
,
0001
0010
0002
0003
,
1000
0001
0100
0001
,
0110
0110
1001
1001
,
0001
0000
0001
0000
1000
1000
1000
0000
,
0010
0000
0100
0000
0010
0010
0010
0000
,
2000
0000
3010
0000
1000
0000
0010
2000
,
0000
0010
0010
3010
,
0010
0100
0001
1000
,
0001
0010
0001
0100
,
0202
0000
0303
0000
0000
0010
1000
0010
,
1000
0000
0000
0000
0000
0010
1000
0010
,
1000
0000
0010
0000
0100
0000
0001
0010
,
0001
0100
0001
1000
,
2002
3000
1000
1000
,
2000
3003
0010
0100
,
0010
0000
1000
0010
1000
0000
0001
0100
,
0001
1000
0001
0001
,
2002
0000
0000
0000
,
0000
0000
3003
0010
,
0100
0010
1000
0001
,
1000
0001
1000
0000
0010
1000
0010
0000
,
0020
0100
1000
0130
,
0200
0010
0010
0310
,
1000
0000
0001
0100
0001
0000
0200
0000
,
0310
0000
1000
0010
2000
0000
3010
0000
,
0100
0000
0001
0010
0002
0000
0203
0000
,
0310
0000
0100
0001
0100
0000
0020
0000
,
1030
0000
0001
0010
0001
0000
0010
0001
,
0100
0000
0010
0100
0001
0010
0001
1000
,
0200
0000
0000
0300
,
0100
0001
0100
0001
0100
0000
0010
0000
,
1000
0100
1000
0001
,
0100
0010
0100
0001
0100
0000
0001
0000
,
1000
0100
0010
0001
,
1000
0100
1000
0100
1000
0000
1000
0000
,
1000
1100
1000
1100
,
2002
3003
0202
0303
,
0100
0002
0000
0000
0100
0000
0103
0000
,
0001
0000
1000
0001
1000
0000
0010
0000
,
0100
0000
0001
0000
1000
0000
0001
1000
,
0001
1000
0100
0010
,
0001
0100
0100
0001
,
0100
0000
0101
0000
0100
0000
0010
0100
,
0010
0000
1000
0000
1000
0000
0001
0100
,
0001
0000
0100
0001
0100
0000
0100
0010
,
1000
1000
2000
3200
,
0320
0000
0032
0000
0103
0000
0001
0100
,
0001
0000
0100
0001
0100
0000
0100
0001
,
0100
0000
0100
0001
0100
0000
0020
0000
,
1030
0100
1000
0010
,
0100
0000
0010
1000
0100
0000
2000
0000
,
3010
0000
0010
1000
0010
0000
1000
0000
,
0020
0000
0230
0000
,
0310
0100
0010
0100
0010
0000
0000
0000
,
1000
0010
1000
0000
0001
0100
0001
0000
,
0100
0010
0100
0000
0010
1000
0010
0000
,
0010
0000
0100
0000
0010
0000
0100
0020
,
0000
1030
0001
0001
,
0010
0001
1000
0010
,
1000
0001
0010
0001
,
0102
0000
1003
0000
1000
0010
0100
0010
,
1000
0000
0010
0000
0100
0000
0001
1000
,
0010
0000
0010
1000
0100
0000
0010
0001
,
1000
0001
1000
0010
,
0020
0030
0010
0010
,
0010
0000
1000
0010
1000
0000
0010
0100
,
0001
1000
0001
0010
,
0100
0010
0010
0011
,
0022
0000
0000
0033
,
0000
0100
0010
0000
0001
0000
1000
0000
,
0002
1003
0010
0100
,
0001
1000
0001
0000
0010
0001
0100
0000
,
1001
0000
0000
0000
;
