#TITLE:Kimi no Sei;
#SUBTITLE:Seishun Buta Yarou wa Bunny Girl Senpai no Yume o Minai Opening;
#ARTIST:The Peggies;
#TITLETRANSLIT:;
#SUBTITLETRANSLIT:;
#ARTISTTRANSLIT:;
#GENRE:;
#CREDIT:Magna Trick;
#BANNER:KNSBN.jpg;
#BACKGROUND:KNSBG.jpg;
#LYRICSPATH:;
#CDTITLE:Magna Trick title!.png;
#MUSIC:Kimi no Sei.mp3;
#OFFSET:-0.026743;
#SAMPLESTART:53.070000;
#SAMPLELENGTH:15.000000;
#SELECTABLE:YES;
#BPMS:0.000000=174.059998
,26.500000=87.029999
,28.500000=174.059998
,140.500000=87.029999
,144.500000=174.059998
,250.000000=87.029999
,251.500000=174.059998
;
#STOPS:147.000000=0.172000
;
#BGCHANGES:0.063=Kimi no Sei.avi=1.000=0=0=1=====,
251.000=KNSBG.jpg=1.000=0=0=1=====,
99999=-nosongbg-=1.000=0=0=0 // don't automatically add -songbackground-
;
#KEYSOUNDS:;
#ATTACKS:;

//---------------dance-single - ----------------
#NOTES:
     dance-single:
     :
     Hard:
     12:
     0.466902,0.548893,0.127234,0.278323,0.039760,411.000000,395.000000,16.000000,35.000000,0.000000,0.000000,0.466902,0.548893,0.127234,0.278323,0.039760,411.000000,395.000000,16.000000,35.000000,0.000000,0.000000:
0000
0000
0000
0000
0002
0000
0013
0100
,
2000
0000
3001
0010
0100
2000
0000
3001
,
0010
0100
2000
0000
3002
0000
1003
1000
,
0200
0300
0000
0010
0010
0000
0001
1000
,
0000
0100
0010
0001
1000
0000
0010
0010
,
0100
0001
0000
0010
0200
0000
2300
0001
,
3000
0000
0100
0000
0000
0000
0010
0000
0100
0000
1001
0100
0100
1000
1000
0010
,
0010
0010
1000
0000
0001
0000
1000
0000
0100
0000
1000
0000
0001
0000
0100
0000
,
0010
0100
1000
0100
0001
0010
0100
0010
,
1000
0010
0001
1000
0010
0100
0010
1000
,
0100
0000
0000
0001
0000
0000
0000
0100
0000
0000
0000
1000
0000
0000
0000
2002
0000
0000
0000
0000
0000
3003
0000
0000
,
0001
1000
0001
0000
0000
0000
1000
0000
0000
0000
0010
0000
0000
0000
0100
0000
,
0000
0010
0000
1000
0000
0001
0010
0100
,
0100
1000
0001
0100
0001
0000
1000
0000
,
0001
1000
0000
0010
0000
1000
0100
1000
,
0100
0010
0001
1000
0000
0001
0100
0010
,
0000
1000
0100
0010
0000
0001
1000
0010
,
0000
1000
0000
0001
0100
0000
0001
0010
,
0000
0100
0010
0001
2000
0000
3000
0000
,
0000
0001
1000
0001
0001
1000
0000
0000
,
1000
0000
0100
0000
1000
0000
0001
0000
0100
0000
0001
0000
0000
0001
0000
0000
,
1000
0001
1000
0001
0010
0000
0100
0100
,
2000
0000
3001
0100
0001
1000
0010
1000
,
1000
0001
0100
0010
0000
1000
0100
0010
,
0000
0100
0010
0001
0000
1000
0010
0100
,
0000
0001
0001
1000
1000
0001
0100
0010
,
1000
0000
0100
0000
0000
0000
0010
0000
0001
1000
0001
0000
1000
0000
0010
0000
,
0100
1001
0000
1000
0000
0001
0100
0001
,
1000
0010
0000
1000
0000
0001
0010
0100
,
1000
0000
1000
0010
0100
0000
0001
0010
,
0100
0000
1000
0010
0100
0000
0001
0001
,
1000
0001
0000
1000
0000
0100
1000
0001
,
0100
0010
1000
0100
1000
0010
0100
0001
,
0010
0001
0000
1000
0100
0000
1000
0000
,
0002
0000
1003
1000
0100
0100
0010
0001
,
1000
1001
0002
2003
3020
0230
0302
2003
,
3200
0000
0000
0000
0000
0300
0011
0000
0000
0000
0000
0000
0010
0000
0000
0000
0000
0000
0001
0000
0000
0000
0000
0000
1000
0000
0000
0000
0000
0000
1001
0000
0000
0000
0000
0000
1001
0000
0000
0000
0000
0000
0002
0000
0000
0000
0000
0000
,
0000
0013
0100
2000
0000
3001
0010
0100
,
2000
0000
3001
0010
0100
2000
0000
3002
,
0000
1003
0010
0100
0000
0001
1000
1000
,
0001
0000
1000
0000
0001
0010
0100
1000
,
0000
1000
0001
0000
0100
0000
0010
0100
,
0000
0001
1000
0000
0100
0010
0001
0010
,
0100
1000
0001
0001
0100
0100
0000
0010
,
1010
0000
0001
1001
0000
1001
0000
0002
,
0000
0013
0100
2000
0000
3001
0010
0100
,
2000
0000
3001
0010
0100
2000
0000
3002
,
0000
1003
0010
0100
0000
0001
1000
1000
,
0100
0000
0010
0000
0001
1000
0010
0100
,
0000
1000
0100
0001
0000
0010
0001
1000
,
0000
0100
1000
0001
0100
0010
2000
3001
,
0100
0100
0010
0010
0000
1000
1000
0001
,
0100
0010
1000
0100
0001
0100
1000
0010
,
0001
0100
1000
0002
,
0103
0000
1000
0010
0010
0001
0001
1000
,
0000
0100
0100
0010
1000
0001
0100
0020
,
1000
0130
1000
0010
0100
0001
0010
1000
,
0000
1000
0010
0001
0000
0001
0100
0010
,
1000
0001
0100
0020
0030
1000
0100
0010
,
0011
0101
1010
1100
,
0100
0010
0001
1000
0010
0000
1001
0000
,
0010
1000
0010
0000
1000
0001
1000
0000
,
1001
0000
0000
0000
0001
0000
0000
0000
0010
0100
2000
0000
3000
0000
0000
0000
;

//---------------dance-single - ----------------
#NOTES:
     dance-single:
     :
     Challenge:
     14:
     0.525974,0.598793,0.214707,0.310132,0.127234,463.000000,436.000000,27.000000,39.000000,0.000000,0.000000,0.525974,0.598793,0.214707,0.310132,0.127234,463.000000,436.000000,27.000000,39.000000,0.000000,0.000000:
// measure 0
0000
0000
0000
0000
2000
0000
3100
0001
,  // measure 1
0020
0000
0031
0100
1000
0020
0000
1030
,  // measure 2
0100
0001
0020
0000
2030
0000
3010
0010
,  // measure 3
0002
0003
0000
0100
0100
0000
1000
0001
,  // measure 4
0000
0010
0100
1000
0001
0000
0100
0100
,  // measure 5
0010
1000
0000
0100
0020
0000
0032
1000
,  // measure 6
0003
0000
0010
0000
0000
0000
0100
0000
0010
1000
0001
0010
0010
0001
0001
0100
,  // measure 7
0100
0100
0001
0000
1000
0000
0001
0000
0010
0000
0001
0000
1000
0000
0010
0000
,  // measure 8
0100
0010
0001
0010
1000
0100
0010
0100
,  // measure 9
0001
0100
1000
0001
0100
0010
0100
0001
,  // measure 10
0010
0000
0000
1001
0000
0000
0000
1010
0000
0000
0000
0101
0000
0000
0000
2002
0000
0000
0000
0000
0000
3003
0000
0000
,  // measure 11
1000
0001
1000
0000
0000
0000
0001
0000
1000
0000
0100
0000
0000
0000
0010
0000
,  // measure 12
0100
0100
1000
0001
1000
1000
0100
0010
,  // measure 13
0010
0001
1000
0010
1000
0000
0001
0000
,  // measure 14
1000
0000
0001
0000
0000
0000
0100
0000
0001
0010
0001
0000
1000
0000
0100
0000
,  // measure 15
1000
0001
0010
1100
0000
1000
0010
0101
,  // measure 16
0000
0001
0010
1100
0000
1000
0010
0101
,  // measure 17
0100
0001
0000
1000
0010
0000
1000
0100
,  // measure 18
0000
0000
0010
0000
0100
0000
1000
0000
0001
0100
0001
0000
1000
0000
0001
0000
,  // measure 19
0100
0010
0100
0000
0001
0000
1000
0000
1000
0000
0110
0000
0001
0000
0001
0000
,  // measure 20
0001
0000
0000
0000
0000
0000
0010
0000
0000
0000
0000
0000
0001
0000
0000
0000
0000
0000
1000
0000
0000
0000
0000
0000
0010
0000
0000
0000
0000
0000
1000
0000
0100
0000
0000
0000
0000
0000
0000
1000
0100
0000
0000
0000
0000
0000
0000
0000
,  // measure 21
0010
0001
0001
1000
0100
0000
0010
0010
,  // measure 22
0002
0000
0000
0000
1003
0000
0010
0000
1000
0001
1000
0000
0001
0000
0100
0000
,  // measure 23
0001
1000
0010
0101
0000
0001
0010
1100
,  // measure 24
0000
1000
0010
0101
0000
0001
0010
1100
,  // measure 25
0000
1000
1000
0001
0001
1000
0010
0100
,  // measure 26
0001
0000
0020
0000
0030
0000
0100
0000
1000
0001
1000
0000
0001
0000
0100
0000
,  // measure 27
0010
1001
0000
0001
0000
1000
0010
1000
,  // measure 28
0001
0100
0000
0001
0000
1000
0100
0010
,  // measure 29
0002
0000
1003
0100
0020
0000
1030
0100
,  // measure 30
0020
0000
1030
0100
0020
0000
0031
1000
,  // measure 31
1000
0001
0000
0001
0000
0010
0001
1000
,  // measure 32
0010
0100
0001
0010
0001
0100
0010
1000
,  // measure 33
0100
1000
0000
0001
0010
0000
0001
0001
,  // measure 34
2000
0000
3001
0001
0010
0010
0100
1000
,  // measure 35
0001
0000
0000
0000
0000
0000
0000
0000
0000
0000
0000
0000
0000
0000
0000
0000
0000
0000
1000
0000
0000
0000
0000
0000
0001
0000
0000
0000
0000
0000
0000
0000
0000
0000
0000
0000
0000
0000
0000
0000
0000
0000
0000
0000
0000
0000
0000
0000
2000
0000
0000
0000
0000
0000
0000
0000
0000
0000
0000
0000
0000
0000
0000
0000
0000
0000
0000
0000
0000
0000
0000
0000
3002
0000
0000
0000
0000
0000
0000
0000
0010
0000
0000
0000
0000
0000
0000
0000
0100
0000
0000
0000
0000
0000
0000
0000
2003
0000
0000
0000
0000
0000
0000
0000
0000
0000
0000
0000
0000
0000
0000
0000
0000
0000
0000
0000
0000
0000
0000
0000
3020
0000
0000
0000
0000
0000
0000
0000
0000
0000
0000
0000
0000
0000
0000
0000
0000
0000
0000
0000
0000
0000
0000
0000
2030
0000
0000
0000
0000
0000
0000
0000
0000
0000
0000
0000
0000
0000
0000
0000
0000
0000
0000
0000
0000
0000
0000
0000
3002
0000
0000
0000
0000
0000
0000
0000
0000
0000
0000
0000
0010
0000
0000
0000
0000
0000
0000
0000
0000
0000
0000
0000
,  // measure 36
0023
0000
0000
0000
0000
0030
1100
0000
0000
0000
0000
0000
0100
0000
0000
0000
0000
0000
1000
0000
0000
0000
0000
0000
0001
0000
0000
0000
0000
0000
1001
0000
0000
0000
0000
0000
1001
0000
0000
0000
0000
0000
2000
0000
0000
0000
0000
0000
,  // measure 37
0000
3100
0001
0020
0000
0031
0100
1000
,  // measure 38
0020
0000
1030
0100
0001
0020
0000
2030
,  // measure 39
0000
3001
0100
0010
0000
1000
0001
0001
,  // measure 40
0110
0000
0110
0000
1000
0100
0010
0001
,  // measure 41
0000
0001
1000
0000
0010
0000
0100
0010
,  // measure 42
0000
1000
0001
0000
0010
0100
1000
0100
,  // measure 43
0010
0001
0100
0100
0010
0010
0000
1000
,  // measure 44
1001
0000
0001
1000
0001
1000
0001
0000
0000
0000
0001
0100
0001
0100
2000
0000
,  // measure 45
0000
3100
0001
0020
0000
1030
0010
0001
,  // measure 46
0200
0000
1300
0100
0001
0020
0000
0230
,  // measure 47
0000
1300
0100
0010
0000
0001
1000
1000
,  // measure 48
0001
0000
0100
0000
0001
1000
0100
0010
,  // measure 49
0000
0001
0010
1000
0000
0001
0100
1000
,  // measure 50
0000
0001
0001
1000
0010
0100
0002
1003
,  // measure 51
0010
0010
0100
0100
0000
0001
0001
1000
,  // measure 52
0010
0000
0100
0001
0100
0001
0010
0000
1000
0000
0010
0001
0100
0001
0100
0010
,  // measure 53
1000
0001
1000
0100
1000
0010
2000
0000
,  // measure 54
3010
0000
1000
0100
0100
1000
1000
1001
,  // measure 55
0000
0010
0010
0100
0001
1000
0010
0200
,  // measure 56
0001
0310
0001
0100
0010
1000
0100
0001
,  // measure 57
0000
0001
0100
1000
0000
1000
0010
0100
,  // measure 58
0001
0000
1000
0000
0010
0000
0200
0000
0300
0000
0001
0000
0010
0000
0100
1000
,  // measure 59
1100
0000
0000
0000
1010
0000
0000
0000
0101
0000
0000
0000
0011
0000
1000
0100
,  // measure 60
0010
0100
1000
0001
0100
0000
1001
0000
,  // measure 61
0100
0001
0100
0000
0001
1000
0001
0000
,  // measure 62
1001
0000
0000
0000
1000
0000
0000
0000
0100
0010
0002
0000
0003
0000
0000
0000
;

//---------------dance-single - ----------------
#NOTES:
     dance-single:
     :
     Medium:
     10:
     0.389653,0.449095,0.119281,0.302180,0.031808,343.000000,328.000000,15.000000,38.000000,0.000000,0.000000,0.389653,0.449095,0.119281,0.302180,0.031808,343.000000,328.000000,15.000000,38.000000,0.000000,0.000000:
0000
0000
0000
0000
2000
0000
3100
0010
,
0002
0000
1003
0100
0010
0002
0000
1003
,
0100
0010
0002
0000
2003
0000
3001
0001
,
0020
0030
0000
0100
0100
0000
0000
0000
,
0000
0000
0100
1000
0001
0000
0100
0100
,
0000
0010
0000
1000
2000
0000
3002
0000
,
0003
0000
0000
0000
0000
0000
0001
0000
0000
0000
1001
0100
0010
0100
0010
0001
,
1000
0001
1000
0000
0000
0000
0001
0000
0000
0000
1000
0000
0000
0000
0001
0000
,
0000
0010
0000
0100
0000
0010
0000
0100
,
0000
1000
0000
0010
0000
0100
0000
0001
,
0000
0000
0000
1000
0000
0000
0000
0010
0000
0000
0000
0100
0000
0000
0000
2002
0000
0000
0000
0000
0000
3003
0000
0000
,
1000
1000
0000
0001
0000
0100
0000
0010
,
0000
0100
0000
0001
0000
1000
0000
0020
,
0000
1030
0001
1000
0001
0000
1000
0000
,
0100
0000
0010
0000
0001
1000
0001
1000
,
0001
0100
0010
1000
0000
0100
0010
1000
,
0000
0100
0010
1000
0000
0100
0010
1000
,
0000
0001
0000
1000
0000
0100
1000
0100
,
0000
0010
0100
1000
0002
0000
0003
0000
,
0000
0000
0000
1000
1000
0001
0000
0000
,
0001
0000
1000
0000
0001
0000
0100
0000
0010
0000
0100
0000
0000
0010
0000
0000
,
1000
0001
1000
0001
1000
0000
0100
0010
,
0002
0000
2003
0000
3001
0100
0001
0100
,
0001
1000
0010
0100
0000
1000
0010
0100
,
0000
1000
0010
0100
0000
1000
0010
0100
,
0000
0001
0000
0001
0000
1000
0000
1000
,
0000
0001
0000
0100
0000
0010
1000
0001
,
1000
0100
0000
0010
0000
0001
0010
0001
,
0010
0100
0000
1000
0000
0100
0010
0100
,
0010
0000
0001
0100
1000
0000
0001
0100
,
1000
0000
0001
0100
1000
0000
0000
0000
,
0000
1001
0000
0001
0000
0010
0000
0100
,
0000
1000
0000
0010
0000
0100
0000
0001
,
0000
1000
0000
0001
0001
0000
0001
0000
,
2000
0000
3000
0000
0000
0000
0000
1000
,
0000
1001
2000
3002
0203
0320
2030
3002
,
0023
0000
0000
0000
0000
0030
0100
0000
0000
0000
0000
0000
1000
0000
0000
0000
0000
0000
0100
0000
0000
0000
0000
0000
1000
0000
0000
0000
0000
0000
0100
0000
0000
0000
0000
0000
1001
0000
0000
0000
0000
0000
2000
0000
0000
0000
0000
0000
,
0000
3100
0010
0002
0000
1003
0100
0010
,
0002
0000
1003
0100
0010
0002
0000
2003
,
0000
3001
0100
0010
0000
0000
1000
0001
,
0000
0000
0001
0000
0000
1000
0001
1000
,
0000
0001
1000
0000
0010
0000
0000
1000
,
0000
0100
0000
0000
0000
1000
0100
1000
,
0100
0010
0001
0001
0010
0010
0000
0000
,
0110
0000
0000
1001
0000
1001
0000
2000
,
0000
3100
0010
0002
0000
1003
0100
0010
,
0002
0000
1003
0100
0010
0002
0000
2003
,
0000
3001
0100
0010
0000
0000
1000
0010
,
0000
0000
0000
0000
0000
1000
0100
0010
,
0000
0001
0000
1000
0000
0100
0000
0010
,
0000
0001
1000
0001
0000
0100
0002
2003
,
3000
0100
0100
0010
0000
0001
0001
1000
,
0000
0001
1000
0001
1000
0001
1000
0001
,
1000
0010
0100
0002
,
0013
0000
0001
0100
0001
0100
0000
1001
,
0000
1000
0100
1000
0100
1000
0100
0020
,
0001
0030
0001
0000
1000
1000
0100
0001
,
0000
0001
0100
1000
0000
1000
0010
0001
,
0000
1000
0010
0002
0003
1000
0001
1000
,
1100
1010
0101
0011
,
1000
0001
1000
0001
1000
0000
1001
0000
,
0100
0001
0100
0000
0001
1000
0001
0000
,
1001
0000
0000
0000
1000
0000
0000
0000
0100
0010
0002
0000
0003
0000
0000
0000
;

//---------------dance-single - ----------------
#NOTES:
     dance-single:
     :
     Easy:
     6:
     0.286275,0.474044,0.103377,0.023856,0.003976,252.000000,239.000000,13.000000,3.000000,0.000000,0.000000,0.286275,0.474044,0.103377,0.023856,0.003976,252.000000,239.000000,13.000000,3.000000,0.000000,0.000000:
0000
0000
1000
0000
,
0000
0000
1000
0000
0000
0000
0000
0001
,
0000
0000
0001
1000
,
0001
0000
1000
0000
,
0000
1000
0010
0100
,
0010
1000
0001
0010
,
0000
0000
0000
0000
0000
1001
0000
0000
,
0000
1000
0000
0001
0000
0100
0000
0010
,
0000
0100
0000
0001
0000
1000
0000
0100
,
0000
0010
0000
0001
0000
1000
0000
0001
,
0000
1000
0000
1000
0000
0001
0000
0000
,
0000
0100
0000
0010
0000
0100
0000
0010
,
0000
0100
0000
0010
0000
1000
0000
0001
,
0000
1000
0000
0001
0000
0010
0000
0100
,
0000
1000
0000
0001
0000
0100
0000
0010
,
0000
1000
0000
1000
0000
0001
0000
0001
,
0000
0100
0000
0100
0000
0010
0000
0010
,
0000
1000
0000
0100
0000
1000
0000
0001
,
0000
0010
0000
0001
0000
1000
0000
0000
,
0000
0010
0000
0100
0000
0001
0000
0100
,
0000
0010
0000
1000
0000
0100
0000
0100
,
0000
0100
0000
1000
0000
0001
0000
1000
,
0000
0010
0000
1000
0000
0001
0000
0001
,
0000
0100
0000
1000
0000
0100
0000
0001
,
0000
0010
0000
1000
0000
0010
0000
0100
,
0000
1000
0000
1000
0000
0001
0000
0001
,
0000
0020
0000
0000
0030
0000
0000
0000
,
0000
0100
0000
0100
0000
1000
0000
0001
,
0000
0200
0000
0000
0300
0000
1000
0000
,
1000
0001
0001
0010
,
0010
0100
1000
0000
,
0000
0001
0000
1000
0000
0100
0000
0010
,
0000
0100
0000
1000
0000
0001
0000
0100
,
0000
0010
0000
1000
0000
0001
1000
0001
,
0000
1000
0000
0100
0000
0010
0000
0001
,
0000
1001
1000
1000
0001
0001
0100
0010
,
0100
1001
1000
0001
1000
0001
1001
1000
,
0000
0000
0000
0000
0000
0001
0000
0000
,
0000
0000
0100
0000
0000
0000
0000
0010
,
0000
1000
0001
1000
,
1000
0000
0000
1000
,
0001
0010
0100
0010
,
0001
1000
1000
0010
,
0100
0010
1000
0001
,
1001
0000
0000
0110
0000
0110
0000
0000
,
1000
0100
1000
0001
,
0100
0001
1000
0001
,
0001
1000
0100
0010
,
0010
0000
0000
0100
,
1000
0010
0100
0001
,
1000
0001
0010
0100
,
1000
1000
0001
0001
,
1000
0010
0100
0001
,
1000
0100
1000
0000
0001
0000
1000
0000
,
0010
0100
0010
0000
0100
0000
0001
0000
,
1000
0000
0100
1000
0001
0000
1000
0000
,
0001
0000
0100
0000
0001
0100
0001
0100
,
0000
0010
0000
1000
0000
0100
0000
1000
,
0000
0001
0000
0010
0100
0000
1000
1000
,
1001
1001
1001
1001
,
1000
0001
1000
0001
1000
0000
1001
0000
,
1000
0001
1000
0000
0001
1000
0001
0000
,
1001
0000
0000
0000
1000
0000
0000
0000
0100
0010
0002
0000
0003
0000
0000
0000
;
