#TITLE:Kibo no Uta;
#SUBTITLE:Shokugeki no Soma Opening 1;
#ARTIST:Ultra Tower;
#TITLETRANSLIT:;
#SUBTITLETRANSLIT:;
#ARTISTTRANSLIT:;
#GENRE:;
#CREDIT:Magna Trick;
#BANNER:KNUBN.jpg;
#BACKGROUND:KNUBG.jpg;
#LYRICSPATH:;
#CDTITLE:Magna Trick title!.png;
#MUSIC:Kibo no Uta.mp3;
#OFFSET:0.048657;
#SAMPLESTART:62.000000;
#SAMPLELENGTH:14.000000;
#SELECTABLE:YES;
#DISPLAYBPM:0.000000;
#BPMS:0.000000=177.250000
,62.000000=88.625000
,64.000000=177.250000
,126.000000=176.800003
,200.000000=177.100006
,238.000000=176.000000
;
#STOPS:
;
#BGCHANGES:0.083=Kibo no Uta.avi=1.000=0=0=1=====,
253.000=KNUBG.jpg=1.000=0=0=1=====,
99999=-nosongbg-=1.000=0=0=0 // don't automatically add -songbackground-
;
#KEYSOUNDS:;
#ATTACKS:;

//---------------dance-single - ----------------
#NOTES:
     dance-single:
     :
     Hard:
     11:
     0.353107,0.485523,0.245640,0.230287,0.015352,322.000000,290.000000,32.000000,30.000000,0.000000,0.000000,0.353107,0.485523,0.245640,0.230287,0.015352,322.000000,290.000000,32.000000,30.000000,0.000000,0.000000:
0000
0000
0000
0000
,
0000
0001
1000
0010
,
0100
0001
0020
0000
,
0000
0030
0100
0000
1000
0000
0100
0000
,
0020
0000
0230
0000
,
0000
0000
0000
0300
1000
0000
0000
0000
0001
0000
0000
0000
0100
0000
0000
0000
,
0020
0000
0000
0000
0000
0000
0000
0030
0200
0000
0000
0000
0000
0000
0000
0000
,
0000
0300
0000
0000
0001
0000
0000
0000
1000
0000
0000
0000
0010
0000
0000
0000
,
1000
0000
0100
0000
0010
0001
0020
0000
,
0000
0030
0100
0000
1000
0000
0001
0000
,
0100
0010
0200
0010
,
0010
0000
0000
0300
0001
0000
0000
0000
0010
0000
0000
0000
0001
0000
0000
0000
,
2000
0000
0000
0000
0010
0000
0000
3000
0020
0000
0000
0000
0100
0000
0000
0000
,
0100
0130
0002
2003
,
3200
0000
0010
0300
0021
0000
0031
1000
,
0001
0000
1000
0000
0001
0000
1000
0000
0110
0000
0001
1000
0000
0010
0000
0100
,
0110
0000
0001
0101
0000
1000
1100
0000
,
0001
0011
0000
1000
1010
0000
0100
0000
,
1001
0000
0001
0011
0000
1000
1010
0000
,
0001
0000
0101
0000
0000
0000
1000
0000
1100
0000
0000
0000
0010
0000
1000
0001
,
1000
0000
0001
1000
0000
0010
0000
0200
,
0000
1300
0100
0001
,
0010
0000
0001
0010
0000
1000
0000
0010
,
0001
0000
1000
0020
0000
0000
0000
0030
,
0100
0000
0001
0100
0000
0010
0000
1000
,
0100
0000
1000
0010
0000
0100
0000
0001
,
0010
0000
0001
0000
0200
0000
0010
0300
,
0020
0000
1000
0000
0000
0030
1000
0000
,
0001
0000
1000
0100
0000
0010
0000
0100
,
1000
0010
0001
0010
,
0100
0000
0010
0001
0000
0010
0000
1000
,
0100
0000
0010
0000
0001
1000
0000
0002
,
0100
0000
1003
0000
0001
0010
0001
0000
,
0100
0000
0010
1000
0000
0001
0000
0010
,
0100
0000
0001
0000
1000
0001
1000
0000
,
1001
0000
0001
0000
0100
1000
0001
0000
,
1100
0000
0001
1000
0010
0100
0010
0001
,
2000
3200
0302
0013
,
1010
0000
0100
0010
1000
0001
1000
0010
,
0200
0320
2030
3001
,
1001
0000
0100
0010
0010
0100
1000
0100
,
0010
0000
1000
0000
0001
1000
0010
0000
,
0110
0000
0010
0000
0100
0001
1000
0000
,
0100
0000
0010
0000
0100
1000
0001
0000
,
0100
0000
0010
0000
0100
0001
1000
0000
,
0002
0000
0000
0000
0203
0000
0000
0000
2300
0000
0000
0000
3020
0000
0000
0030
,
1001
0000
0110
0000
0001
1000
0010
0000
,
0100
0001
1000
0000
0100
1000
0001
0000
,
0010
0001
1000
0000
0010
0000
0100
0000
,
0001
0100
0001
0000
1000
0100
1000
0000
,
1001
0010
0100
0001
,
0010
0001
0010
0000
0100
1000
0100
1000
,
0010
0100
0010
0000
0100
0000
0001
0100
,
1000
0100
0001
0010
,
0110
0000
0100
0000
1000
0000
0001
0010
,
1000
0100
0010
0001
,
0110
0000
0001
0000
1000
0000
0001
0010
,
1000
0100
0010
0001
,
0110
0000
0001
0000
1000
0000
0010
1000
,
0100
0000
0010
0001
0000
0100
0000
0001
,
0101
0000
1000
1100
0000
0001
0011
0000
,
1000
1010
0000
0001
1001
0000
0110
0000
,
1001
0000
0010
0101
0000
0010
2200
0000
,
0000
3300
0000
0000
;

//---------------dance-single - ----------------
#NOTES:
     dance-single:
     :
     Challenge:
     13:
     0.491280,0.558351,0.368460,0.145849,0.015352,448.000000,400.000000,48.000000,19.000000,0.000000,0.000000,0.491280,0.558351,0.368460,0.145849,0.015352,448.000000,400.000000,48.000000,19.000000,0.000000,0.000000:
// measure 0
0000
0000
0000
0000
0001
1000
0001
1000
,  // measure 1
0001
1000
0010
0100
0001
0100
0010
0100
,  // measure 2
1000
0100
0010
0100
0001
0010
0001
0010
,  // measure 3
0001
0010
0100
0010
0001
0010
1000
0010
,  // measure 4
0100
1000
0100
1000
0010
0100
0010
0100
,  // measure 5
0010
0100
0001
1000
0010
1000
0100
1000
,  // measure 6
0001
0010
0001
0010
0100
1000
0100
1000
,  // measure 7
0100
1000
0010
0100
0001
0100
0010
0100
,  // measure 8
1000
0100
0010
0100
0001
0010
0100
1000
,  // measure 9
0100
1000
0001
1000
0010
1000
0100
1000
,  // measure 10
0010
1000
0001
0010
0100
0001
0100
0001
,  // measure 11
0100
0001
1000
0010
0001
0010
0100
0010
,  // measure 12
0001
1000
0001
1000
0100
0010
0100
0010
,  // measure 13
0100
0010
0001
1000
0100
1000
0010
1000
,  // measure 14
0001
0100
0001
0100
1001
0010
0001
0001
,  // measure 15
0001
0000
0001
0000
0001
0000
0001
0000
0110
0000
1000
0001
0000
0100
0000
0010
,  // measure 16
0110
0000
1000
1010
0000
0001
0011
0000
,  // measure 17
1000
1100
0010
0001
0101
0000
0110
0000
,  // measure 18
1001
0010
1000
1100
0010
0001
0101
0010
,  // measure 19
1000
0000
1010
0000
0100
0000
0001
0000
0011
0000
0100
0000
1000
0000
0001
1000
,  // measure 20
0001
0000
1000
0001
1000
0100
0001
0100
,  // measure 21
1100
0000
0001
0000
0010
0100
1000
0010
,  // measure 22
0110
0000
1000
0100
0000
0001
0000
0100
,  // measure 23
1100
0000
0001
0200
0000
0010
0010
0300
,  // measure 24
0101
0000
1000
0010
1000
0100
0000
0001
,  // measure 25
0011
0000
0001
0100
0001
0010
0000
1000
,  // measure 26
1100
0000
1000
0001
0020
0100
0100
0030
,  // measure 27
0200
0000
1000
0000
0010
0310
0001
0000
,  // measure 28
1001
0000
0001
0010
0100
1000
0100
0010
,  // measure 29
0011
0000
0100
0000
1000
0100
0001
0000
,  // measure 30
0101
0000
0100
1000
0001
0010
1000
0100
,  // measure 31
1100
0000
0100
0000
1000
0100
0001
1000
,  // measure 32
1001
0000
0010
0000
0001
0100
1000
0000
,  // measure 33
0110
0000
0100
0001
0000
1000
0000
0100
,  // measure 34
0110
0000
1000
0000
0001
1000
0001
0000
,  // measure 35
1001
0000
1000
0000
0010
0001
1000
0000
,  // measure 36
0011
0000
1000
0001
0100
0010
0100
1000
,  // measure 37
0002
0023
2030
3100
,  // measure 38
0101
0000
0010
0100
0001
1000
0001
0100
,  // measure 39
0020
0230
0302
1003
,  // measure 40
1001
0000
0010
0100
0100
0010
0001
0010
,  // measure 41
0100
0000
0001
0000
1000
0001
0100
0000
,  // measure 42
0110
0000
0100
0000
0010
1000
0001
0000
,  // measure 43
0110
0000
0100
0000
0010
0001
1000
0000
,  // measure 44
0110
0000
0100
0000
0010
1000
0001
0001
,  // measure 45
2000
0000
0000
0000
3020
0000
0000
0000
0032
0000
0000
0000
0203
0000
0000
0300
,  // measure 46
1001
0000
0110
0000
1000
0001
0100
0000
,  // measure 47
0010
1000
0001
0000
0010
0001
1000
0000
,  // measure 48
0100
1000
0001
0000
0100
0000
0010
0100
,  // measure 49
0001
0010
0001
0000
0010
0100
1000
0000
,  // measure 50
1001
0000
0100
0000
1000
0100
0001
0000
,  // measure 51
0100
1000
0010
0100
0001
0010
0001
0100
,  // measure 52
1000
0100
0001
0000
0010
0000
1000
0010
,  // measure 53
0002
0000
0000
0000
0023
0000
0000
0000
2030
0000
0100
0000
3200
0000
0000
0300
,  // measure 54
0110
0000
0010
0000
0001
1000
0010
0100
,  // measure 55
0001
0010
1000
0010
0001
0100
0010
1000
,  // measure 56
0110
0000
1000
0000
0001
0100
1000
0100
,  // measure 57
0001
0010
0001
1000
0100
0010
0001
0010
,  // measure 58
0110
0000
1000
0000
0001
0000
0100
0001
,  // measure 59
0010
0000
0100
1000
0000
0010
0000
1000
,  // measure 60
1010
0000
0001
0011
0000
1000
1100
0000
,  // measure 61
0001
0101
0000
1000
1001
0000
0110
0000
,  // measure 62
1001
0010
0100
1010
0001
1000
0022
0000
,  // measure 63
0000
0033
0000
0000
;

//---------------dance-single - ----------------
#NOTES:
     dance-single:
     :
     Medium:
     7:
     0.258799,0.436970,0.199582,0.330079,0.011514,236.000000,210.000000,26.000000,43.000000,0.000000,0.000000,0.258799,0.436970,0.199582,0.330079,0.011514,236.000000,210.000000,26.000000,43.000000,0.000000,0.000000:
0000
0000
0000
0000
,
0000
1000
0001
0100
,
0010
1000
0200
0000
,
0000
0300
0010
0000
0001
0000
0010
0000
,
0200
0000
0320
0000
,
0000
0000
0000
0030
0001
0000
0000
0000
1000
0000
0000
0000
0010
0000
0000
0000
,
0200
0000
0000
0000
0000
0000
0000
0300
0020
0000
0000
0000
0000
0000
0000
0000
,
0000
0030
0000
0000
1000
0000
0000
0000
0001
0000
0000
0000
0100
0000
0000
0000
,
0001
0000
0010
0000
0100
1000
0200
0000
,
0000
0300
0010
0000
0001
0000
1000
0000
,
0010
0100
0020
0100
,
0100
0000
0000
0030
1000
0000
0000
0000
0100
0000
0000
0000
1000
0000
0000
0000
,
0002
0000
0000
0000
0100
0000
0000
0003
0200
0000
0000
0000
0010
0000
0000
0000
,
0010
0310
2000
3002
,
0023
0000
0100
0030
1200
0000
1300
0001
,
1000
0000
0001
0000
1000
0000
0001
0000
1001
0000
1000
0001
0000
0100
0000
0010
,
0110
0000
0000
1010
0000
0000
0011
0000
,
0000
1100
0000
0000
0101
0000
0010
0000
,
1001
0000
0000
1100
0000
0000
0101
0000
,
0000
1010
0000
0000
0011
0000
0100
0000
,
1000
0000
1000
0001
0000
0100
0000
0020
,
0000
1030
0010
1000
,
0100
0000
1000
0100
0000
0010
0000
0002
,
0000
0003
0100
0200
0000
0000
0000
0300
,
0010
0000
1000
0010
0000
0100
0000
0001
,
0000
0000
0001
0100
0000
0010
0000
1000
,
0000
0000
1000
0000
0020
0000
0000
0030
,
0200
0000
0000
0000
0000
0300
0000
0000
,
1000
0000
0001
1000
0000
0100
0000
0010
,
0000
0100
1000
0100
,
0010
0000
0100
1000
0000
0100
0000
0020
,
0000
0030
0001
0000
1000
0001
0000
2000
,
0000
3000
0000
1000
,
0010
0000
0100
0001
0000
1000
0000
0002
,
0000
0000
0003
0000
,
1001
0000
0010
0001
,
0011
0000
1000
0001
0000
0100
0000
0020
,
0000
0030
2000
0000
3002
0000
0003
0000
,
1001
0000
0010
0100
0000
0001
0000
2000
,
0000
0000
0000
3000
0020
0000
0030
0000
,
0100
0000
0010
0100
0000
0001
0000
0002
,
0000
1003
1000
0001
,
0110
0100
0000
0001
,
0010
0000
0100
0000
0010
0001
0010
0000
,
0100
1000
0000
0001
,
2000
0000
0000
0000
3020
0000
0000
0000
0032
0000
0000
0000
0203
0000
0000
0300
,
1001
0000
0000
1000
,
0001
0100
0002
0000
,
0023
0000
0000
0000
0000
0030
0100
0000
,
1000
0100
0020
0000
,
0230
0000
0000
0000
0000
0300
1000
0000
,
0001
0100
0010
0100
,
0010
0100
0020
0000
0000
0030
1000
0000
,
1000
0001
0001
0010
,
0200
0000
0000
0000
0000
0300
1000
0000
,
1000
0000
0001
0000
0020
0000
0000
0030
,
0200
0000
0000
0000
0000
0300
1000
0000
,
1000
0010
0200
0000
,
0302
0000
0000
0000
0000
0003
1000
0000
,
0001
0000
1000
0001
0000
0010
0000
0100
,
0110
0000
0000
0011
0000
0000
1100
0000
,
0000
0101
0000
0000
1001
0000
0110
0000
,
1001
0000
1000
1001
0000
0001
2002
0000
,
0000
3003
0000
0000
;

//---------------dance-single - ----------------
#NOTES:
     dance-single:
     :
     Easy:
     3:
     0.184230,0.244680,0.015352,0.176554,0.000000,168.000000,166.000000,2.000000,23.000000,0.000000,0.000000,0.184230,0.244680,0.015352,0.176554,0.000000,168.000000,166.000000,2.000000,23.000000,0.000000,0.000000:
0000
0000
0000
0000
,
0000
0000
0000
0000
,
0000
0000
0000
0000
,
0000
0000
0000
0000
,
0000
0000
0000
0000
,
0000
0000
0000
0000
,
0000
0000
0000
0000
,
0000
0000
0000
0000
,
0000
0000
0000
0000
,
0000
0100
0100
0100
,
0010
0100
0001
0001
,
0001
0001
1000
1000
,
0010
0100
0001
0001
,
0001
1000
0010
0100
,
0010
1000
0001
0001
,
0001
0001
1001
0000
,
1000
0000
0000
0001
0000
0000
1000
0000
,
0000
0010
0000
0000
0100
0000
0001
0000
,
0010
0000
0000
0100
0000
0000
1000
0000
,
0000
0001
0000
0000
0100
0000
0010
0000
,
1000
1000
0001
0001
,
0100
0010
1000
0001
,
0010
0100
1000
0001
,
0100
0000
0000
0020
0000
0000
0030
0000
,
0100
0000
0000
0001
0000
1000
0000
0100
,
0000
0000
0000
0010
0000
0001
0000
1000
,
0000
0010
0100
0000
,
0002
0000
0000
0003
,
1000
1000
0001
0010
,
0100
0100
1000
0100
,
0010
0001
1000
0010
,
0200
0000
0000
0300
0001
0000
0100
0000
,
0020
0000
0030
1000
,
1000
0001
1000
0010
,
0200
0000
0000
0000
0000
0000
0000
0300
,
0001
0000
0100
0010
,
0100
0010
0100
0001
,
1000
0000
0001
0000
2000
0000
0000
3000
,
0100
0010
0100
0010
,
0001
0000
1000
0000
0002
0000
0000
0003
,
1000
1000
0010
0100
,
0001
0001
0010
0100
,
1000
0000
0000
0000
,
0001
0001
1000
0020
,
0000
0000
0000
0030
0000
0000
0100
0000
,
0100
0001
1000
0001
,
1001
0000
0000
0001
,
0001
0000
1000
0000
0002
0000
0000
0003
,
1000
0000
0000
0010
,
0010
0100
0020
0000
,
0130
0000
0000
0001
,
0001
1000
0100
0020
,
0000
0031
0000
1000
,
1000
0010
0100
0001
,
0200
0000
0300
0010
,
0010
1000
0200
0000
,
0320
0000
0030
0001
,
0001
1000
0020
0000
,
0230
0000
0000
0000
0000
0300
0001
0000
,
1000
0000
0001
1000
0000
0001
0000
2000
,
0000
0000
3000
0002
0000
0000
0203
0000
,
0000
0320
0000
0000
1030
0000
0001
0000
,
0020
0000
0000
0230
0000
0300
2000
0000
,
0000
0000
0000
3000
;
