#TITLE:Kesenai Tsumi;
#SUBTITLE:Fullmetal Alchemist Ending 1 Version Latino;
#ARTIST:Salome Anjari;
#TITLETRANSLIT:;
#SUBTITLETRANSLIT:;
#ARTISTTRANSLIT:;
#GENRE:;
#CREDIT:;
#BANNER:KTBN.jpg;
#BACKGROUND:KTBG.jpg;
#LYRICSPATH:;
#CDTITLE:cdtitleitachi.png;
#MUSIC:111.ogg;
#OFFSET:-0.249000;
#SAMPLESTART:37.902935;
#SAMPLELENGTH:31.898739;
#SELECTABLE:YES;
#BPMS:0.000000=158.000000
;
#STOPS:
;
#BGCHANGES:0.063=1.avi=1.000=0=0=1=====,
197.500=KTBG.jpg=1.000=0=0=1=====,
99999=-nosongbg-=1.000=0=0=0 // don't automatically add -songbackground-
;
#KEYSOUNDS:;
#ATTACKS:;

//---------------dance-single - ----------------
#NOTES:
     dance-single:
     :
     Easy:
     4:
     0.237282,0.292154,0.000000,0.092276,0.000000,126.000000,126.000000,0.000000,7.000000,0.000000,0.000000,0.237282,0.292154,0.000000,0.092276,0.000000,126.000000,126.000000,0.000000,7.000000,0.000000,0.000000:
0000
0000
0000
0000
,
0000
0000
0000
0000
,
0000
0000
0000
0000
,
0000
0000
0000
0000
,
0000
0000
0000
0000
,
0000
0000
1000
1000
,
1000
0000
0000
0000
0000
1000
0000
0000
,
1000
0000
0000
1000
0000
1000
0000
0000
,
1000
0000
0000
1000
0000
1000
0000
1000
,
0000
1000
0000
0010
,
0000
0010
0000
0010
,
0010
0000
0000
0010
0000
0010
0000
0000
,
0010
0000
0000
0010
0000
0000
0000
0010
,
0000
0010
0010
0010
,
0010
0010
0010
1000
,
1000
0001
1000
0010
,
1000
0010
0100
0010
,
0100
0000
0000
0100
0000
0100
0000
0000
,
0010
0000
0000
0010
0000
0010
0000
0010
,
0000
0010
0010
0000
0100
0000
0010
0000
,
0100
0000
0001
0000
0000
0001
0000
0000
,
0001
0000
0000
0001
0000
0001
0000
0000
,
1000
0000
0000
0001
0000
1000
0000
0010
,
0000
0000
0010
0000
0010
0000
0000
0020
,
0000
0030
0000
0000
0001
1000
0001
0000
,
0000
0000
1000
1000
,
0001
0001
0100
0100
,
0010
0010
1000
1000
,
0001
0001
1000
1000
,
0001
1000
0001
0001
,
0100
0100
0010
0010
,
0100
0010
0100
0010
,
0100
0000
0000
0100
0000
0100
0000
0000
,
0010
0100
0002
0000
,
0000
0003
0000
0000
1000
0000
0000
0000
,
0010
0000
0000
0000
0100
0000
0000
0100
,
0000
0000
0100
0000
,
0010
0100
0020
0000
,
0000
0030
0000
0000
0010
0000
0000
0000
,
1000
0000
0000
0000
0001
0000
0000
0001
,
0000
0000
0001
0000
,
1000
0001
2000
0000
,
0000
3000
0002
0003
,
0100
0000
0000
0000
0100
0000
0000
0100
,
0000
0000
0100
0000
,
0010
0010
0020
0000
,
0030
0010
0010
0000
,
1000
0000
0000
0000
0001
0000
0000
1000
,
0000
0000
0000
0000
0010
0000
0000
0020
,
0000
0030
0000
0000
;

//---------------dance-single - ----------------
#NOTES:
     dance-single:
     :
     Medium:
     8:
     0.384171,0.584308,0.329559,0.158188,0.000000,204.000000,179.000000,25.000000,12.000000,0.000000,0.000000,0.384171,0.584308,0.329559,0.158188,0.000000,204.000000,179.000000,25.000000,12.000000,0.000000,0.000000:
0000
0000
0000
0000
,
0000
0000
0000
0000
1000
0000
0000
1000
,
0000
0010
0000
0100
0000
0001
0000
1000
,
0000
0010
0000
0000
0100
0010
0000
0100
,
0000
0001
0000
1000
0000
0010
0000
1000
,
0000
0001
0000
0000
1000
0000
0010
0100
,
0010
0100
0010
0100
0000
0001
0100
0000
,
0010
0000
0000
1000
0000
1000
0000
0000
,
0001
0000
0000
0100
0000
0010
0000
0100
,
0000
0001
0100
0000
0010
0000
1000
0000
,
0010
1000
0010
1000
0000
0001
1000
0000
,
0010
0000
0000
0100
0000
0100
0000
0010
,
0000
0100
0010
0100
0000
0001
0000
1000
,
0000
0001
1000
0001
2000
0000
3000
0002
,
0000
0003
1000
0100
,
0010
0001
1000
0010
,
0100
0010
0100
0010
0000
0000
1000
0000
,
0001
0000
0000
1000
0000
1000
0000
0000
,
0010
0100
0010
0100
0000
0001
0000
0001
,
0000
0001
0001
0000
1000
0000
0100
0000
,
1000
0100
1000
0100
0000
1000
0100
0000
,
1000
0010
1000
0010
0000
1000
0000
0000
,
0001
1000
0001
0100
0000
0100
0000
0100
,
0000
0100
0001
1000
0002
0000
0003
2000
,
0000
0000
3000
0000
0001
1000
0001
0000
,
0000
0000
1001
0010
,
0110
0001
1001
0010
,
1010
0101
0110
0110
,
1001
0000
0000
1001
0000
2002
3003
0000
,
1001
1100
1010
1010
,
0101
0101
0110
0110
,
1001
0110
1001
1001
,
0110
0000
0000
0110
0000
0110
0000
0000
,
0001
1000
0020
0000
,
0000
0000
0100
0000
,
0100
0000
0100
0000
0100
0000
0000
0100
,
0000
0100
0000
0100
0100
0030
0000
0000
,
1000
0001
2000
0000
,
0000
0000
0001
0000
,
0001
0000
0001
0000
0001
0000
0001
0001
,
0000
0001
0000
0000
0001
0000
0000
3000
,
0010
0100
0020
0000
,
0000
0000
0100
0000
,
0100
0000
0100
0000
0100
0000
0100
0100
,
0000
0100
0000
0100
0100
0000
0000
0030
,
1000
0001
2000
0000
,
0000
0000
0000
3000
0020
0000
0000
0030
,
0100
0000
0001
0000
1000
0000
0010
1000
,
0000
0001
0000
0100
0010
0000
0000
2000
,
0000
3000
0000
0000
;

//---------------dance-single - ----------------
#NOTES:
     dance-single:
     :
     Hard:
     9:
     0.531060,0.618335,0.395471,0.118641,0.000000,282.000000,252.000000,30.000000,9.000000,0.000000,0.000000,0.531060,0.618335,0.395471,0.118641,0.000000,282.000000,252.000000,30.000000,9.000000,0.000000,0.000000:
0000
0000
0000
0000
,
0000
0000
0000
0000
1000
1000
0000
0001
,
0000
1000
0000
0010
0000
0100
0000
0001
,
0000
1000
0000
0000
0010
1000
0000
0001
,
0000
1000
0000
0010
0000
1000
0000
0001
,
0000
1000
0010
1000
0001
0000
0100
0100
,
0010
0100
0001
1000
0000
0100
1000
0000
,
0010
0010
0010
0010
0000
0010
0000
0000
,
0100
0100
0001
0100
0000
0001
0000
1000
,
0000
0010
0010
0000
1000
0000
0001
0000
,
1000
0001
0001
1000
0000
0100
1000
0000
,
0010
1000
0010
1000
0000
0001
0000
0000
,
1001
0010
0100
0010
0000
0110
0000
0001
,
0000
1000
0001
1000
1001
0000
0010
0100
,
0000
0001
1000
0000
1000
0100
0010
0001
,
1000
0100
0010
0001
1000
0000
0001
1000
,
0010
0100
0001
0010
0000
0100
1000
0000
,
0001
0010
0100
1000
0000
0001
0000
0000
,
1000
0100
1000
0010
0000
0100
0000
1000
,
0000
0100
0010
0000
1000
0000
0001
0001
,
1000
0100
1000
0010
0000
1000
0010
0000
,
1000
0100
0001
0100
0000
1000
0000
0000
,
0001
0100
0010
0100
0000
0010
0000
0100
,
0000
0001
1000
0100
0101
0000
0000
1100
,
0000
0000
1001
0000
1001
1001
1001
0001
,
1000
0010
0100
0001
0020
0030
0001
1000
,
1000
0010
1000
0001
0100
0000
0101
0000
,
0010
1010
0101
1100
,
0110
0000
1001
1001
0000
1010
0000
1000
,
0010
1000
0001
0100
0010
0000
0100
0001
,
1000
0001
0010
0100
0010
0000
0010
0000
,
0001
1000
1001
1001
,
0010
0000
0100
0001
0000
1000
0100
0010
,
0001
1000
0100
1000
0010
0000
0010
0000
,
1010
0000
0001
1000
0000
0010
0100
0000
,
0001
0000
1001
0000
0010
0000
0100
0001
,
0000
1001
0000
1000
0100
0000
1010
0000
,
0010
0100
0102
1000
,
1000
0003
1000
0010
0000
0100
0001
0000
,
1001
0000
0010
0000
1010
0000
0010
1000
,
0000
0001
0000
0100
0010
0000
0100
0000
,
1002
0000
0200
0300
2000
0000
0000
0000
,
0000
0003
3000
0000
2020
0000
3000
0030
,
0010
0000
0100
0000
0001
0000
0010
0100
,
0000
1000
0000
0001
1000
0000
0010
0000
,
0100
0001
0100
0010
1000
0001
1000
0010
,
1000
0001
0100
0010
0100
0001
0100
0010
,
0100
0001
0100
0001
1000
0001
1000
0001
,
0000
1000
0000
0010
1000
0000
0000
1001
,
0000
2002
0000
3003
0000
0000
0000
0000
;

//---------------dance-single - ----------------
#NOTES:
     dance-single:
     :
     Challenge:
     11:
     0.574374,0.683423,0.804123,0.830488,0.000000,305.000000,244.000000,61.000000,63.000000,0.000000,0.000000,0.574374,0.683423,0.804123,0.830488,0.000000,305.000000,244.000000,61.000000,63.000000,0.000000,0.000000:
// measure 0
0000
0000
0000
0000
,  // measure 1
0000
0000
0000
0000
1000
0010
0000
0110
,  // measure 2
0000
1001
0000
0110
0000
0101
0000
1001
,  // measure 3
0000
1100
0000
0000
0010
0100
0000
1001
,  // measure 4
0000
1100
0000
1010
0000
0100
0000
0010
,  // measure 5
0000
1001
1001
0000
1000
0100
1000
0001
,  // measure 6
0010
0001
0010
0001
0000
0100
0010
0000
,  // measure 7
1000
0100
0010
0100
0000
1001
0000
0000
,  // measure 8
0010
0100
0010
0100
0000
1001
0000
1100
,  // measure 9
0000
0100
1000
0000
0001
0000
1000
0100
,  // measure 10
1000
0010
1000
0100
0000
0010
0001
0000
,  // measure 11
1000
0010
0100
0010
0000
0101
0000
0000
,  // measure 12
0001
0010
0100
1000
0000
1100
0000
1001
,  // measure 13
0000
0001
1000
0100
1000
0000
0100
2002
,  // measure 14
0000
0003
3000
0020
2030
3200
2300
3020
,  // measure 15
0230
0320
0230
0302
0023
0030
0001
0010
,  // measure 16
0001
0100
0001
0100
0000
0001
0100
0000
,  // measure 17
0010
0100
0001
0010
0000
0011
0000
0000
,  // measure 18
0001
0100
0010
0100
0000
0101
0000
0011
,  // measure 19
0000
0100
0202
0000
0303
0000
1000
0100
,  // measure 20
1000
0010
1000
0100
0000
1000
0010
0000
,  // measure 21
1000
0100
1100
1100
0000
1100
0000
0000
,  // measure 22
0100
1000
0010
0100
0000
1100
0000
0110
,  // measure 23
0000
1000
0100
0010
0001
0000
0010
0001
,  // measure 24
0000
1000
0010
0000
1001
1001
1001
0001
,  // measure 25
2000
0000
0000
0000
3200
0000
0000
0000
0320
0000
0000
0000
0032
0003
0000
0000
0022
0000
0033
0000
0000
0000
0000
0000
0002
0000
0000
0000
2003
0000
0000
0000
,  // measure 26
3020
0000
0000
0000
0230
0000
0000
0000
0302
0000
0000
0000
2003
3000
0000
0000
2200
0000
0000
0000
3300
0000
0000
0000
2020
0000
3030
0000
0000
0000
0000
0000
,  // measure 27
0022
0033
0000
0000
0202
0303
0000
0000
2020
3030
0000
0000
0202
0303
0000
0000
,  // measure 28
2200
3300
0000
0000
0100
0000
0010
0000
0000
0000
0001
0000
0000
0000
2000
0000
,  // measure 29
3020
0000
0000
0000
0230
0000
0000
0000
0302
0000
0000
0000
2003
3000
0000
0000
2200
0000
0000
3300
0000
0000
0000
0000
0020
0000
0000
0000
0230
0000
0000
0300
,  // measure 30
0002
0000
0000
0000
2003
0000
0000
3000
0200
0000
0000
0300
0020
0000
0000
0000
0032
0000
0000
0003
0000
0000
0000
0000
1001
0000
0000
0000
0000
0000
0000
0000
,  // measure 31
0010
1010
1001
1100
,  // measure 32
0110
0000
0001
1000
0000
0010
0100
0000
,  // measure 33
1001
1010
0220
0000
,  // measure 34
0000
0330
0002
0003
,  // measure 35
0010
0000
0100
0000
1001
0000
1000
0100
,  // measure 36
0000
1000
0000
1000
0100
0000
1000
0000
,  // measure 37
0010
0100
0202
0000
,  // measure 38
0000
0303
0000
0000
0022
0000
0000
0033
,  // measure 39
0001
0000
0100
0000
0001
0000
1000
0100
,  // measure 40
0000
1000
0000
0010
0100
0000
0001
0000
,  // measure 41
1000
1001
0110
0010
,  // measure 42
1000
0100
0110
0001
,  // measure 43
1000
0000
0010
0000
1001
0000
1100
1100
,  // measure 44
0000
1001
0000
0101
0101
0000
0000
0000
,  // measure 45
0001
0000
1000
0000
1000
0100
0001
0100
,  // measure 46
1000
0100
0001
0100
1000
0010
0001
0010
,  // measure 47
1000
0010
0100
0001
0001
0100
0001
0100
,  // measure 48
0100
0001
1000
0010
1001
0000
1000
0001
,  // measure 49
0000
2020
0000
3030
0000
0000
0000
0000
;
