#TITLE:Just Awake;
#SUBTITLE:Hunter X Hunter 2011 Ending 1;
#ARTIST:Fear And Loathing In Las Vegas;
#TITLETRANSLIT:;
#SUBTITLETRANSLIT:;
#ARTISTTRANSLIT:;
#GENRE:;
#CREDIT:;
#BANNER:JABN.jpg;
#BACKGROUND:JABG.jpg;
#LYRICSPATH:;
#CDTITLE:cdtitleitachi.png;
#MUSIC:Just Awake.ogg;
#OFFSET:0.004000;
#SAMPLESTART:29.830000;
#SAMPLELENGTH:15.078531;
#SELECTABLE:YES;
#BPMS:0.000000=191.000000
,212.000000=95.500000
,214.000000=382.000000
,215.000000=191.000000
;
#STOPS:214.000000=0.157000
;
#BGCHANGES:0.000=1.avi=1.000=0=0=1=====,
247.000=JABG.jpg=1.000=0=0=1=====,
99999=-nosongbg-=1.000=0=0=0 // don't automatically add -songbackground-
;
#KEYSOUNDS:;
#ATTACKS:;

//---------------dance-single - ----------------
#NOTES:
     dance-single:
     :
     Medium:
     12:
     0.593857,0.689627,0.545994,0.545994,0.012409,335.000000,291.000000,44.000000,44.000000,0.000000,0.000000,0.593857,0.689627,0.545994,0.545994,0.012409,335.000000,291.000000,44.000000,44.000000,0.000000,0.000000:
0000
0000
0002
0023
0230
0300
2000
3020
,
0030
0200
0300
0020
0030
2000
3002
2003
,
3000
0000
0200
2300
3020
0030
1000
1000
,
0000
0020
0030
0200
0300
0002
0203
0300
,
0000
0010
2000
0000
3200
0000
2300
0000
,
3020
0230
0300
2002
,
3003
2200
0000
0000
,
0000
0000
0000
0000
3300
0000
0000
0010
,
0010
0100
0010
0000
1000
0000
0001
0000
,
1000
0100
0000
1000
0010
0100
0001
1000
,
0100
0010
0001
0000
0011
0000
1010
0000
,
0100
0010
0000
1000
0000
0100
1000
0000
,
1001
0110
1001
0100
,
0010
0001
0000
0100
0001
0010
0001
0100
,
0010
0100
0000
0001
0010
0001
0010
0001
,
0000
1000
0000
0100
1000
0010
1000
0010
,
0100
0010
0100
0000
0000
1001
0000
1000
,
0001
0000
0100
1000
0100
0010
0100
0010
,
0100
1000
2002
0000
0000
0000
0000
3003
,
0000
0000
0010
0010
0100
0100
0001
0100
,
0001
0200
0000
0000
0000
0300
0001
0000
,
1000
0100
0000
1100
0000
0110
0000
1001
,
0000
1000
0000
0100
1000
0000
0010
0100
,
0001
0000
1000
0100
1000
0000
0100
0010
,
0001
1000
0010
0100
,
1001
0000
0110
0000
1001
0000
1000
0010
,
0000
0100
0000
0000
1001
0000
1100
0000
,
0110
0000
0001
1000
0001
1000
0010
1000
,
0010
0100
0000
0000
1001
0000
1100
0000
,
0110
0000
0011
0000
0010
0001
0100
0010
,
1000
0100
0000
0000
1100
0000
1010
0000
,
0100
0000
1000
0010
0100
0000
0001
0010
,
0100
1000
0100
0010
0001
1000
0100
1000
,
0010
0100
0001
0010
0001
0100
0010
1000
,
0100
1000
1001
0000
0001
0001
1000
1000
,
0001
0001
1000
1000
0100
0100
0020
0000
,
0031
2000
0000
0000
0000
0000
3000
0000
,
0010
0000
0200
0000
0000
0300
0001
0000
,
0000
2000
0000
0000
0000
0000
0000
3000
,
0010
1000
0001
0100
,
0010
0100
0001
1000
0100
0010
0001
1000
,
0010
1000
0000
0001
1000
0000
1001
0000
,
0010
0000
0100
0010
1000
0100
1000
0010
,
0000
0101
0000
0100
0000
0001
0000
1001
,
0000
0002
0000
0000
0000
0000
0003
0000
,
1000
0002
0003
2000
,
3000
0200
0000
0000
0000
0000
0300
0000
,
1000
0000
0020
0000
0000
0030
0200
0000
,
0300
0000
0001
0100
0010
1000
0100
1000
,
0010
0100
0000
0010
1000
0000
0001
0000
,
0100
0000
0011
0000
0000
0110
0000
0000
,
1100
0000
0000
1010
0000
0000
0010
0000
,
0100
0000
0001
0100
0001
0100
0000
0001
,
0100
0000
0000
2000
3200
2300
3020
0030
0200
0000
0300
0000
1001
0000
0000
0000
,
1000
0100
0010
0000
0101
0000
0000
1000
,
0000
1010
0000
0100
0001
0000
0000
1001
,
0000
1001
0000
0001
1000
0000
0100
0000
,
1000
0010
0000
0100
0000
0000
1001
0000
,
1000
0100
0010
0000
0011
0000
0000
1001
,
0000
1001
0000
0010
0100
0000
0000
1001
,
0000
1100
0000
1000
0100
0000
1000
0000
,
0010
0100
0000
1000
0100
0001
0101
0000
;

//---------------dance-single - ----------------
#NOTES:
     dance-single:
     :
     Hard:
     15:
     0.840263,0.996128,0.868626,0.843809,0.415700,474.000000,404.000000,70.000000,68.000000,0.000000,0.000000,0.840263,0.996128,0.868626,0.843809,0.415700,474.000000,404.000000,70.000000,68.000000,0.000000,0.000000:
0000
0000
0002
0023
0230
0300
2000
3020
,
0030
0200
0300
0020
0030
2000
3002
2003
,
3000
0000
0200
2300
3020
0030
1000
1000
,
0000
0020
0030
0200
0300
0002
0203
0320
,
0030
0000
1000
0000
1000
0000
0000
0000
0001
0100
0010
0100
0001
0100
0010
0100
,
0001
0100
0010
0100
0001
0100
0010
0100
0001
0100
0010
0100
0002
0000
0000
0000
,
0003
0000
0000
0000
0010
1000
0100
1000
0010
1000
0100
1000
0010
1000
0100
1000
,
0010
1000
0100
1000
0010
0100
0001
1000
0010
0000
0000
0000
0000
0000
0002
0000
,
2003
3020
0230
0300
1001
0000
0001
0000
,
1000
0100
0000
1000
0100
0001
0100
1000
,
0100
0001
0100
0000
1100
0000
1010
0000
,
0100
0010
0000
1000
0000
0100
0001
0000
,
1001
0110
1001
0100
,
1000
0100
0000
0001
0100
1000
0100
0001
,
0100
1000
0000
0010
0001
1000
0100
0010
,
0000
1000
0000
0100
0010
0001
0010
0100
,
0010
0000
0001
0000
1000
0001
1000
0000
0000
0000
1001
0000
0000
0000
1100
0000
,
1100
0000
0100
1000
0100
0010
0100
0010
,
0100
0000
1000
0000
0001
0010
0001
0100
0010
1000
0100
1000
0001
1000
0001
1000
,
0010
0100
0001
1000
0010
0000
0010
0000
0100
0000
0100
0000
0001
0000
0100
0000
,
0001
0000
0200
0000
0300
0000
0001
1000
0001
0000
0000
0000
0001
0000
0000
0000
,
1000
0100
0000
1100
0000
0110
0000
1001
,
0000
0000
1000
0000
0000
0000
0010
0100
0001
0000
0000
0000
0010
0000
0100
0000
,
0001
0000
0000
0000
1000
0001
1000
0001
1000
0000
0000
0000
0100
0010
0001
1000
,
0001
1001
0110
0100
,
1001
0000
0110
0000
1001
0000
1100
0110
,
0000
0002
0000
0003
1001
0000
1100
0000
,
0110
0000
1001
0010
0101
1000
0011
0100
,
1010
0000
0001
0000
0000
0000
1000
0010
0100
0000
0010
0100
0001
0000
1000
0100
,
1000
0000
0010
0100
0001
0000
1000
0001
0010
0100
1000
0001
0010
0100
1000
0010
,
0100
0000
0002
0000
0003
0000
1000
0100
0010
0000
0001
0010
0100
0000
1000
0100
,
0010
0000
0001
1000
0001
1000
0100
0010
0001
0010
0100
1000
0001
0000
0010
0000
,
0100
1000
0101
0010
1001
0010
1001
0010
,
0110
0100
1001
0010
0101
0100
0010
1000
,
0100
1000
1001
0000
0001
0001
1000
1000
,
0001
0000
0001
0000
1000
0000
1000
0100
0010
0001
1000
0100
0010
0001
1000
0000
,
0001
2000
0000
0000
0001
0000
3000
0000
,
0010
0000
0200
0000
0001
0300
0002
0000
,
0000
2003
0000
0000
0001
0000
0000
3000
,
0011
0000
0000
0000
0010
0100
0010
0100
0010
0000
0000
0000
0100
0010
1000
0000
,
0020
0230
0302
2003
3200
0320
0032
2003
,
3020
2030
3000
0002
2003
3000
2002
3003
,
0010
0000
0200
0320
2030
3200
2300
3020
,
0030
0202
0303
0200
0300
0002
0003
2002
,
3003
0002
0000
0000
0000
0000
0003
0000
,
2000
3002
0003
2000
,
3000
0200
0000
0000
0000
0000
0300
0000
,
1000
0000
0000
0000
0001
0100
0010
0100
0001
0100
0010
0100
0001
1000
0001
1000
,
0001
0000
0001
0100
0010
1000
0100
1000
,
0010
0100
0000
0010
1000
0000
0001
0000
,
0100
0000
0011
0000
0000
0110
0000
0000
,
1100
0000
0000
1010
0000
0000
0010
0000
,
0100
0000
1000
0001
0010
0100
0000
0020
,
0032
0000
0003
2000
3200
2300
3020
0030
0200
0000
0300
0000
1001
0000
0000
0000
,
1001
0100
1010
0000
0101
0000
0000
1001
,
0000
1010
0000
0100
1001
0000
0000
1001
,
0000
1001
0000
0001
1001
0000
0101
0000
,
1001
0110
0000
0101
0000
0000
1001
0000
,
1001
0100
1010
0000
0011
0000
0000
1001
,
0000
1001
0000
1010
0101
0000
0000
1001
,
0000
1100
0000
1000
0101
0000
1010
0000
,
1010
0101
0000
1000
0100
0001
0101
0000
;

//---------------dance-single - ----------------
#NOTES:
     dance-single:
     :
     Challenge:
     18:
     1.047670,1.264317,0.881035,0.868626,0.837604,591.000000,520.000000,71.000000,70.000000,0.000000,4.000000,1.047670,1.264317,0.881035,0.868626,0.837604,591.000000,520.000000,71.000000,70.000000,0.000000,4.000000:
// measure 0
0000
0000
2000
3020
0230
0300
2002
3023
,  // measure 1
0030
0202
0303
0020
0030
2000
3002
2003
,  // measure 2
3000
0000
0200
2302
3023
0030
1002
1003
,  // measure 3
0000
0020
0030
0200
0300
0002
0203
0320
,  // measure 4
0030
0000
0100
0000
1001
0000
0000
0000
0001
0010
0001
0100
0010
0100
0001
0010
,  // measure 5
0001
0100
0010
0100
0001
0010
0001
0100
0010
1000
0100
1000
0010
0100
0001
0010
,  // measure 6
0001
1000
0010
0100
0010
1000
0100
1000
0010
0100
0010
1000
0100
1000
0010
0100
,  // measure 7
0010
1000
0100
1000
0010
0100
0010
1000
0100
0000
0000
0000
0000
0000
1002
0000
,  // measure 8
2003
3020
0230
0300
2020
3030
0202
0303
,  // measure 9
1000
0100
0100
0001
0100
0100
1000
0010
,  // measure 10
0100
0000
0001
0010
0100
0000
0000
0000
1100
0000
0000
0000
1010
0000
0000
0000
,  // measure 11
0100
0010
1000
0000
0000
0000
0010
0100
0001
0000
0100
0010
1000
0000
0000
0000
,  // measure 12
1001
0110
1001
0100
,  // measure 13
1000
0100
0010
0000
0000
0000
0001
0010
0100
0010
0001
0000
0001
0000
0010
0000
,  // measure 14
0100
1000
0010
0010
0100
1000
0100
0010
,  // measure 15
0000
1001
0000
0100
0010
0001
0010
0100
,  // measure 16
0010
0000
0001
0000
1000
0100
1000
0000
0000
0000
1001
0000
0000
0000
1000
0100
,  // measure 17
0010
0000
1100
0110
0011
0110
1100
0011
,  // measure 18
0110
0000
1001
0000
0001
0010
0001
0100
0010
1000
0100
1000
0001
0010
0001
1000
,  // measure 19
0100
1000
0010
0100
0001
0000
0010
0000
0101
0000
1000
0000
1001
0000
0010
0000
,  // measure 20
0001
0000
0200
0000
0300
0000
0010
1000
0001
0000
0000
0000
0001
0000
0000
0000
,  // measure 21
1000
0010
0100
0000
0001
0000
1000
0010
0100
0001
0010
0100
1000
0000
1001
0000
,  // measure 22
0000
0000
1000
0000
0000
0000
0010
0100
0001
0000
0000
0000
0001
0010
0100
1000
,  // measure 23
0001
0000
0000
0000
1000
0100
0001
0100
1000
0000
0001
0000
0010
0100
1000
0100
,  // measure 24
0010
0000
0000
0000
0001
0010
0010
0000
0100
0000
1000
0000
0010
0100
0001
0000
,  // measure 25
1000
0000
0100
0000
0010
0010
0001
0000
0100
0000
0001
0000
0010
0100
1000
0000
,  // measure 26
0001
0000
1000
0000
0010
0010
0001
0000
0010
1000
0001
0000
0100
0100
0001
0000
,  // measure 27
1000
0010
0100
0000
0001
0100
0010
0000
1000
0001
0010
0001
1000
0100
1000
0000
,  // measure 28
0001
0000
0110
0000
0000
0000
1000
0100
0100
0000
0001
0100
0100
0000
1000
0010
,  // measure 29
0010
0000
0001
0010
0010
0000
1000
0010
1000
0100
1000
0001
0010
0001
1000
0100
,  // measure 30
0001
0000
0110
0000
0000
0000
1000
0100
0100
0000
0001
0010
0010
0000
1000
0001
,  // measure 31
0001
0000
1000
0000
0100
1000
0100
0001
0100
1000
0100
0001
0010
0000
0100
0000
,  // measure 32
0100
0000
1000
0000
0001
0100
0001
0100
0010
0100
0010
0100
1000
0100
1000
0100
,  // measure 33
0010
0100
0010
0100
1000
0100
1000
0100
0010
0100
0010
0100
1000
0100
1000
0100
,  // measure 34
1000
0100
0001
0010
0100
0000
1001
0000
0101
0000
0001
0000
1000
0000
1000
0000
,  // measure 35
0001
0000
0001
0000
1000
0001
0100
0010
1000
0010
0001
0010
1000
0100
0010
0100
,  // measure 36
0001
0100
1001
0000
0000
0000
1000
0000
0001
0000
0000
0000
0010
0000
0100
0000
,  // measure 37
0001
0000
0200
0000
0001
0300
0001
0010
,  // measure 38
0100
0000
2000
0000
0000
0000
0001
0000
3001
0000
0000
0000
0001
0010
0100
0000
,  // measure 39
1000
0000
0000
0000
0001
0100
0010
0100
0001
0000
0000
0000
0100
0010
1000
0001
,  // measure 40
1000
0010
0100
0001
2000
0000
3200
0000
0302
0000
0023
0000
0032
0000
2003
0000
,  // measure 41
3200
0302
0003
0200
2300
3000
2002
3003
,  // measure 42
0022
0033
0000
0000
0200
0000
0302
0000
0023
0000
2030
0000
3020
0000
0032
0000
,  // measure 43
0003
0202
0303
0200
0300
0002
0003
2002
,  // measure 44
3003
0002
0000
0100
1000
0000
0103
0010
,  // measure 45
1000
0002
1003
2000
,  // measure 46
3000
0000
0200
0000
0000
0000
0010
0000
0310
0000
0000
0000
0001
0100
0010
0100
,  // measure 47
0001
0000
0000
0000
1000
0100
0010
0001
0010
0100
0010
0001
0010
0100
1000
0001
,  // measure 48
0100
0000
0000
0000
0001
0010
0100
0000
1000
0000
1000
0000
0100
0010
0001
0000
,  // measure 49
0001
0000
1000
0001
0100
0001
1000
0010
1000
0010
0100
0001
0100
0001
1000
0010
,  // measure 50
0100
0000
0011
0000
0000
0110
0000
0000
,  // measure 51
1100
0000
0000
1010
0110
0000
0010
0000
,  // measure 52
0100
0000
0011
0110
0011
0110
0000
0020
,  // measure 53
0032
0000
0003
2000
3020
0002
2033
3000
0200
0300
0000
0000
1001
0000
0000
0000
,  // measure 54
1001
0100
1010
0000
0101
0000
0000
1001
,  // measure 55
0000
1010
0000
0100
1001
0000
1100
0011
,  // measure 56
0000
1001
0000
0011
0110
0000
1100
0000
,  // measure 57
1000
0010
0100
0000
0001
0000
0100
0000
0010
0000
0000
0000
1010
0000
0000
0000
,  // measure 58
1001
0100
1010
0000
0011
0000
0110
1001
,  // measure 59
0000
1001
0000
1010
0101
0000
0000
1001
,  // measure 60
0000
1100
0000
1000
0101
0000
1010
0000
,  // measure 61
1000
0010
0100
0000
0000
0000
1000
0001
0010
0100
0010
0001
1100
0000
0000
0000
;

//---------------dance-single - ----------------
#NOTES:
     dance-single:
     :
     Easy:
     5:
     0.269451,0.344814,0.037227,0.173725,0.000000,152.000000,149.000000,3.000000,14.000000,0.000000,0.000000,0.269451,0.344814,0.037227,0.173725,0.000000,152.000000,149.000000,3.000000,14.000000,0.000000,0.000000:
0000
0000
0000
0000
,
0000
0000
0000
0000
,
0000
0000
0000
0000
,
0000
0000
0000
0000
,
0000
1000
1000
1000
,
1000
1000
0000
1000
,
0000
2000
0000
0000
,
0000
0000
3000
0000
,
0000
0010
0000
0010
,
0000
0010
0000
0000
,
0000
0100
0000
0100
,
0000
0100
0000
0000
,
0000
0010
0000
1000
,
0000
0010
0000
0100
,
0000
0010
0010
0010
,
0000
0100
0100
0100
,
0100
0200
0000
0000
,
0000
0000
0000
0300
,
0000
0000
0020
0000
0000
0000
0000
0030
,
0000
1000
0010
0100
,
0000
0020
0000
0000
0000
0030
1000
0000
,
0000
1000
0000
1000
0000
1000
0000
1000
,
0000
1000
0000
0000
2000
0000
3000
0000
,
1000
1000
0000
0010
,
0000
0100
0000
0000
0010
0000
1000
0000
,
0001
1000
0010
0100
,
0000
0100
0000
0000
0010
0000
1000
0000
,
0010
1000
0010
0100
,
0000
0100
0000
0000
0001
0000
1000
0000
,
0010
1000
0010
0100
,
0000
0100
0000
0000
0010
0000
0010
0000
,
1000
0001
1000
0100
,
0000
2000
3000
0020
,
0030
0100
0010
0100
,
0001
0200
0000
0000
,
0000
0000
0000
0000
0000
0000
0000
0300
,
0000
0020
0000
0000
0000
0000
0030
0000
,
0010
0010
0000
0010
,
0000
0020
0000
0000
0000
0030
0000
0000
,
1000
0001
1000
0010
,
0000
1000
0001
1000
,
0000
0010
0000
0000
0010
0000
0010
0000
,
0010
0101
0010
0100
,
0000
0001
0000
0001
0000
1000
0000
0100
,
0000
2000
0000
0000
0000
3000
0000
0000
,
1000
0001
0000
0100
,
0000
0020
0000
0000
0000
0030
0000
0000
,
0100
0001
0000
2002
,
3003
0100
1000
0010
,
0000
0100
0000
0000
0010
0000
1000
0000
,
0100
0000
1000
0000
0000
0100
0000
0000
,
0010
0000
0000
0001
0000
0000
1000
0000
,
1000
0000
0010
0000
0000
0100
0000
0000
,
0010
0000
0000
0010
,
0010
0000
1000
0000
0010
0000
0000
0100
,
0000
0100
0000
0000
0100
0000
0000
0001
,
0000
0001
0000
0000
0001
0000
1000
0000
,
0000
1000
0000
1000
0000
0000
0010
0000
,
0000
0010
0010
0000
,
0100
0000
0001
0000
1000
0000
0000
0100
,
0000
1000
0000
0000
0010
0000
0100
0000
,
0001
1000
0100
1100
;
