#TITLE:Invoke;
#SUBTITLE:Gundam Seed Opening;
#ARTIST:T.M.Revolution;
#TITLETRANSLIT:;
#SUBTITLETRANSLIT:;
#ARTISTTRANSLIT:;
#GENRE:;
#CREDIT:;
#BANNER:INVOKEBN.jpg;
#BACKGROUND:INVOKEBG.jpg;
#LYRICSPATH:;
#CDTITLE:Magna Trick title!.png;
#MUSIC:Invoke.mp3;
#OFFSET:-0.738356;
#SAMPLESTART:51.000000;
#SAMPLELENGTH:18.000000;
#SELECTABLE:YES;
#BPMS:0.000000=76.000000
,11.000000=152.000000
;
#STOPS:10.833333=1.235000
;
#BGCHANGES:0.000=Invoke.avi=1.000=1=0=0=StretchNoLoop==CrossFade==,
211.500=INVOKEBG.jpg=1.000=0=0=1=====,
99999=-nosongbg-=1.000=0=0=0 // don't automatically add -songbackground-
;
#KEYSOUNDS:;
#ATTACKS:;

//---------------dance-single - ----------------
#NOTES:
     dance-single:
     :
     Challenge:
     18:
     1.001127,0.981187,0.676775,0.229230,1.107946,642.000000,580.000000,62.000000,21.000000,0.000000,0.000000,1.001127,0.981187,0.676775,0.229230,1.107946,642.000000,580.000000,62.000000,21.000000,0.000000,0.000000:
0002
0000
0000
0000
0000
0000
0000
0000
0000
0000
0000
0000
0000
0000
0000
0000
0000
0000
0000
0000
0000
0000
0000
0000
0020
0000
0000
0000
0003
0000
0000
0000
0000
0000
0000
0000
0000
0000
0000
0000
0000
0000
0000
0000
0000
0000
0000
0000
0000
0000
0000
0000
0000
0000
0200
0000
0000
0030
0000
0000
0000
0000
0000
0000
0000
0000
0000
0000
0000
0000
0000
0000
2000
0000
0000
0000
0300
0000
0000
0000
0000
0000
0000
0000
0000
0000
0000
0000
0000
0000
0000
0000
0000
0000
0000
0000
0000
0000
0000
0000
0000
0000
0000
0000
0000
0000
0000
0000
0002
0000
0000
0000
3000
0000
0000
0000
0000
0000
0000
0000
0000
0000
0000
0000
0000
0000
0000
0000
0000
0000
0000
0000
0000
0000
0000
0000
0000
0000
0000
0000
0000
0000
0000
0000
0000
0000
0000
0200
0000
0000
0003
0000
0000
0000
0000
0000
0000
0000
0000
0000
0000
0000
0000
0000
0000
0000
0000
0000
0000
0000
0000
0000
0000
0000
0000
0000
0000
0000
0000
0000
0000
0000
0000
0000
0020
0000
0300
0000
0000
0000
0000
0000
,
0000
0000
0000
0000
0000
0000
0000
0000
0000
0000
0000
0000
0000
0000
0000
0000
0000
0000
0000
0000
0000
0000
0000
0000
0000
0000
0000
0000
0000
0000
2000
0000
0030
0000
0000
0000
0000
0000
0000
0000
0000
0000
0000
0000
0000
0000
0000
0000
0000
0000
0000
0000
0000
0000
0000
0000
0000
0000
0000
0000
0000
0000
0000
0000
0000
0000
0000
0000
0000
0000
0000
0000
0000
0000
0000
0000
0000
0000
0000
0000
0000
0000
0000
0000
3100
0000
0000
0000
0000
0000
0000
0000
0000
0000
0000
0000
0000
0000
0000
0000
0000
0000
0000
0000
0200
0000
0000
0000
0000
0000
0000
0000
0000
0000
0000
0000
0000
0000
0000
0000
0000
0000
0000
0000
0000
0000
0000
0000
0000
0000
0000
0000
0000
0000
0000
0000
0000
0000
0000
0000
0000
0000
0000
0000
0000
0000
0000
0000
0000
0000
0000
0000
0300
0000
0000
0000
0010
0000
0000
0000
0000
0000
0000
0000
0001
0000
0000
0000
0000
0000
0000
0000
0000
0000
0000
0000
0010
0000
0000
0000
0000
0000
0000
0000
0000
0000
0000
0000
0000
0000
0000
0000
,
0000
0000
0000
0000
0000
0000
0002
0000
0000
0000
0000
0000
0000
0000
0003
1000
0000
0000
0000
0000
0000
0000
1000
0000
0000
0000
0000
0000
0000
2000
0000
0000
0000
3000
2002
0000
0003
3000
0000
0001
0000
0000
0000
0000
0000
1000
0000
0000
,
0010
0000
0010
0000
0000
1000
0000
0001
0100
0000
0100
0000
0000
0000
0010
1000
,
0010
0000
0010
1000
0010
0000
0010
1000
0100
1000
0010
0100
0001
0000
0001
1000
,
0001
0000
0001
1000
0001
0000
0001
0100
0010
1000
0100
1000
0010
0000
0010
1000
,
0010
0100
0001
0010
0001
1000
0100
0001
0100
1000
0010
0001
0010
1000
1100
0000
,
0000
1001
0000
0000
0000
0101
0000
0000
0000
0110
0000
0000
0000
1010
0000
0000
0000
0011
0000
0000
0000
1001
0000
0000
,
0001
1000
0010
0000
1000
0000
0100
1000
0100
0000
1000
0000
0001
0100
0010
0000
,
0010
0100
0001
0000
1000
0000
0001
1000
0001
0000
1000
0000
0100
0010
0001
0000
,
0001
0010
0100
0000
1000
0000
0001
0010
0001
0000
0010
0000
0100
1000
0001
0000
,
0001
1000
0100
0000
0010
0000
0100
0010
0100
0000
1000
0000
0010
0001
1000
0000
,
1000
0001
0010
0000
1000
0000
0001
0010
0001
0000
0010
0000
0100
1000
0001
0000
,
0001
1000
0100
0000
0001
0000
0100
1000
0100
0000
0010
0000
0001
0010
1000
0000
,
1000
0010
0001
0000
1000
0000
0100
1000
0100
0000
1000
0000
0001
0100
1000
0000
,
1000
0100
0001
0000
1000
0000
0001
1000
0001
0000
1000
0000
0110
0000
1001
0000
,
0010
0000
0100
1000
0010
0000
0010
1000
0100
0000
0100
0010
0001
0000
0001
0100
,
0010
0000
0010
1000
0001
0000
0001
1000
0100
0000
0100
0010
0001
0000
0001
0100
,
0001
0000
0001
0100
1000
0000
1000
0100
0001
0000
0001
0010
0100
0000
0100
1000
,
0001
0000
0001
0100
0010
0000
0010
1000
0100
0000
0100
1000
0010
0000
1001
0000
,
0100
0000
0010
0001
0100
0000
0100
0010
1000
0000
1000
0001
0100
0000
0100
0010
,
1000
0000
1000
0100
0001
0000
0001
0100
1000
0000
1000
0010
0100
0000
0100
0001
,
0010
0000
0001
0010
1000
0000
1000
0010
0001
0000
0001
0100
0010
0000
0010
1000
,
0100
0000
0100
0010
0001
0000
0001
1000
0010
0000
0010
1000
0100
0000
1001
0100
,
0010
0001
1000
0100
0010
0001
1000
0010
0100
0001
1000
0010
0100
0001
0010
0001
,
0100
0010
1000
0010
0100
0001
0010
0001
0100
0010
1000
0010
0100
0001
0010
1000
,
0001
0100
0010
1000
0001
0100
0001
1000
0010
0001
0100
1000
0100
0001
1100
0000
,
0000
0110
0000
0000
0000
0011
0000
0000
0000
0101
0000
0000
0000
0110
0000
0000
0000
1010
0000
0000
0000
1001
0000
0000
,
0010
1000
0100
0000
1000
0000
0001
0100
0001
0100
0010
0000
1000
0000
1100
0000
,
0100
1000
0001
0000
0010
0000
0110
0000
0100
1000
0001
0000
1000
0000
0110
0000
,
0001
1000
0010
0000
1000
0100
1001
0000
0010
0000
1000
0000
0100
0000
1100
0000
,
0100
1000
0001
1000
0010
0000
0110
0000
0100
0000
1100
0000
1000
0001
0200
0000
,
0000
0320
0000
0000
1030
0000
1100
0000
0010
0000
0002
0000
0013
0000
0110
0000
,
0100
1000
0001
1000
0100
0000
0110
0000
1000
0000
0100
0000
1100
0000
1100
0000
,
0001
0000
0011
0000
0011
0000
0100
0000
1100
0000
1000
0000
1001
0000
0001
0100
,
1000
0000
1000
0100
0001
0000
0001
0100
1000
0000
1000
0100
0001
0000
1001
0000
,
0001
0000
1000
0000
1100
0000
1100
0000
0001
0000
0011
0000
0100
0000
1000
0100
,
0010
0001
0010
0100
1000
0001
1000
0100
0001
0100
1000
0010
1000
0100
1001
0000
,
0010
1000
0100
0000
1000
0000
0001
0100
0001
0100
0010
0000
1000
0000
1100
0000
,
0100
1000
0001
0000
0010
0000
0110
0000
0100
1000
0001
0000
1000
0000
0110
0000
,
0001
1000
0010
0000
1000
0100
1001
0000
0010
0000
1000
0000
0100
0000
1100
0000
,
0100
1000
0001
1000
0010
0000
0110
0000
0100
0000
1100
0000
1000
0001
0200
0000
,
0000
0320
0000
0000
1030
0000
1100
0000
0010
0000
0002
0000
0013
0000
0110
0000
,
0100
1000
0001
1000
0100
0000
0110
0000
1000
0000
0100
0000
1100
0000
1100
0000
,
0001
0000
0011
0000
0011
0000
0100
0000
1100
0000
1000
0000
1001
0000
1000
0010
,
0001
0000
0001
0010
1000
0000
1000
0010
0001
0000
0001
0010
1000
0000
1001
0000
,
0010
0000
1000
0000
1100
0000
1100
0000
0001
0000
0011
0000
1000
0000
1000
0010
,
0100
0001
1000
0100
0010
0001
1000
0010
0100
1000
0100
0010
1000
0100
1001
0100
,
1000
0100
0010
0001
0010
0001
0100
0010
0100
0010
1000
0001
1000
0001
0010
1000
,
0010
1000
0001
0100
0001
0100
1000
0001
1000
0001
0010
0100
0010
0100
1000
0010
,
0001
0010
1000
0100
1000
0001
0100
0001
0010
1000
0010
0100
1000
0001
0010
0100
,
1000
0010
1000
0100
0001
0010
0001
0100
1000
0001
1000
0010
0001
0100
2002
0000
,
0000
0000
0000
0000
0000
0000
0000
3003
;

//---------------dance-single - ----------------
#NOTES:
     dance-single:
     :
     Hard:
     15:
     0.732913,0.981187,0.622196,0.316556,0.644027,470.000000,413.000000,57.000000,29.000000,0.000000,0.000000,0.732913,0.981187,0.622196,0.316556,0.644027,470.000000,413.000000,57.000000,29.000000,0.000000,0.000000:
2000
0000
0000
0000
0000
0000
0000
0000
0000
0000
0000
0000
0000
0000
0000
0000
0000
0000
0000
0000
0000
0000
0000
0000
0200
0000
0000
0000
3000
0000
0000
0000
0000
0000
0000
0000
0000
0000
0000
0000
0000
0000
0000
0000
0000
0000
0000
0000
0000
0000
0000
0000
0000
0000
0020
0000
0000
0300
0000
0000
0000
0000
0000
0000
0000
0000
0000
0000
0000
0000
0000
0000
0002
0000
0000
0000
0030
0000
0000
0000
0000
0000
0000
0000
0000
0000
0000
0000
0000
0000
0000
0000
0000
0000
0000
0000
0000
0000
0000
0000
0000
0000
0000
0000
0000
0000
0000
0000
2000
0000
0000
0000
0003
0000
0000
0000
0000
0000
0000
0000
0000
0000
0000
0000
0000
0000
0000
0000
0000
0000
0000
0000
0000
0000
0000
0000
0000
0000
0000
0000
0000
0000
0000
0000
0000
0000
0000
0020
0000
0000
3000
0000
0000
0000
0000
0000
0000
0000
0000
0000
0000
0000
0000
0000
0000
0000
0000
0000
0000
0000
0000
0000
0000
0000
0000
0000
0000
0000
0000
0000
0000
0000
0000
0030
0200
0000
0000
0000
0000
0000
0000
0000
,
0000
0000
0000
0000
0000
0000
0000
0000
0000
0000
0000
0000
0000
0000
0000
0000
0000
0000
0000
0000
0000
0000
0000
0000
0000
0000
0000
0000
0000
0000
0002
0000
0300
0000
0000
0000
0000
0000
0000
0000
0000
0000
0000
0000
0000
0000
0000
0000
0000
0000
0000
0000
0000
0000
0000
0000
0000
0000
0000
0000
0000
0000
0000
0000
0000
0000
0000
0000
0000
0000
0000
0000
0000
0000
0000
0000
0000
0000
0000
0000
0000
0000
0000
0000
0013
0000
0000
0000
0000
0000
0000
0000
0000
0000
0000
0000
0000
0000
0000
0000
0000
0000
0000
0000
0020
0000
0000
0000
0000
0000
0000
0000
0000
0000
0000
0000
0000
0000
0000
0000
0000
0000
0000
0000
0000
0000
0000
0000
0000
0000
0000
0000
0000
0000
0000
0000
0000
0000
0000
0000
0000
0000
0000
0000
0000
0000
0000
0000
0000
0000
0000
0000
0000
0000
0000
0000
0100
0000
0000
0000
0030
0000
0000
0000
1000
0000
0000
0000
0000
0000
0000
0000
0000
0000
0000
0000
0100
0000
0000
0000
0000
0000
0000
0000
0000
0000
0000
0000
0000
0000
0000
0000
,
0000
0000
0000
0000
0000
0000
2000
0000
0000
0000
0000
0000
0000
0000
0000
3001
0000
0000
0000
0000
0000
0000
0001
0000
0000
0000
0000
0000
0000
0002
0000
0000
0000
0003
2002
0000
3000
0003
0000
1000
0000
0000
0000
0000
0000
0001
0000
0000
,
0100
0000
0100
0000
0000
0001
0000
1000
0010
0000
0010
0000
0000
0000
0010
1000
,
0010
0000
1000
0010
1000
0000
1001
0000
0000
0000
0000
0000
0000
0000
0001
0100
,
0001
0000
0100
0001
0100
0000
1001
0000
0000
0000
0000
0000
0000
0000
1000
0010
,
1000
0000
0001
0010
0001
0000
1000
0001
1000
0000
0001
1000
0001
0000
0011
0000
,
0000
1001
0000
0000
0000
1010
0000
0000
0000
0110
0000
0000
0000
0101
0000
0000
0000
1100
0000
0000
0000
1001
0000
0000
,
0100
0010
0100
0000
0010
0000
0001
1000
0001
0000
1000
0000
0010
0000
0100
0000
,
0001
0100
0001
0000
0100
0000
0010
1000
0010
0000
1000
0000
0100
0000
0010
0000
,
0001
0010
0001
0000
0010
0000
0100
1000
0100
0000
1000
0000
0001
0000
0100
0000
,
0010
0100
0010
0000
1000
0000
0001
1000
0001
0000
0100
0000
0010
0000
1000
0000
,
0100
0010
0100
0000
0010
0000
0001
0100
0001
0000
0010
0000
0001
0000
1000
0000
,
0001
1000
0001
0000
1000
0000
0100
0010
0100
0000
0010
0000
0001
0000
1000
0000
,
0010
1000
0010
0000
1000
0000
0001
1000
0001
0000
1000
0000
0100
0000
0010
0000
,
0100
0010
0100
0000
0010
0000
0001
0010
0001
0000
0100
0000
0110
0000
1001
0000
,
0100
0001
0100
0000
0110
0000
1010
0000
,
0101
0000
0011
1100
0000
0020
0000
2030
,
0000
3001
0100
0000
0110
0000
1001
0000
,
1000
0100
0010
0001
0010
0100
1000
1001
,
0000
1000
1100
0000
1001
0000
0011
0000
,
0101
0000
1010
1100
0000
0002
0000
2003
,
0000
3100
1001
0000
0101
0000
1100
1000
,
0100
0000
0010
0000
0001
0000
0010
0000
0100
0000
1000
0000
0001
0000
0001
1000
,
0010
0100
0001
1000
0010
0100
0001
1000
0100
0010
0001
0010
0100
1000
0010
0100
,
0001
1000
0100
0010
0001
0100
0010
1000
0100
0010
0001
0010
0100
1000
0010
0100
,
0001
0010
0100
1000
0001
0100
0010
1000
0001
0100
0010
1000
0100
0010
0011
0000
,
0000
0110
0000
0000
0000
1100
0000
0000
0000
1010
0000
0000
0000
0110
0000
0000
0000
0101
0000
0000
0000
1001
0000
0000
,
0000
1000
0000
0000
0100
0000
0010
0000
0000
0000
0001
0000
0000
0000
0110
0000
,
0000
1000
0000
0110
0000
0010
0001
1000
,
0000
0000
1000
0000
0010
0100
0001
0000
0000
0000
1000
0000
0000
0000
1100
0000
,
0000
0001
0000
0000
0100
0000
0101
0000
0000
0000
0010
0000
1000
0000
0100
0000
,
0000
1000
0000
0000
0001
0000
0020
0000
0000
0000
0230
0000
0000
0300
1001
0000
,
0000
0010
0000
0000
0100
0000
1001
0000
0000
0000
0100
0000
0010
0000
0100
0000
,
0000
1000
0002
0000
0203
0000
0320
0030
,
1010
0000
1010
0000
0101
0000
0101
0001
,
0000
0000
1000
0000
0100
0000
1000
0000
0000
0000
0001
0000
0000
0000
0100
0010
,
0100
0010
0100
0010
0100
0010
0100
0010
0100
0010
0100
0010
0100
0010
1000
0000
,
0000
0001
0000
0000
0010
0000
0100
0000
0000
0000
1000
0000
0000
0000
0110
0000
,
0000
0001
0000
0110
0000
0100
1000
0001
,
0000
0000
0001
0000
0100
0010
1000
0000
0000
0000
0001
0000
0000
0000
0011
0000
,
0000
1000
0000
0000
0010
0000
1010
0000
0000
0000
0100
0000
0001
0000
0010
0000
,
0000
0001
0000
0000
1000
0000
0200
0000
0000
0000
0320
0000
0000
0030
1001
0000
,
0000
0100
0000
0000
0010
0000
1001
0000
0000
0000
0010
0000
0100
0000
0010
0000
,
0000
0001
2000
0000
3020
0000
0230
0300
,
0101
0000
0101
0000
1010
0000
1010
1000
,
0000
0000
0001
0000
0010
0000
0001
0000
0000
0000
1000
0000
0000
0000
0010
0100
,
0010
0100
0010
0100
0010
0100
0010
0100
0010
0100
0010
0100
0010
0100
0001
0010
,
0001
0000
1000
0100
1000
0000
0001
0100
0001
0000
1000
0100
1000
0000
0001
0010
,
0001
0000
1000
0010
1000
0000
0001
0010
0001
0000
1000
0001
1000
0000
0001
1000
,
0100
0000
1000
0001
0100
0000
0001
1000
0010
0000
1000
0001
0010
0000
0100
1000
,
0010
0000
0100
0001
0010
0000
0100
1000
0010
0100
0001
0010
0100
1000
2002
0000
,
0000
0000
0000
0000
0000
0000
0000
3003
;

//---------------dance-single - ----------------
#NOTES:
     dance-single:
     :
     Medium:
     11:
     0.491207,0.548310,0.480292,0.360219,0.098241,315.000000,271.000000,44.000000,33.000000,0.000000,0.000000,0.491207,0.548310,0.480292,0.360219,0.098241,315.000000,271.000000,44.000000,33.000000,0.000000,0.000000:
// measure 0
0000
0000
0000
0000
,  // measure 1
0000
0000
0000
0000
,  // measure 2
0000
0000
0000
0000
,  // measure 3
0000
0000
0000
0000
0000
0000
0000
0002
,  // measure 4
0000
2003
0000
3200
0000
0000
0300
0020
,  // measure 5
0000
0032
0000
0203
0000
0000
0300
0020
,  // measure 6
0000
0000
2030
0000
0000
0000
3002
0000
0000
0000
0023
0000
0000
0030
0001
0000
,  // measure 7
0000
0001
0000
0000
0000
1000
0000
0000
0000
0100
0000
0000
0000
0010
0000
0000
0000
0001
0000
0000
0000
1001
0000
0000
,  // measure 8
0000
0001
0100
0000
0010
0000
1000
0100
,  // measure 9
1000
0010
1000
0200
0000
0300
0010
0001
,  // measure 10
0000
0100
0001
0000
0100
0000
0010
0100
,  // measure 11
1000
0100
0001
0200
0000
0310
1000
0100
,  // measure 12
1000
0001
0020
0000
0032
0000
2003
0000
,  // measure 13
3001
1000
0001
2000
3000
0010
0000
0100
,  // measure 14
0000
0010
0100
0001
1000
0010
0100
0002
,  // measure 15
0000
1003
0000
0100
1000
0100
0010
1001
,  // measure 16
0000
0001
1000
0000
0110
0000
1010
0000
,  // measure 17
0101
0000
0011
0011
0000
0020
0000
0032
,  // measure 18
0000
1003
0100
0000
0110
0000
1001
0000
,  // measure 19
1000
0100
0010
0001
0010
0100
1000
1001
,  // measure 20
0000
0001
1001
0000
1001
0000
0011
0000
,  // measure 21
0101
0000
1010
1010
0000
0002
0000
2003
,  // measure 22
0000
3001
1001
0000
0101
0000
1000
1000
,  // measure 23
0100
0010
0001
0010
0100
1000
0001
0101
,  // measure 24
0000
0101
0000
1010
1000
0001
0000
1100
,  // measure 25
0000
1100
0000
0011
0001
1000
0000
0001
,  // measure 26
0010
0100
1000
0001
0010
0100
1000
0001
,  // measure 27
0000
0001
0000
0000
0000
0100
0000
0000
0000
0010
0000
0000
0000
1000
0000
0000
0000
1000
0000
0000
0000
1001
0000
0000
,  // measure 28
0000
1000
0000
0000
0100
0000
0010
0000
0000
0000
0001
0000
0000
0000
0110
0000
,  // measure 29
0000
1000
0000
0110
0000
0010
0001
1000
,  // measure 30
0000
0000
1000
0000
0000
1000
0001
0000
0000
0000
1000
0000
0000
0000
1001
0000
,  // measure 31
0000
0001
1000
0000
0000
1000
0001
0000
0000
0000
0010
0000
0001
0000
0100
0000
,  // measure 32
0000
0010
0000
0000
1000
0000
0020
0000
0000
0000
0230
0000
0000
0300
1001
0000
,  // measure 33
0000
0010
0000
1001
0000
0100
0010
0100
,  // measure 34
0000
1000
0002
0000
0203
0000
0320
0030
,  // measure 35
1010
0000
1010
0000
0101
0000
0101
0001
,  // measure 36
0000
1000
0100
1000
0000
0001
0000
0100
,  // measure 37
0100
0010
0100
0001
0100
1000
0100
0001
,  // measure 38
0000
1000
0000
0000
0100
0000
0010
0000
0000
0000
0001
0000
0000
0000
0110
0000
,  // measure 39
0000
1000
0000
0110
0000
0010
0001
1000
,  // measure 40
0000
0000
1000
0000
0000
1000
0001
0000
0000
0000
1000
0000
0000
0000
1001
0000
,  // measure 41
0000
0001
1000
0000
0000
1000
0001
0000
0000
0000
0010
0000
0001
0000
0100
0000
,  // measure 42
0000
0010
0000
0000
1000
0000
0020
0000
0000
0000
0230
0000
0000
0300
1001
0000
,  // measure 43
0000
0010
0000
1001
0000
0100
0010
0100
,  // measure 44
0000
1000
0002
0000
0203
0000
0320
0030
,  // measure 45
1010
0000
1010
0000
0101
0000
0101
0001
,  // measure 46
0000
1000
0100
1000
0000
0001
0000
0100
,  // measure 47
0100
0010
0100
0001
0100
1000
0100
0001
,  // measure 48
0001
0100
0100
0010
0010
0100
0100
1000
,  // measure 49
1000
0100
0100
0010
0010
0100
0100
0001
,  // measure 50
0001
1000
0100
0010
0001
1000
0010
0100
,  // measure 51
0001
1000
0100
0010
0001
0001
1000
2002
,  // measure 52
0000
0000
0000
0000
0000
0000
0000
3003
;

//---------------dance-single - ----------------
#NOTES:
     dance-single:
     :
     Easy:
     6:
     0.383610,0.519452,0.502123,0.392966,0.065494,246.000000,200.000000,46.000000,36.000000,0.000000,0.000000,0.383610,0.519452,0.502123,0.392966,0.065494,246.000000,200.000000,46.000000,36.000000,0.000000,0.000000:
0000
0000
0000
0000
,
0000
0000
0000
0000
,
0000
0000
0000
0000
,
0000
0000
0000
0000
0000
0000
0000
2000
,
0000
3002
0000
0023
0000
0000
0030
0200
,
0000
2300
0000
3020
0000
0000
0030
0200
,
0000
0000
0302
0000
0000
0000
2003
0000
0000
0000
3200
0000
0000
0300
1000
0000
,
0000
1000
0000
0000
0000
0001
0000
0000
0000
0010
0000
0000
0000
0100
0000
0000
0000
1000
0000
0000
0000
1001
0000
0000
,
0000
0001
0000
1000
0000
0010
0000
0100
,
0000
0010
0100
0010
0000
0000
0000
0100
,
0000
0001
0000
0010
0000
0100
0000
1000
,
0000
0001
1000
0001
0000
0000
0000
1000
,
0000
0010
0000
0100
0000
0001
0000
0010
,
0000
0100
0010
0100
0000
0000
0000
1000
,
0000
0100
0000
1000
0000
0010
0000
0100
,
0000
0001
0000
0010
0000
0001
0000
1000
,
0000
0001
1000
0000
0001
0000
1000
0000
,
0001
0000
0100
0001
0000
0000
0000
1000
,
0000
0010
1000
0000
0010
0000
0010
0000
,
0100
0000
0001
0000
1000
0000
0001
1001
,
0000
1000
0001
0000
1001
0000
0110
0000
,
1001
0000
0001
0001
0000
2000
0000
3002
,
0000
1003
1000
0000
1001
0000
0001
0000
,
1000
0000
0001
0000
0100
0000
0010
0200
,
0000
0320
0000
2030
0000
3000
0000
0002
,
0000
0023
0000
0230
0000
0300
0000
2000
,
0000
3200
0000
0320
0000
0032
0000
1003
,
0000
1000
0000
0000
0000
0010
0000
0000
0000
0100
0000
0000
0000
0001
0000
0000
0000
0001
0000
0000
0000
1001
0000
0000
,
0000
0001
0000
0000
0010
0000
0100
0000
0000
0000
1000
0000
0000
0000
0110
0000
,
0000
0001
0000
0110
0000
1000
0000
0001
,
0000
0001
0000
1000
0000
0001
0000
1001
,
0000
1000
0000
0110
0000
0110
0000
0010
,
0000
0100
0000
0000
0001
0000
0200
0000
0000
0000
0320
0000
0000
0030
1001
0000
,
0000
0100
0000
1001
0000
0000
0010
0010
,
0000
1000
2000
0000
3020
0000
0230
0300
,
0101
0000
0101
0000
1010
0000
1010
1000
,
0000
0000
0001
0001
0000
1000
0000
0010
,
0100
0020
0000
0000
0000
0000
0000
0031
,
0000
0001
0000
0000
0010
0000
0100
0000
0000
0000
1000
0000
0000
0000
0110
0000
,
0000
0001
0000
0110
0000
1000
0000
0001
,
0000
0001
0000
1000
0000
0001
0000
1001
,
0000
0001
0000
0110
0000
0110
0000
0010
,
0000
0100
0000
0000
0001
0000
0200
0000
0000
0000
0320
0000
0000
0030
1001
0000
,
0000
0100
0000
1001
0000
0000
0001
0001
,
0000
1000
2000
0000
3020
0000
0230
0300
,
0101
0000
0101
0000
1010
0000
1010
1000
,
0000
0000
0001
0001
0000
1000
0000
0010
,
0010
0200
0000
0000
0000
0000
0300
1001
,
0000
1010
0000
1100
0000
0011
0000
0101
,
0000
0110
0000
1100
0000
1010
0000
0011
,
0000
0101
0000
0110
0000
1001
0000
0110
,
0000
1001
0000
0110
0000
1001
0000
2002
,
0000
0000
0000
0000
0000
0000
0000
3003
;
