#TITLE:Inocencia;
#SUBTITLE:Digimon Frontier Ending 1 Latino;
#ARTIST:Cesar Franco;
#TITLETRANSLIT:;
#SUBTITLETRANSLIT:;
#ARTISTTRANSLIT:;
#GENRE:;
#CREDIT:;
#BANNER:IBN.jpg;
#BACKGROUND:IBG.jpg;
#LYRICSPATH:;
#CDTITLE:cdtitleitachi.png;
#MUSIC:Digimon 4 Ending Latino.ogg;
#OFFSET:0.063000;
#SAMPLESTART:45.060001;
#SAMPLELENGTH:14.000000;
#SELECTABLE:YES;
#BPMS:0.000000=121.000000
;
#STOPS:
;
#BGCHANGES:0.000=Digimon 4 Ending Latino.avi=1.000=0=0=1=====,
169.250=IBG.jpg=1.000=0=0=1=====,
99999=-nosongbg-=1.000=0=0=0 // don't automatically add -songbackground-
;
#KEYSOUNDS:;
#ATTACKS:;

//---------------dance-single - ----------------
#NOTES:
     dance-single:
     :
     Medium:
     4:
     0.129258,0.225394,0.023501,0.293769,0.000000,77.000000,75.000000,2.000000,25.000000,0.000000,0.000000,0.129258,0.225394,0.023501,0.293769,0.000000,77.000000,75.000000,2.000000,25.000000,0.000000,0.000000:
0000
0000
0000
2000
,
0000
0000
0000
3000
0000
0000
0020
0000
,
0000
0030
0000
0200
,
0000
0000
0300
0200
,
0000
0000
0300
0100
,
0000
0100
0000
0000
0000
0000
0000
0000
,
0100
0100
0100
0001
,
0000
0001
0000
0000
0001
0000
0000
0000
,
1000
0000
1000
2000
,
0000
0000
0000
0000
,
0000
3000
0000
0000
0000
0000
0010
0000
,
0000
0010
0000
0010
,
0000
0010
0000
0000
,
0100
0000
0000
0000
0100
0200
0000
0000
,
0300
0000
0000
0000
,
0010
0000
0010
0010
,
0000
0020
0030
2002
,
0000
0000
0000
0000
,
0000
3003
0000
0000
0000
0000
0220
0000
,
0000
0000
0000
0330
,
0000
0000
1000
1000
,
1000
0001
1000
0010
,
0000
0020
0000
0030
0000
0000
0200
0000
,
0000
0000
0000
0300
0000
0000
0002
0000
,
0000
0000
0000
0003
0000
0000
0200
0000
,
0000
0000
0000
0300
0000
0000
0020
0000
,
0000
0030
0000
2000
,
0000
0000
3000
0020
,
0030
0200
0300
0020
,
0000
0000
0000
0030
,
0000
1000
1000
2000
,
0000
0000
0000
3000
0000
0000
0020
0000
,
0000
0030
0000
0100
,
0000
0100
0000
0000
0100
0000
0200
0000
,
0000
0300
0000
0000
0000
0000
0002
0000
,
0000
0000
0000
0003
0000
0000
1000
0000
,
0000
0001
0000
0000
0100
0000
0100
0000
,
0010
0100
0001
0001
,
1000
1000
1000
0001
,
0000
0100
0000
0000
0010
0000
0010
0000
,
0100
0010
0100
0001
,
0001
1000
1000
2000
,
0000
0000
0000
0000
0000
3000
0000
0000
;

//---------------dance-single - ----------------
#NOTES:
     dance-single:
     :
     Hard:
     8:
     0.310555,0.374555,0.188012,0.728546,0.023501,185.000000,169.000000,16.000000,62.000000,0.000000,0.000000,0.310555,0.374555,0.188012,0.728546,0.023501,185.000000,169.000000,16.000000,62.000000,0.000000,0.000000:
0000
0000
0000
2002
,
0000
0000
3003
0220
,
0000
0000
0330
2002
,
0000
0000
3003
1001
,
1001
0000
0110
0000
0001
0000
2000
3200
,
2300
3020
0000
0030
0100
0002
0003
0000
,
1001
0000
1100
0000
0110
0000
0002
0023
,
0230
2300
3000
0020
0230
0302
0003
0000
,
2000
0000
3000
0200
0320
0032
2003
0000
,
0000
0000
3000
0020
,
0000
0000
0030
0100
,
0001
1000
0001
1000
0100
0000
2000
0000
,
3000
0020
0030
0100
,
0001
0100
0001
0100
0010
0200
0000
0000
,
0300
0001
0000
1000
0100
0000
1000
0000
,
0100
0000
0000
1000
0000
0000
0010
0000
0100
0000
0010
0000
0200
0000
0000
0000
,
0000
0300
0002
0000
0003
0000
2002
0000
,
0000
0000
0000
3003
0000
2200
0000
0000
,
0000
3300
0100
0220
,
0000
0000
0330
0000
0000
2002
0000
0000
,
0000
0000
3003
0000
1000
0000
0010
0100
,
0001
0100
0001
0100
0010
0100
0010
0010
,
1000
1000
0000
2002
3003
0000
1000
0100
,
1000
0000
0010
0100
0001
0000
1000
0000
,
0001
0000
0100
0010
0100
0001
1000
0100
,
1000
0010
0000
0100
0001
0100
0001
0000
,
1000
0000
0000
0000
0100
0000
0000
0010
0000
0000
0001
0000
0002
0000
0000
0000
,
0000
0000
0003
0000
0000
0010
0100
0000
,
0001
0100
0000
0001
1000
0100
1000
0000
,
1001
0000
0010
0100
0001
0000
1001
0000
,
0100
0000
0000
0000
1000
0000
0000
0010
0000
0000
0100
0000
0002
0000
0000
0000
,
0000
0003
0000
0010
0100
0010
0200
0000
,
0000
0000
0000
0300
0000
0001
0010
0000
,
0100
1000
0000
0100
0010
0001
0020
0000
,
0030
0000
0000
0000
0100
0000
0000
1000
0000
0000
0010
0000
0020
0000
0000
0000
,
0000
0000
0030
0000
0000
0100
0100
0000
,
0001
0100
0000
0001
1000
0001
2000
3200
,
0320
0032
0000
0003
0020
0230
0000
0300
,
2000
0000
3200
0000
0320
0000
0032
0023
,
0230
2300
3000
0020
0230
0302
0000
0003
,
2000
0000
3000
0010
0100
0001
0100
0010
,
0100
0010
1000
0010
1000
0001
0200
0000
,
0000
0000
0300
0000
;

//---------------dance-single - ----------------
#NOTES:
     dance-single:
     :
     Challenge:
     13:
     0.530462,0.621504,0.458279,0.564036,0.282018,316.000000,277.000000,39.000000,48.000000,0.000000,1.000000,0.530462,0.621504,0.458279,0.564036,0.282018,316.000000,277.000000,39.000000,48.000000,0.000000,1.000000:
// measure 0
0000
0000
0000
1000
,  // measure 1
0010
0000
0000
0000
0000
0000
0000
0000
0000
0110
0000
0000
0000
0000
0000
0000
0000
0001
0000
0000
0000
0000
0000
0000
1001
0000
0000
0000
0000
0000
0000
0000
,  // measure 2
0010
0110
0001
1001
,  // measure 3
0001
2000
0000
0000
0000
3000
1001
0100
,  // measure 4
1010
0000
0100
0000
0001
0010
0001
0100
0010
1000
0100
0000
2000
0000
3200
0000
,  // measure 5
0020
0300
0002
0000
0030
0000
0000
0000
1003
0000
0020
0000
0000
0000
0030
0000
,  // measure 6
1100
0000
0110
0000
0011
0000
0002
0023
,  // measure 7
0230
0000
2300
0000
3000
0000
0010
0000
0100
0000
0002
0000
0000
0003
0000
0000
,  // measure 8
2002
0000
3000
0003
0000
0000
0100
0000
0010
0000
0001
0000
2000
0000
0000
0000
,  // measure 9
3010
0100
0000
0100
0000
0000
0001
0000
0100
0000
0001
0000
1000
0000
0000
0000
,  // measure 10
0100
0000
2000
0000
0000
3000
0010
0000
0100
0000
0000
0000
0002
0000
0000
0000
,  // measure 11
1003
0100
1000
0010
0100
0001
0100
0000
,  // measure 12
0000
0000
0001
0100
0020
0000
0000
0000
0030
0000
0000
0000
1000
0000
0000
0000
,  // measure 13
0100
1000
0010
0100
0001
2000
0000
3000
,  // measure 14
0000
1001
0000
0010
0100
0000
0001
0000
,  // measure 15
1000
0000
0100
1000
0000
0000
0001
0000
0100
0000
0001
0000
0200
0000
0000
0000
,  // measure 16
0300
0000
0001
0100
0002
0000
0000
0000
0000
0003
0000
0000
2002
0000
0000
0000
,  // measure 17
0003
3100
0100
0010
0000
0202
0000
0000
,  // measure 18
0303
0000
0001
0000
0000
0000
1000
0000
0100
0000
1000
0100
0020
0000
0000
0000
,  // measure 19
0030
1001
0200
0301
0000
0202
0000
0000
,  // measure 20
0000
0000
0000
0000
0303
0000
0000
0000
0001
0000
1000
0100
0000
0000
0010
0000
,  // measure 21
0001
1000
0100
0010
0001
1000
0110
1010
,  // measure 22
0101
0000
1010
0000
0000
0000
1001
0000
1000
0001
1000
0000
0010
0000
0100
0000
,  // measure 23
0010
0100
0000
0100
0000
0001
1000
0000
1001
0000
0100
0010
0001
0000
1001
0000
,  // measure 24
0010
0000
0100
0001
0100
0001
0100
0000
0001
0000
1000
0000
0100
0000
1000
0000
,  // measure 25
0110
0000
2002
0003
3000
0000
1000
0000
0010
0000
0100
0002
0000
0003
0000
0000
,  // measure 26
0001
0000
0010
0100
1000
0100
0010
0000
0001
0000
1000
0100
1000
0000
0010
0000
,  // measure 27
1000
0000
0001
0100
0000
0001
0100
0000
0001
0000
0100
0000
0010
0000
0000
0000
,  // measure 28
0010
0100
0000
1000
0101
0010
2000
3000
,  // measure 29
1010
0000
0010
1000
0000
1000
0001
0000
0101
0000
0100
0000
0010
0000
0100
0000
,  // measure 30
0101
0000
0001
0010
0000
0100
1000
0010
0100
0001
1000
0000
0001
0000
0010
0000
,  // measure 31
0101
0000
0001
0100
0000
0100
0001
0000
1000
0000
0100
0000
2200
0000
0000
0000
,  // measure 32
0000
0000
0000
0000
0000
0000
3300
0000
0000
0000
1000
0010
1000
0000
0001
0000
,  // measure 33
0101
0000
0001
0100
0000
0100
0010
0000
0100
0000
0001
0000
1001
0000
0010
0000
,  // measure 34
1000
0000
0010
1000
0000
1000
0010
0000
1000
0000
0001
0000
2002
0000
0000
0000
,  // measure 35
0000
0000
3003
0000
1000
0010
0100
0000
0001
0000
0100
0000
0001
0000
0100
0000
,  // measure 36
1001
0000
0001
1000
0001
1000
0001
1000
0010
0001
0010
1000
0002
0000
0023
0000
,  // measure 37
0200
2030
0300
0000
3001
0020
0000
0030
,  // measure 38
1010
0000
1100
0000
0110
0000
0020
2030
,  // measure 39
3002
2003
3020
0230
0301
1000
0100
0001
,  // measure 40
0100
0001
0100
1000
0100
0100
1001
1001
,  // measure 41
0100
0000
0100
0000
0001
1000
0100
0010
0001
1000
0100
0010
0002
0000
0000
0000
,  // measure 42
0000
0000
0000
0000
0000
0003
0000
0000
0000
0000
0000
0000
0000
0000
0000
0000
;

//---------------dance-single - ----------------
#NOTES:
     dance-single:
     :
     Easy:
     2:
     0.122543,0.222089,0.000000,0.246766,0.000000,73.000000,73.000000,0.000000,21.000000,0.000000,0.000000,0.122543,0.222089,0.000000,0.246766,0.000000,73.000000,73.000000,0.000000,21.000000,0.000000,0.000000:
0000
0000
0000
0000
,
0000
0000
0000
0000
,
0000
0000
0000
0000
,
0000
0000
0000
0000
,
0000
0000
0000
1000
,
0000
1000
0000
0000
1000
2000
0000
0000
,
0000
3000
0000
0000
0000
0000
0010
0000
,
0000
0010
0000
0000
0010
0000
0020
0000
,
0000
0030
0000
0010
0010
0020
0000
0000
,
0000
0000
0000
0030
0000
0000
0100
0000
,
0000
0000
0000
0000
,
0010
0010
0010
0010
,
0000
0010
0000
0000
,
0000
0000
0100
0000
0000
0200
0000
0000
,
0000
0300
0000
0000
0000
0000
0000
0000
,
0010
0010
0010
0010
,
0000
0020
0030
2000
,
0000
0000
0000
0000
,
0000
3000
0000
0000
0000
0000
0020
0000
,
0000
0000
0000
0000
0000
0000
0000
0030
,
0000
0000
0000
1000
,
1000
0100
0100
0010
,
0010
0001
0001
2000
,
0000
0000
0000
3000
0000
0000
0020
0000
,
0000
0000
0000
0030
0000
0000
0100
0000
,
0000
0010
0000
0000
0010
0000
0020
0000
,
0030
0010
0010
0020
,
0000
0030
0000
1000
,
0000
1000
0000
0000
1000
0000
2000
0000
,
0000
0000
0000
0000
0000
3000
0000
0000
,
0000
0001
0000
0002
,
0000
0003
0001
0002
,
0000
0003
0000
0100
,
0000
0100
0000
0000
0100
0000
0200
0000
,
0300
0010
0010
0020
,
0000
0000
0000
0030
0000
0000
1000
0000
,
0000
0010
0000
0000
0010
0000
0200
0000
,
0000
0000
0300
0000
0000
0020
0000
0000
,
0000
0030
0000
1000
,
0000
0200
0000
0300
0010
0000
0002
0000
,
0000
0003
0000
0000
1000
0000
0010
0000
,
0100
0001
1000
0002
,
0003
0000
0000
0000
;
