#TITLE:Infinity;
#SUBTITLE:Lost Universe Opening;
#ARTIST:Bilingual E3;
#TITLETRANSLIT:;
#SUBTITLETRANSLIT:;
#ARTISTTRANSLIT:;
#GENRE:;
#CREDIT:Magna Trick;
#BANNER:INBN.jpg;
#BACKGROUND:INBG.jpg;
#LYRICSPATH:;
#CDTITLE:Magna Trick title!.png;
#MUSIC:Infinity.mp3;
#OFFSET:-0.272717;
#SAMPLESTART:59.680000;
#SAMPLELENGTH:14.000000;
#SELECTABLE:YES;
#BPMS:0.000000=145.220001
,451.500000=72.620003
,466.000000=145.220001
;
#STOPS:
;
#BGCHANGES:0.000=Infinity.avi=1.000=0=0=0=StretchNoLoop====,
615.000=INBG.jpg=1.000=0=0=1=====,
99999=-nosongbg-=1.000=0=0=0 // don't automatically add -songbackground-
;
#KEYSOUNDS:;
#ATTACKS:;

//---------------dance-single - ----------------
#NOTES:
     dance-single:
     :
     Challenge:
     16:
     0.771924,0.863209,0.269052,0.478315,0.777262,1446.000000,1374.000000,72.000000,128.000000,0.000000,0.000000,0.771924,0.863209,0.269052,0.478315,0.777262,1446.000000,1374.000000,72.000000,128.000000,0.000000,0.000000:
// measure 0
0010
0000
0100
1000
0000
0010
1000
0000
0001
1000
0000
0100
0010
0000
0001
0000
,  // measure 1
1000
0000
0001
0100
0000
0001
0010
0000
0001
1000
0000
0010
0100
0000
0001
0000
,  // measure 2
1000
0000
0100
0010
0000
0100
0001
0000
0100
1000
0000
0001
1000
0000
0010
0000
,  // measure 3
0100
0000
0010
1000
0000
0010
0001
0000
0010
0010
0100
0100
0001
0001
1000
1000
,  // measure 4
2000
3002
0023
0230
,  // measure 5
1300
0000
0000
1000
0000
0000
0001
0000
0000
0000
0100
0000
0010
0000
0010
0000
,  // measure 6
0200
0302
2003
3020
,  // measure 7
1030
0000
0000
1000
0000
0000
0100
0000
0010
0001
0010
0100
1000
0001
1000
0100
,  // measure 8
0020
0032
2003
3200
,  // measure 9
0310
0000
0000
0010
0000
0000
0010
0000
0000
0000
0100
0000
0100
1000
0000
0000
,  // measure 10
0002
0023
0230
2300
,  // measure 11
3001
0000
0100
0010
1000
0000
0001
0000
0100
0010
1000
0001
0001
0100
0010
1000
,  // measure 12
0001
0000
0000
0000
1000
0100
1000
0000
0100
0000
0010
0100
0010
0000
0001
0000
,  // measure 13
1001
0000
0100
0010
0100
0000
0010
0000
0001
0000
1000
0001
1000
0000
0110
0000
,  // measure 14
1001
0000
0010
1000
0010
1000
0010
0000
1000
0000
0100
1000
0100
0000
0010
0000
,  // measure 15
1002
0000
0000
0203
0000
0000
0320
0000
1030
0000
0100
1000
0100
0000
0110
0000
,  // measure 16
1001
0000
0010
0100
0010
0100
0010
0000
0001
0000
1000
0001
1000
0000
0010
0000
,  // measure 17
1001
0000
0001
0100
0001
0100
0001
0000
0010
0000
0100
1000
0100
0000
1001
0000
,  // measure 18
0120
0000
0000
0000
0230
0000
0000
0000
0302
0000
0000
0000
2003
0000
0000
3000
,  // measure 19
1002
0000
0000
0000
0013
0100
0010
0000
0100
0000
1000
0001
1000
0000
0001
0000
,  // measure 20
0110
0010
0110
0001
1000
0010
1001
0010
,  // measure 21
1000
0000
0100
0010
0001
0000
1000
0000
0010
0000
0101
0000
0101
0000
0010
0000
,  // measure 22
0001
1100
1100
1000
0001
0100
1001
0010
,  // measure 23
0100
0000
1000
0001
0100
0000
0001
0000
1000
0000
1010
0000
1010
0000
0001
0000
,  // measure 24
1000
0100
1001
0010
0100
0011
0011
0100
,  // measure 25
1000
0000
0010
1000
0001
0000
1000
0000
0010
0000
1100
0000
1100
0000
0001
1000
,  // measure 26
0010
0100
1001
0010
1000
0001
0110
0001
,  // measure 27
1000
0000
1000
0010
0000
0100
0010
0000
0100
0001
1000
0100
0100
0010
0010
0001
,  // measure 28
0001
0000
0010
0001
0100
0000
0010
0000
1000
0000
0001
0000
0001
0000
1000
0000
,  // measure 29
1000
0100
0010
0001
0001
1000
0010
0100
,  // measure 30
0001
0100
0001
0100
0010
0100
0010
1000
0010
1000
0010
1000
0100
0010
0100
0010
,  // measure 31
0001
0000
0001
0000
1002
0000
0000
0000
1003
0000
1000
0000
0010
0000
0010
0100
,  // measure 32
0001
0000
1000
0000
1000
0000
0000
0000
0001
0000
0010
0000
0100
0000
1000
0001
,  // measure 33
0100
0000
0100
0000
0010
0000
0000
0000
1000
0000
0100
0000
0010
0000
0001
1000
,  // measure 34
0200
0000
0010
0000
1300
1000
0001
1000
,  // measure 35
0100
0000
0000
0010
0000
0000
0100
0000
0000
0010
0000
0000
0001
0000
0000
0000
0000
0000
1000
0000
0000
0100
0000
0000
1000
0000
0000
0100
0000
0000
0010
0000
0000
0000
0000
0000
0001
0000
0000
0010
0000
0000
0001
0000
0010
0000
0100
0000
,  // measure 36
1000
0000
1000
0000
0001
0000
0100
0000
0001
1000
0000
1000
0000
0100
1000
0001
,  // measure 37
0010
0000
0100
0010
0000
0001
1000
0100
0020
0000
0030
0000
0001
0000
0001
0000
,  // measure 38
1000
0000
0000
0010
0000
0000
1000
0000
0100
0000
0100
0000
0010
0000
0001
0010
,  // measure 39
0001
0000
0000
0000
0000
0000
1000
0000
0000
0000
0000
0000
0100
0000
0000
0000
0000
0000
0010
0000
0001
0000
1000
0000
0100
0000
0000
0000
0000
0000
0100
0000
0000
0000
0000
0000
1000
0000
0000
0000
0000
0000
0100
0000
0000
0010
0000
0000
,  // measure 40
0001
0000
0100
0000
0100
0000
0010
0000
1000
0100
0000
0010
0000
0001
0100
0010
,  // measure 41
1000
0000
0001
0100
0000
0010
1000
0100
0002
0000
0000
0000
0003
0000
0100
1000
,  // measure 42
0002
0000
2003
0000
3200
0010
0320
0000
,  // measure 43
0032
0000
0000
0000
0000
0000
0000
0000
0000
0000
0000
0000
0010
0000
0000
0000
0000
0000
0010
0000
0000
0000
0000
0000
0103
0000
0000
0010
0000
0000
0001
0000
0010
0000
0100
0000
1000
0000
0010
0000
0100
0000
0001
0000
0010
0000
0100
0000
,  // measure 44
1000
0000
0100
0000
1000
0000
0100
0000
0010
0010
0000
0001
0000
0100
0010
1000
,  // measure 45
0100
0000
0010
0001
0000
0010
0100
1000
0001
0000
0100
0000
0010
0000
1000
0100
,  // measure 46
0010
0000
0000
0001
0000
0000
1000
0000
1000
0000
0001
0000
1000
0000
0001
1000
,  // measure 47
0100
0000
0000
0000
0000
0000
0010
0000
0000
0001
0000
0000
0010
0000
0000
0000
0000
0000
0100
0000
1000
0000
0001
0000
0010
0000
0000
0000
0000
0000
0100
0000
0000
0000
0000
0000
1000
0000
0000
0000
0000
0000
0001
0000
0000
0001
0000
0000
,  // measure 48
0010
0000
0100
0000
0010
0000
0001
0000
0001
1000
0000
0010
0000
1000
0010
1000
,  // measure 49
0100
0000
0000
0000
0000
0000
1000
0000
0000
0001
0000
0000
0000
0000
0000
0100
0000
0000
1000
0000
0100
0000
0001
0000
0020
0000
0000
0000
0000
0000
0000
0000
0000
0000
0000
0000
0030
0000
0000
0000
0000
0000
0100
0000
0000
0100
0000
0000
,  // measure 50
0100
0010
0001
0001
1000
1000
0100
0100
,  // measure 51
0020
0000
0000
0000
0000
0000
0001
0000
0000
0130
0000
0000
0200
0000
0000
0000
0000
0000
0010
0000
0000
0310
1000
0100
,  // measure 52
2000
0000
0000
0000
0000
0000
0000
0000
0000
0000
0000
0000
0100
0000
0000
0000
0000
0000
0000
0000
0000
0000
0000
0000
3001
0000
0000
0100
0000
0000
0001
0000
0010
0000
0100
0000
1000
0000
0010
0000
0100
0000
0001
0000
0010
0000
0100
0000
,  // measure 53
2000
3002
0023
0230
,  // measure 54
1300
0000
0000
1000
0000
0000
1000
0000
0000
0100
0010
0000
0001
0000
0001
0000
,  // measure 55
0200
0320
2030
3002
,  // measure 56
1003
0000
0000
0001
1000
0000
0100
0000
0010
0010
0001
0001
0100
0100
0010
0010
,  // measure 57
2000
3002
0023
0230
,  // measure 58
1300
0000
0000
1000
0000
0000
1000
0000
0000
0100
0010
0001
0010
0100
0000
0000
,  // measure 59
2000
3002
0203
0320
,  // measure 60
1030
0000
0000
0000
0000
0000
0100
0000
0010
0000
0001
0000
1000
0000
0000
0000
0000
0000
1000
0000
0000
0000
0000
0000
0100
0000
0000
0010
0000
0000
0100
0000
0000
0010
0000
0000
0001
0000
0000
1000
0000
0000
0001
0000
0000
1000
0000
0000
,  // measure 61
0100
0000
0000
0000
0010
0001
0010
0000
0001
0000
0100
0010
0100
0000
0010
0000
,  // measure 62
1001
0000
0010
0100
0010
0000
0100
0000
0001
0000
1000
0001
1000
0000
0110
0000
,  // measure 63
1001
0000
0100
0001
0100
0001
0100
0000
0010
0000
1000
0100
1000
0000
0100
0000
,  // measure 64
2001
0000
0000
3020
0000
0000
0230
0000
0301
0000
0010
0001
0010
0000
0110
0000
,  // measure 65
1001
0000
0100
0010
0100
0010
0100
0000
0010
0000
0001
1000
0001
0000
0100
0000
,  // measure 66
1001
0000
1000
0010
1000
0010
1000
0000
0100
0000
0010
0001
0010
0000
1001
0000
,  // measure 67
0210
0000
0000
0000
0000
0000
0320
0000
0000
0000
0000
0000
2030
0000
0000
0000
0000
0000
3002
0000
0000
0000
0000
0003
,  // measure 68
2001
0000
0000
0000
3100
0010
0100
0000
0010
0000
0001
1000
0001
0000
1001
0000
,  // measure 69
0110
0100
0110
1000
0001
0100
1001
0100
,  // measure 70
0001
0000
0010
0100
1000
0000
0001
0000
0100
0000
1010
0000
1010
0000
0100
0000
,  // measure 71
1000
0011
0011
0001
1000
0010
1001
0100
,  // measure 72
0010
0000
0001
1000
0010
0000
1000
0000
0001
0100
0001
0010
0001
0000
1000
0000
,  // measure 73
0001
0010
1001
0100
0010
1100
1100
0010
,  // measure 74
0001
0000
0100
0001
1000
0000
0001
0000
0100
0000
0011
0000
0011
0000
1000
0001
,  // measure 75
0100
0010
1001
0100
0001
1000
0110
1000
,  // measure 76
0001
0000
0001
0100
0000
0010
0100
0000
0010
1000
0100
0100
0010
0010
0001
0001
,  // measure 77
0100
0000
0100
0010
1000
0000
0100
0000
0010
0000
0001
0000
1000
0000
1000
0000
,  // measure 78
0001
0010
0100
0100
1000
0001
0100
0010
,  // measure 79
1000
0010
1000
0010
0100
0010
0100
0001
0100
0001
0100
0001
0010
0100
0010
0100
,  // measure 80
1000
0000
1000
0000
2001
0000
0000
0000
3001
0000
0001
0000
0100
0000
0100
0010
,  // measure 81
1000
0000
0001
0000
0001
0000
0000
0000
1000
0000
0100
0000
0010
0000
0001
1000
,  // measure 82
0010
0000
0010
0000
0100
0000
0000
0000
0001
0000
0010
0000
0100
0000
1000
0001
,  // measure 83
0020
0000
0100
0000
0031
0001
1000
0001
,  // measure 84
0010
0000
0000
0100
0000
0000
0010
0000
0000
0100
0000
0000
1000
0000
0000
0000
0000
0000
0001
0000
0000
0010
0000
0000
0001
0000
0000
0010
0000
0000
0100
0000
0000
0000
0000
0000
1000
0000
0000
0100
0000
0000
1000
0000
0100
0000
0010
0000
,  // measure 85
0001
0000
0001
0000
1000
0000
0010
0000
1000
0001
0000
0001
0000
0010
0001
1000
,  // measure 86
0100
0000
0010
0100
0000
1000
0001
0001
0200
0000
0300
0000
0001
0000
1000
0000
,  // measure 87
0010
0000
0000
0100
0000
0000
0001
0000
0010
0000
0010
0000
0100
0000
1000
0100
,  // measure 88
1000
0000
0000
0000
0000
0000
0001
0000
0000
0000
0000
0000
0010
0000
0000
0000
0000
0000
0100
0000
1000
0000
0001
0000
0010
0000
0000
0000
0000
0000
0100
0000
0000
0000
0000
0000
1000
0000
0000
0000
0000
0000
0010
0000
0000
0100
0000
0000
,  // measure 89
0001
0000
0010
0000
0010
0000
0100
0000
1000
0010
0000
0100
0000
0100
0010
0100
,  // measure 90
0001
0000
1000
0010
0000
0100
0001
0001
2000
0000
0000
0000
3000
0000
1000
0001
,  // measure 91
2000
0000
3002
0000
0023
0100
0230
0000
,  // measure 92
2300
0000
0000
0000
0000
0000
0000
0000
0000
0000
0000
0000
0100
0000
0000
0000
0000
0000
3100
0000
0000
0010
0000
0000
0001
0000
0000
0000
0000
0000
0001
0000
0100
0000
0010
0000
1000
0000
0100
0000
0010
0000
0001
0000
0100
0000
0010
0000
,  // measure 93
1000
0000
1000
0000
0001
0000
0010
0000
0100
0100
0000
1000
0000
0010
0100
0001
,  // measure 94
0010
0000
0100
1000
0000
0100
0010
0001
1000
0000
0010
0000
0100
0000
0001
0010
,  // measure 95
0100
0000
0000
1000
0000
0000
0001
0000
0001
0000
1000
0000
0001
0000
1000
0001
,  // measure 96
0010
0000
0000
0000
0000
0000
0100
0000
0000
1000
0000
0000
0100
0000
0000
0000
0000
0000
0010
0000
0001
0000
1000
0000
0100
0000
0000
0000
0000
0000
0010
0000
0000
0000
0000
0000
0001
0000
0000
0000
0000
0000
0100
0000
0000
0010
0000
0000
,  // measure 97
1000
0000
0100
0000
1000
0000
0100
0000
1000
0001
0000
0100
0000
0001
0100
0001
,  // measure 98
0010
0000
0001
1000
0000
0010
0001
0010
2000
0000
0000
0000
3000
0000
0010
0010
,  // measure 99
0010
0100
0001
0001
1000
1000
0010
0010
,  // measure 100
0200
0000
0000
0000
0000
0000
0001
0000
0000
0310
0000
0000
0020
0000
0000
0000
0000
0000
0100
0000
0000
0130
1000
0001
,  // measure 101
2000
0000
0000
0000
0000
0000
0000
0000
0000
0000
0000
0000
0100
0000
0000
0000
0000
0000
0000
0000
0000
0000
0000
0000
3001
0000
0000
1000
0000
0000
0100
0000
0010
0000
0001
0000
0100
0000
0010
0000
1000
0000
0100
0000
0010
0000
0001
0000
,  // measure 102
1000
0000
0000
1000
0000
0000
0100
0000
0100
0000
0000
0010
0000
0000
0110
0000
,  // measure 103
1001
0000
0000
0000
0000
0000
0000
0000
0000
0001
0000
0000
0000
0000
0000
0000
0000
0000
0001
0000
0000
0000
0000
0000
0200
0000
0000
0000
0000
0000
0000
0000
0300
0000
0000
0000
0000
0000
0000
0000
0000
0000
0110
0000
0000
0000
0000
0000
,  // measure 104
1001
0000
0100
0001
1000
0000
0100
0000
0010
0000
0001
0000
0010
0000
1001
0000
,  // measure 105
0110
0000
0000
0001
0000
0000
1000
0000
0200
0000
0000
0000
0300
0000
0110
0000
,  // measure 106
1001
0000
0001
0010
0100
1000
0010
0100
0001
0000
0001
0000
1000
0000
0110
0000
,  // measure 107
1001
0000
0200
0000
0000
0000
1300
0100
0010
0000
0001
0000
0001
0000
0100
0000
,  // measure 108
0010
0000
0000
0010
0000
0000
1000
0000
0001
0000
0000
0010
0000
0000
0100
0000
,  // measure 109
2000
0000
0000
0000
3000
0000
0001
0100
0010
0000
1000
0001
0100
0001
0010
0000
,  // measure 110
1001
0000
0000
0001
0010
0100
1000
0000
0000
1010
0000
0000
0001
0000
0000
0101
0000
0000
0010
0000
0000
1010
0000
0000
,  // measure 111
0001
1001
0100
1001
0010
1001
0000
0000
,  // measure 112
0001
0000
0000
0000
0000
0000
0000
0000
0010
0000
0000
0000
0000
0000
0000
0000
0100
0000
0000
0000
0000
0000
0000
0000
1000
0000
0000
0000
0000
0000
0000
0000
0001
0000
0000
0000
0000
0000
0000
0000
0010
0000
0000
0000
0000
0000
0000
0000
0200
0000
0000
0000
0000
0000
0000
0000
0000
0000
0000
0000
0000
0000
0000
0000
0000
0000
0000
0000
0000
0000
0000
0000
0000
0000
0000
0000
0000
0000
0000
0000
0000
0000
0000
0000
0300
0000
0000
0000
0000
0000
0000
0000
0000
0000
0000
0000
0000
0000
0000
0000
0000
0000
0000
0000
0000
0000
0000
0000
0000
0000
0000
0000
0000
0000
0000
0000
0000
0000
0000
0000
0000
0000
0000
0000
0000
0000
0000
0000
0000
0000
0000
0000
0000
0000
0000
0000
0000
0000
0000
0000
0000
0000
0000
0000
0000
0000
0000
0000
0000
0000
0000
0000
0000
0000
0000
0000
0000
0000
0000
0000
0000
0000
0000
0000
0000
0000
0000
0000
0100
0000
0000
0000
0000
0000
1000
0000
0000
0000
0000
0000
0010
0000
0000
0000
0000
0000
0000
0000
0000
0000
0000
0000
,  // measure 113
0100
0000
0001
0000
0010
0000
0100
1000
0000
0001
0000
0100
0010
1000
0100
0000
0010
0001
0000
0100
0100
0000
0020
0000
0000
0000
0000
0000
0130
0000
0010
0000
,  // measure 114
0000
1000
0000
0000
0001
0000
0100
0000
0010
0000
1000
0000
0010
1000
0200
0000
0000
0000
0000
0000
0000
0000
0000
0000
0000
0000
0300
0000
0100
0100
0010
0000
,  // measure 115
0001
0000
0100
0000
0010
0000
1000
0100
0000
0010
0000
0100
1000
0010
0100
0000
0001
0010
0000
0100
1000
0000
1000
0000
0000
0000
0000
0000
1000
0100
0002
0000
,  // measure 116
0000
0000
0000
0203
0000
0000
0000
0000
0000
0320
0000
0000
0000
0000
0000
0032
0000
0000
0000
0000
0000
2003
0000
0000
0000
0000
0000
0000
0000
0000
3001
0000
0000
0000
0000
0000
0010
0000
0100
0000
1000
0000
0001
0000
0000
0000
0000
0000
,  // measure 117
0100
0000
0000
0010
0000
0000
0100
0000
0000
0010
0000
0000
1000
0000
0100
0000
0010
0000
0001
0000
0000
0000
0000
0000
1000
0000
0000
0000
0000
0000
0001
0000
0000
0000
0000
0000
0100
0000
0000
0000
0000
0000
0001
0000
0000
1000
0000
0000
,  // measure 118
0000
1000
0000
0100
1000
0001
0010
0000
0100
0010
0000
0001
1000
1000
0020
0000
,  // measure 119
0030
0000
1000
0000
0001
0000
0100
0000
0000
0010
0000
0000
1000
0000
0100
0000
,  // measure 120
0100
0000
0010
0000
0001
0010
0001
0000
1000
0000
0100
0000
0010
0001
1000
0000
,  // measure 121
0100
0000
1000
0000
0100
0010
0001
0000
0100
0000
0100
0000
0010
0000
1000
0100
,  // measure 122
0000
0010
0000
0001
0100
0010
1000
0000
0001
0100
0000
0010
1000
1000
0002
0000
,  // measure 123
0000
0000
0003
0000
0001
1000
0002
0000
0000
0000
2003
0000
0000
0000
3200
0000
,  // measure 124
0010
0320
0000
0032
0000
0010
0010
0203
,  // measure 125
0000
0000
1000
0000
1300
0001
0020
0000
0000
0000
0130
0000
0010
0001
1000
0100
,  // measure 126
1000
0100
0010
0001
0100
0001
0010
0000
0001
0000
1000
0000
0001
0000
0001
1000
,  // measure 127
0000
1000
0000
0100
1000
0001
0010
0000
0100
0010
0000
0001
1000
1000
0020
0000
,  // measure 128
0030
0000
1000
0000
0001
0000
0100
0000
0000
0010
0000
0000
1000
0000
0100
0000
,  // measure 129
0100
0000
0010
0000
0001
0010
0001
0000
1000
0000
0100
0000
0010
0001
1000
0000
,  // measure 130
0100
0000
1000
0000
0100
0010
0001
0000
0100
0000
0100
0000
0010
0000
1000
0100
,  // measure 131
0000
0010
0000
0001
0100
0010
1000
0000
0001
0100
0000
0010
1000
1000
0002
0000
,  // measure 132
0000
0000
0003
0000
0001
1000
0002
0000
0000
0000
2003
0000
0000
0000
3200
0000
,  // measure 133
0010
0000
0000
0320
0000
0000
0000
0000
0000
0032
0000
0000
0000
0000
0000
0010
0000
0000
0010
0000
0000
0103
1000
0001
,  // measure 134
0010
0000
0100
0000
1000
0000
0010
0000
0100
0000
0001
0000
0010
0000
0100
0000
1000
0000
0010
0000
0000
0000
0000
0000
0100
0000
0000
0000
0000
0000
0010
0000
0000
0000
0000
0000
0001
0000
0000
0000
0000
0000
0010
0000
0000
0100
0000
0000
,  // measure 135
0000
0100
0000
0001
0100
0010
1000
0000
0001
1000
0000
0010
0100
0100
2000
0000
,  // measure 136
3000
0000
0100
0000
0010
0000
0001
0000
0000
1000
0000
0000
0100
0000
0001
0000
,  // measure 137
0001
0000
1000
0000
0010
1000
0010
0000
0100
0000
0001
0000
1000
0010
0100
0000
,  // measure 138
0001
0000
0100
0000
0001
1000
0010
0000
0001
0000
0001
0000
1000
0000
0100
0001
,  // measure 139
0000
1000
0000
0010
0001
1000
0100
0000
0010
0001
0000
1000
0100
0100
0020
0000
,  // measure 140
0000
0000
0030
0000
0010
0100
0020
0000
0000
0000
0230
0000
0000
0000
0302
0000
,  // measure 141
1000
2003
0000
3020
0000
1000
1000
0032
,  // measure 142
0000
0000
0000
0000
0000
0000
0100
0000
0000
0000
0000
0000
0103
0000
0010
0000
1000
0000
0200
0000
0000
0000
0000
0000
0000
0000
0000
0000
0000
0000
0310
0000
0000
0000
0000
0000
0001
0000
0000
0010
0000
0000
0100
0000
1000
0000
0010
0000
,  // measure 143
0100
0001
1000
0100
0010
0001
0100
0001
1000
0002
0000
0000
0000
0000
0000
2003
0000
0000
0000
0000
0000
3200
0000
0000
,  // measure 144
0000
0000
0320
0000
0000
0000
0031
0000
0000
0001
0000
0000
1000
0000
0000
0000
,  // measure 145
0010
0100
0100
0020
0000
2030
0000
3002
,  // measure 146
0000
0000
0203
0000
0000
0000
0301
0000
0000
0001
0000
0000
0010
0000
0100
1000
,  // measure 147
0100
0010
0001
1000
0001
0010
0200
0000
0000
0000
2300
0000
0000
0000
3002
0000
,  // measure 148
0000
0000
0023
0000
0000
0000
0130
0000
0000
0100
0000
0000
0100
0000
0000
0000
,  // measure 149
0010
0000
0010
0001
0000
0000
2000
0000
0000
0000
3200
0000
0000
0000
0320
0000
,  // measure 150
0000
0000
0032
0000
0000
0000
1003
0000
0010
0100
0001
0000
1000
0000
0010
0100
,  // measure 151
0001
1000
1000
0010
0100
0001
0000
0000
0020
0000
0000
0000
0000
0000
0000
0000
,  // measure 152
0000
0000
0000
0000
,  // measure 153
0000
0000
0000
0000
,  // measure 154
0030
0000
0000
0000
;

//---------------dance-single - ----------------
#NOTES:
     dance-single:
     :
     Hard:
     13:
     0.562127,0.863209,0.033632,0.444684,0.418526,1053.000000,1044.000000,9.000000,119.000000,0.000000,0.000000,0.562127,0.863209,0.033632,0.444684,0.418526,1053.000000,1044.000000,9.000000,119.000000,0.000000,0.000000:
0100
0000
0010
0001
0000
0100
0001
0000
1000
0001
0000
0010
0100
0000
1000
0000
,
0001
0000
1000
0010
0000
1000
0100
0000
1000
0001
0000
0100
0010
0000
1000
0000
,
0001
0000
0010
0100
0000
0010
1000
0000
0010
0001
0000
1000
0001
0000
0100
0000
,
0010
0000
0100
0001
0000
0100
1000
0000
0100
0010
0100
0010
1000
0100
1000
0100
,
0020
0032
2003
3200
,
0310
0000
0000
0001
0000
0000
1000
0000
0000
0000
0010
0000
0100
0000
0100
0000
,
0020
2030
3002
0203
,
0301
0000
0000
0001
0000
0000
0010
0000
0100
1000
0100
0000
0010
0000
0001
1000
,
0002
2003
3200
0320
,
0031
0000
0000
0100
0000
0000
0100
0000
0000
0000
0010
0000
0010
1000
0000
0000
,
2000
3200
0320
0032
,
1003
0000
0000
0010
0000
0000
0100
0000
0001
1000
0001
0000
0010
0000
0100
1000
,
0002
2003
3200
0320
,
0032
0000
0003
1000
0020
0000
0030
0100
,
0200
0302
2003
3200
,
0310
0000
0000
0010
0000
0000
0100
0000
2000
0000
0000
0000
3000
0000
0001
0000
,
0002
0203
2300
3200
,
0301
0000
0000
0010
0000
0000
0100
0000
2000
0000
0000
0000
3000
0000
1000
0000
,
2000
3200
0320
0032
,
0103
0000
0100
0010
0000
0010
1000
0001
,
1001
0000
0010
0000
0100
0001
1000
0000
,
1000
0100
0010
0001
0010
0100
1000
0000
,
0001
0000
0100
0000
0010
0100
0001
0000
,
1000
0001
0100
0010
1000
0100
0010
0000
,
0010
0000
0100
0000
1000
0001
0100
0000
,
0010
0000
0000
1000
0000
0000
0001
0000
0100
0000
0010
0000
0010
0000
1000
0000
,
0002
2003
3020
0230
,
0301
0000
0000
0001
0000
0000
1000
0000
0100
0010
0100
0000
1000
0001
1000
0001
,
1000
0000
0010
0100
0001
0000
0100
0000
0001
0000
1000
0000
1000
0000
0001
0000
,
0001
0010
0100
1000
1000
0001
0100
0010
,
1000
1000
0001
0001
0100
0100
0010
1000
,
0100
0000
0100
0000
0100
0000
0000
0000
0010
0000
0010
0000
0001
0000
1000
0001
,
1000
0000
0001
0000
1000
0000
0000
0000
1000
0000
0010
0000
0100
0000
0010
0100
,
0010
0000
0100
0000
0100
0000
0000
0000
0001
0000
1000
0000
0001
0000
0010
0001
,
0010
0001
1000
0000
1000
0010
0100
0001
,
0100
0001
0100
0001
0100
0000
0010
1000
0010
1000
0010
0000
1000
0001
1000
0001
,
1000
0000
0001
0000
1000
0000
0010
0000
1000
0001
0000
0100
0000
0000
0010
0000
,
1000
0000
0000
1000
0000
0000
0100
0000
0010
0000
0000
0000
0000
0000
0010
0000
,
0001
0000
0000
1000
0000
0000
0010
0000
0100
0000
0001
0000
1000
0000
0100
0010
,
0001
0000
0000
0000
0010
0000
0100
0010
0100
0000
0010
0000
0001
0000
0100
1000
,
0100
0000
0010
0000
1000
0000
0100
0000
0010
0001
0000
0010
0000
0000
0100
0000
,
0010
0000
0000
0001
0000
0000
0010
0000
0100
0000
0000
0000
0000
0000
0010
0100
,
1000
0000
1000
0000
0001
0100
0100
0000
,
0010
0000
0000
0000
1000
0000
0001
0000
0001
0000
0000
0000
1000
0000
0001
1000
,
0001
0000
1000
0000
0010
0000
0100
0000
0001
1000
0000
1000
0000
0000
0010
0000
,
0010
0000
0000
0010
0000
0000
0100
0001
0100
0000
0000
0000
0000
0000
0001
0000
,
0100
0000
0000
0100
0000
0000
1000
0000
0100
0000
0001
0000
0010
0000
0100
0000
,
0001
0000
0001
0000
0100
0010
0001
1000
,
0010
0000
0100
0000
0100
0000
0001
0000
1000
0010
0000
0100
0000
0000
1000
0000
,
0100
0000
0000
0010
0000
0000
1000
0000
0100
0000
0000
0000
0000
0000
0010
0000
,
0002
0000
2003
0000
3100
0100
0200
0000
,
2300
0000
3001
0100
0020
0000
1030
0001
,
2000
0000
0000
0000
0000
0000
0000
0000
3001
1000
0001
1000
0001
1000
0001
1000
,
0020
0230
0302
2003
,
3100
0000
0000
0100
0000
0000
0100
0000
0000
0000
0010
0000
0001
0000
0100
0000
,
0020
2030
3002
0203
,
0301
0000
0000
0100
0000
0000
1000
0000
0001
0000
0000
0000
0010
0000
0000
0000
,
2000
3200
0320
0032
,
1003
0000
0000
0001
0000
0000
1000
0000
0000
0000
1000
0000
0010
0000
0100
0000
,
0002
2003
3200
0320
,
0031
0000
0000
0010
0000
0000
0100
0000
2000
0000
0000
0000
0000
0000
3000
0000
,
2000
3002
0023
0230
,
2300
0000
3000
0001
0200
0000
0300
0010
,
0020
2030
3002
0023
,
0130
0000
0000
0100
0000
0000
0010
0000
0002
0000
0000
0000
0003
0000
1000
0000
,
2000
3020
0032
0023
,
1030
0000
0000
0100
0000
0000
0010
0000
0002
0000
0000
0000
0003
0000
0001
0000
,
0002
0023
0230
2300
,
3010
0000
0010
0100
0000
0100
0001
1000
,
1001
0000
0100
0000
0010
1000
0001
0000
,
0001
0010
0100
1000
0100
0010
0001
0000
,
1000
0000
0010
0000
0100
0010
1000
0000
,
0001
1000
0010
0100
0001
0010
0100
0000
,
0100
0000
0010
0000
0001
1000
0010
0000
,
0100
0000
0000
0001
0000
0000
1000
0000
0010
0000
0100
0000
0100
0000
0001
0000
,
2000
3002
0203
0320
,
1030
0000
0000
1000
0000
0000
0001
0000
0010
0100
0010
0000
0001
1000
0001
1000
,
0001
0000
0100
0010
1000
0000
0010
0000
1000
0000
0001
0000
0001
0000
1000
0000
,
1000
0100
0010
0001
0001
1000
0010
0100
,
0001
0001
1000
1000
0010
0010
0100
0001
,
0010
0000
0010
0000
0010
0000
0000
0000
0100
0000
0100
0000
1000
0000
0001
1000
,
0001
0000
1000
0000
0001
0000
0000
0000
0001
0000
0100
0000
0010
0000
0100
0010
,
0100
0000
0010
0000
0010
0000
0000
0000
1000
0000
0001
0000
1000
0000
0100
1000
,
0100
1000
0001
0000
0001
0100
0010
1000
,
0010
1000
0010
1000
0010
0000
0100
0001
0100
0001
0100
0000
0001
1000
0001
1000
,
0001
0000
1000
0000
0001
0000
0100
0000
0001
1000
0000
0010
0000
0000
0100
0000
,
0001
0000
0000
0001
0000
0000
0010
0000
0100
0000
0000
0000
0000
0000
0100
0000
,
1000
0000
0000
0001
0000
0000
0100
0000
0010
0000
1000
0000
0001
0000
0010
0100
,
1000
0000
0000
0000
0100
0000
0010
0100
0010
0000
0100
0000
1000
0000
0010
0001
,
0010
0000
0100
0000
0001
0000
0010
0000
0100
1000
0000
0100
0000
0000
0010
0000
,
0100
0000
0000
1000
0000
0000
0100
0000
0010
0000
0000
0000
0000
0000
0100
0010
,
0001
0000
0001
0000
1000
0010
0010
0000
,
0100
0000
0000
0000
0001
0000
1000
0000
1000
0000
0000
0000
0001
0000
1000
0001
,
1000
0000
0001
0000
0100
0000
0010
0000
1000
0001
0000
0001
0000
0000
0100
0000
,
0100
0000
0000
0100
0000
0000
0010
1000
0010
0000
0000
0000
0000
0000
1000
0000
,
0010
0000
0000
0010
0000
0000
0001
0000
0010
0000
1000
0000
0100
0000
0010
0000
,
1000
0000
1000
0000
0010
0100
1000
0001
,
0100
0000
0010
0000
0010
0000
1000
0000
0001
0100
0000
0010
0000
0000
0001
0000
,
0010
0000
0000
0100
0000
0000
0001
0000
0010
0000
0000
0000
0000
0000
0100
0000
,
2000
0000
3002
0000
0013
0010
0020
0000
,
0032
0000
1003
0010
0200
0000
0301
1000
,
0002
0000
0000
0000
0000
0000
0000
0000
1003
0001
1000
0001
1000
0001
1000
0001
,
0010
0000
0000
0100
0000
0000
1000
0000
0001
0000
0000
0100
0000
0000
0010
0000
,
0100
0000
0000
0001
0000
0000
1000
0000
0100
0000
0000
0000
0000
0000
0000
0000
,
0010
0000
0100
0010
0100
0000
0010
0000
0001
0000
1000
0000
0010
0000
0100
0000
,
0001
0000
0000
0001
0000
0000
0001
0000
0100
0000
0000
0000
0000
0000
0000
0000
,
0010
0000
0100
0010
0100
0000
0010
0000
1000
0000
0100
0000
1000
0000
0001
0000
,
1000
0000
0010
0000
0000
0000
0001
0100
0001
0000
1000
0000
0010
0000
1000
0000
,
0100
0000
0000
0010
0000
0000
1000
0000
0010
0000
0000
0100
0000
0000
1000
0000
,
0010
0000
0000
0000
0001
0000
0010
1000
0001
0000
0000
0000
1000
0000
0000
0000
,
1001
0000
0010
1001
0000
1100
0000
1001
,
0000
0101
0000
1001
0000
0110
0000
0000
,
0001
0000
1000
0000
0001
0000
1000
0000
0002
0000
0000
0000
0000
0000
0000
0000
0003
0000
0000
0000
0000
0000
0000
0000
0000
0000
0000
0000
0010
0001
0100
0000
,
0010
0000
1000
0000
0100
0000
0010
0001
0000
1000
0000
0010
0100
0001
0010
0000
0100
1000
0000
0010
0010
0000
0200
0000
0000
0000
0000
0000
0310
0000
0100
0000
,
0000
0001
0000
0000
1000
0000
0010
0000
0100
0000
0001
0000
0100
0001
0020
0000
0000
0000
0000
0000
0000
0000
0000
0000
0000
0000
0030
0000
0010
0010
0100
0000
,
1000
0000
0010
0000
0100
0000
0001
0010
0000
0100
0000
0010
0001
0100
0010
0000
1000
0100
0000
0010
0001
0000
0001
0000
0000
0000
0000
0000
0001
0010
2000
0000
,
0000
3020
0000
0230
0000
2300
0000
3002
0000
0000
1003
0000
0100
0010
0100
0000
,
1000
0001
1000
0001
0010
0100
1000
0000
0001
0000
1000
0000
0010
0000
1000
0001
,
0000
0100
0000
0000
0010
0000
1000
0000
0000
1000
0000
0000
0100
0000
0010
0000
,
0000
0000
0000
0000
0010
0000
0001
0000
0000
1000
0000
0000
0010
0000
0100
0000
,
0001
0000
1000
0000
0100
0010
0001
0000
0000
0000
0010
0000
0100
0010
0100
0000
,
0010
0000
0001
0000
0100
1000
0100
0000
0010
0000
1000
0000
0100
0000
0010
0001
,
0000
0010
0000
0000
0100
0000
0010
0000
0000
0001
0000
0000
0010
0000
0100
0000
,
0000
0000
0000
0000
0010
0100
1000
0000
0000
0000
1000
0000
0000
0000
0001
0000
,
0100
0100
0000
0010
0000
1000
0001
0001
,
0000
0000
1000
0000
0001
1000
0001
0000
1000
0000
0010
0000
0100
0010
1000
0010
,
0100
0001
0100
0001
1000
0100
0010
0000
0010
0000
0001
0000
0100
0000
0001
1000
,
0000
0010
0000
0000
0100
0000
0001
0000
0000
0001
0000
0000
0010
0000
0100
0000
,
0000
0000
0000
0000
0100
0000
1000
0000
0000
0001
0000
0000
0100
0000
0010
0000
,
1000
0000
0001
0000
0010
0100
1000
0000
0000
0000
0100
0000
0010
0100
0010
0000
,
0100
0000
1000
0000
0010
0001
0010
0000
0100
0000
0001
0000
0010
0000
0100
1000
,
0000
0100
0000
0000
0010
0000
0100
0000
0000
1000
0000
0000
0100
0000
0010
0000
,
0000
0000
0000
0000
0100
0010
0001
0000
0000
0000
0001
0000
0000
0000
1000
0000
,
0010
0010
0000
0100
0000
0001
1000
1000
,
0000
0000
0001
0000
1000
0001
0010
0000
0010
0000
0001
0000
0100
0000
0001
1000
,
0000
0010
0000
0000
0100
0000
0001
0000
0000
0001
0000
0000
0010
0000
0100
0000
,
0000
0000
0000
0000
0100
0000
1000
0000
0000
0001
0000
0000
0100
0000
0010
0000
,
1000
0000
0001
0000
0010
0100
1000
0000
0000
0000
0100
0000
0010
0100
0010
0000
,
0100
0000
1000
0000
0010
0001
0010
0000
0100
0000
0001
0000
0010
0000
0100
1000
,
0000
0100
0000
0000
0010
0000
0100
0000
0000
1000
0000
0000
0100
0000
0010
0000
,
0000
0000
0000
0000
0100
0010
0001
0000
0000
0000
0001
0000
0000
0000
1000
0000
,
0010
0010
0000
0100
0000
0001
1000
1000
,
0000
0000
0001
0000
1000
0001
0020
0000
0000
0000
0130
0000
1000
0100
0010
0001
,
1000
0100
0010
0001
1000
0100
2000
0000
0000
0000
3002
0000
0000
0000
0023
0000
,
0000
0000
0230
0000
0000
0000
1300
0000
0000
1000
0000
0000
0001
0000
0000
0000
,
0100
0010
0010
0200
0000
0302
0000
2003
,
0000
0000
3020
0000
0000
0000
1030
0000
0000
1000
0000
0000
0100
0000
0010
0001
,
0010
0100
1000
0001
1000
0100
0020
0000
0000
0000
0032
0000
0000
0000
2003
0000
,
0000
0000
3200
0000
0000
0000
0310
0000
0000
0010
0000
0000
0010
0000
0000
0000
,
0100
0000
0100
1000
0000
0000
0002
0000
0000
0000
0023
0000
0000
0000
0230
0000
,
0000
0000
2300
0000
0000
0000
3001
0000
0100
0010
1000
0000
0001
0000
0100
0010
,
1000
0001
0001
0100
0010
1000
0000
0000
0200
0000
0000
0000
0000
0000
0000
0000
,
0000
0000
0000
0000
,
0000
0000
0000
0000
,
0300
0000
0000
0000
;

//---------------dance-single - ----------------
#NOTES:
     dance-single:
     :
     Medium:
     10:
     0.437744,0.489152,0.048579,0.459631,0.108368,820.000000,807.000000,13.000000,123.000000,0.000000,0.000000,0.437744,0.489152,0.048579,0.459631,0.108368,820.000000,807.000000,13.000000,123.000000,0.000000,0.000000:
0000
0000
0000
0000
,
0000
0000
0000
0000
,
0000
0000
0000
0000
,
0000
0000
0000
0000
,
0200
2300
3002
0023
,
0130
0000
0000
1000
0000
0000
0001
0000
0000
0000
0100
0000
0010
0000
0010
0000
,
0200
0302
2003
3020
,
1030
0000
0000
1000
0000
0000
0100
0000
0020
0000
0000
0000
0130
0000
0000
0000
,
2000
3002
0023
0230
,
1300
0000
0000
0010
0000
0000
0010
0000
0000
0000
0100
0000
0100
0001
0000
0000
,
0002
0023
0230
2300
,
3001
0000
0000
0100
0000
0000
0010
0000
2000
0000
0000
0000
3000
0000
0000
0000
,
2000
3002
0023
0230
,
2300
0000
3000
0001
0200
0000
0300
0010
,
0020
2030
3002
0023
,
0130
0000
0000
0100
0000
0000
0010
0000
0002
0000
0000
0000
0003
0000
1000
0000
,
2000
3020
0032
0023
,
1030
0000
0000
0100
0000
0000
0010
0000
0002
0000
0000
0000
0003
0000
0001
0000
,
0002
0023
0230
2300
,
3010
0000
0010
0100
0000
0100
0001
1000
,
1001
0000
0100
0000
0010
1000
0001
0000
,
0001
0010
0100
1000
0100
0010
0001
0000
,
1000
0000
0010
0000
0100
0010
1000
0000
,
0001
1000
0010
0100
0001
0010
0100
0000
,
0100
0000
0010
0000
0001
1000
0010
0000
,
0100
0000
0000
0001
0000
0000
1000
0000
0010
0000
0100
0000
0100
0000
0001
0000
,
2000
3002
0203
0320
,
1030
0000
0000
1000
0000
0000
0001
0000
0020
0000
0000
0000
0000
0000
0030
0000
,
0110
0000
1001
0000
0001
0100
0001
0200
,
0000
0000
0310
1000
0000
0100
1000
0100
,
1000
1000
0001
0001
0100
0100
0010
0010
,
1000
0001
1000
0000
0001
1000
0001
0000
,
1000
0001
1000
0000
0100
0000
0010
0000
,
0001
0001
0010
0000
0100
0000
1000
0000
,
0010
1000
0001
0000
1000
0000
0001
0000
,
1000
0001
1000
0000
0001
1000
0001
1000
,
0001
0000
1000
0000
0010
1000
0010
0000
,
0100
0001
0100
0001
0100
0000
0010
0000
,
1000
0100
1000
0000
0001
0100
0001
0000
,
1000
0001
1000
0000
0001
0000
1000
0000
,
0001
0010
0001
0010
0001
0010
0100
0000
,
1000
0000
0010
1000
0010
0000
0100
0001
,
1000
0000
0100
0000
0010
0000
0100
0010
,
0100
0000
1000
0001
1000
0000
0001
0100
,
0001
0100
0001
0100
0001
0100
0010
0000
,
1000
0100
1000
0100
0010
0000
0001
1000
,
0001
0000
1000
0000
0001
1000
0001
1000
,
0001
1000
0010
0100
,
0001
0010
0001
0010
0001
0010
0100
0000
,
1000
0010
1000
0010
0100
0000
0001
0000
,
1000
0001
1000
0000
0001
1000
0001
0000
,
1000
0000
0100
0010
0100
0000
0010
0000
,
0002
0000
0000
0000
,
0203
0320
2030
3002
,
0013
0000
0000
0010
0000
0000
0010
0000
0000
0000
0100
0000
1000
0000
0010
0000
,
0200
0302
2003
3020
,
1030
0000
0000
0010
0000
0000
1000
0000
2000
0000
0000
0000
3000
0000
0000
0000
,
0002
0023
0230
2300
,
3001
0000
0000
1000
0000
0000
0001
0000
0000
0000
0001
0000
0100
0000
0010
0000
,
2000
3002
0023
0230
,
1300
0000
0000
0100
0000
0000
0010
0000
0002
0000
0000
0000
0000
0000
0003
0000
,
0002
2003
3200
0320
,
0032
0000
0003
1000
0020
0000
0030
0100
,
0200
0302
2003
3200
,
0310
0000
0000
0010
0000
0000
0100
0000
2000
0000
0000
0000
3000
0000
0001
0000
,
0002
0203
2300
3200
,
0301
0000
0000
0010
0000
0000
0100
0000
2000
0000
0000
0000
3000
0000
1000
0000
,
2000
3200
0320
0032
,
0103
0000
0100
0010
0000
0010
1000
0001
,
1001
0000
0010
0000
0100
0001
1000
0000
,
1000
0100
0010
0001
0010
0100
1000
0000
,
0001
0000
0100
0000
0010
0100
0001
0000
,
1000
0001
0100
0010
1000
0100
0010
0000
,
0010
0000
0100
0000
1000
0001
0100
0000
,
0010
0000
0000
1000
0000
0000
0001
0000
0100
0000
0010
0000
0010
0000
1000
0000
,
0002
2003
3020
0230
,
0301
0000
0000
0001
0000
0000
1000
0000
0200
0000
0000
0000
0000
0000
0300
0000
,
0110
0000
1001
0000
0001
1000
0001
1000
,
0000
0000
0010
1000
0000
0010
1000
0010
,
1000
0010
1000
0010
1000
0010
1000
0010
,
1000
0100
0010
0000
0010
0001
0100
0000
,
0001
0100
0001
0000
1000
0000
0001
0000
,
1000
0001
1000
0000
0010
0000
0100
0000
,
0001
0100
0001
0000
1000
0000
0100
0000
,
0010
0100
0010
0000
0001
1000
0001
1000
,
0001
1000
0010
1000
0001
0100
0010
0000
,
0001
1000
0001
1000
0100
0000
0010
0000
,
0001
0010
0001
0000
1000
0100
1000
0000
,
0001
1000
0010
0000
0100
0000
0001
0000
,
1000
0001
1000
0001
1000
0001
1000
0000
,
0010
0100
0001
0100
0001
0000
1000
0100
,
1000
0000
0001
0000
0010
0001
0010
0000
,
0001
1000
0010
1000
0010
0000
1000
0001
,
0100
0001
0100
0001
0100
0001
0010
0000
,
0001
1000
0010
1000
0010
0000
0100
0000
,
0001
1000
0100
0000
1000
0000
0001
1000
,
0001
0000
1000
0000
0010
0000
0100
0001
,
0100
0001
0100
0010
0100
0010
1000
0000
,
0010
1000
0010
1000
0100
0000
0010
0001
,
0010
0000
0001
0000
1000
0100
1000
0000
,
0001
0000
1000
0010
1000
0000
0010
0000
,
0100
0000
0001
0000
1000
0001
1000
0001
,
1000
0000
0000
0001
0000
0000
1000
0000
0010
0000
0000
0100
0000
0000
0010
0000
,
0100
0000
0000
0010
0000
0000
1000
0000
0001
0000
0000
0000
0000
0000
0001
0000
,
1000
0100
0010
0001
,
1000
0000
0000
1000
0000
0000
0001
0000
1000
0000
0000
0000
0010
0000
0000
0000
,
0100
0000
0001
0100
0001
0100
0010
0100
,
0010
1000
0000
0000
0010
1000
0010
1000
,
0001
0000
0000
1000
0000
0000
0100
0000
0010
0000
0000
0100
0000
0000
0010
0000
,
0100
0000
0010
0001
0010
0000
0001
0000
,
1001
0000
0100
1001
0000
0011
0000
1001
,
0000
1010
0000
1001
0000
0110
0000
0000
,
2000
0000
0000
0000
0000
0000
0000
0000
3000
0000
0000
0000
0000
0000
0000
0001
,
0000
1000
0000
0100
0000
0100
0000
1000
0000
0001
0000
0200
0000
0300
0000
0010
,
0000
1000
0000
0010
0000
1000
0000
0002
0000
0000
0000
0003
0000
0000
0000
0010
,
0000
0001
0000
1000
0000
0100
0000
0010
0000
0001
0000
1000
0000
0001
0000
0002
,
0000
0203
0000
0320
0000
2030
0000
3002
0000
0000
0000
0000
0000
0000
2003
0000
,
0000
0000
3000
0001
0100
0001
0100
0010
,
0100
0010
0000
1000
0010
1000
0010
1000
,
0000
0100
0000
0010
0001
0010
0000
0001
,
0000
1000
0000
0001
1000
0001
0000
0100
,
0000
0010
0000
1000
0010
1000
0010
1000
,
0100
0010
0000
0001
0100
0001
0100
0010
,
0000
1000
0000
0001
1000
0001
0000
1000
,
0001
1000
0000
0100
1000
0100
1000
0010
,
0000
0100
0000
0001
0010
0001
0010
0100
,
0000
1000
0000
0001
1000
0001
1000
0010
,
0100
0001
0000
1000
0100
1000
0100
0010
,
0000
0001
0000
1000
0010
1000
0010
0100
,
0001
1000
0010
1000
0000
0100
0000
1000
,
0000
0001
0000
0010
0001
0010
0001
0010
,
0100
1000
0000
0001
0100
0001
0100
0010
,
0000
1000
0000
0001
1000
0001
0000
1000
,
0001
1000
0000
0001
1000
0100
0010
0100
,
0000
0010
0000
0001
0010
0001
0010
0001
,
0010
0100
0000
1000
0010
1000
0010
0100
,
0000
0001
0000
1000
0100
0001
0000
0001
,
0100
1000
0000
0010
0001
0010
0000
1000
,
0010
1000
0000
0001
1000
0001
1000
0001
,
1000
0001
0000
1000
0100
0010
0100
0010
,
0000
0100
1000
0002
0000
0203
0000
0320
,
0000
2030
0000
3002
0000
1003
0001
2000
,
0000
0000
0000
0000
3000
0000
0200
0000
0000
0000
0310
0000
0001
1000
0001
1000
,
0001
1000
0001
1000
0001
1000
0002
0000
0000
0000
2003
0000
0000
0000
3200
0000
,
0000
0000
0320
0000
0000
0000
0031
0000
0000
0001
0000
0000
1000
0000
0000
0000
,
0010
0100
0100
0020
0000
2030
0000
3002
,
0000
0000
0203
0000
0000
0000
0301
0000
0000
0001
0000
0000
0010
0000
0200
0000
,
0000
0300
0000
0200
0000
2300
0000
3002
,
0000
0000
0023
0000
0000
0000
0130
0000
0000
0100
0000
0000
0100
0000
0000
0000
,
0010
0000
0010
0001
0000
0000
2000
0000
0000
0000
3200
0000
0000
0000
0320
0000
,
0000
0000
0032
0000
0000
0000
1003
0000
0000
0100
0000
0000
0010
0000
0002
0000
,
0000
0000
1000
0003
1000
0000
0000
0000
0020
0000
0000
0000
0000
0000
0000
0000
,
0000
0000
0000
0000
,
0000
0000
0000
0000
,
0030
0000
0000
0000
;

//---------------dance-single - ----------------
#NOTES:
     dance-single:
     :
     Easy:
     2:
     0.278127,0.460378,0.033632,0.571736,0.048579,521.000000,512.000000,9.000000,153.000000,0.000000,0.000000,0.278127,0.460378,0.033632,0.571736,0.048579,521.000000,512.000000,9.000000,153.000000,0.000000,0.000000:
0000
0000
0000
0000
,
0000
0000
0000
0000
,
0000
0000
0000
0000
,
0000
0000
0000
0000
,
0020
0032
2003
3200
,
0310
0000
0000
0010
0000
0000
0000
0000
,
0020
0032
2003
3200
,
0310
0000
0000
0100
0100
0000
0010
0000
,
0002
2003
3200
0320
,
0031
0000
0000
0001
0000
1000
1000
0000
,
2000
3200
0320
0032
,
1003
0000
0000
0001
0002
0000
0003
0000
,
0002
2003
3200
0320
,
0032
0000
0003
0010
0020
0000
0030
0100
,
0200
2300
3002
0203
,
0310
0000
0010
0000
2000
0000
3000
0001
,
0002
0203
0320
2030
,
3001
0000
0001
0000
2000
0000
3000
1000
,
2000
3200
0320
0032
,
0103
0000
0010
0010
0000
1000
1000
0000
,
0001
1000
0001
1000
,
0010
0100
0010
0100
,
0001
0010
0001
0010
,
0100
1000
0200
0300
,
1000
0010
1000
0010
,
0100
0001
0200
0300
,
0001
0010
0001
0010
,
0100
1000
0020
0030
,
0100
1001
0000
0010
,
0000
0010
0000
0010
,
0010
0010
0010
0010
,
0100
0000
0010
0000
,
1000
0000
0000
0001
,
0002
0003
0000
0010
,
0020
0000
0000
0000
0000
0030
0100
0000
,
0200
0000
0000
0000
0000
0300
0000
0000
,
1000
0001
1000
0010
,
0100
0001
2000
3000
,
0100
0010
0001
0010
,
0200
0000
0000
0300
,
1000
1000
0010
0010
,
0100
0001
2000
3000
,
0001
0001
1000
1000
,
0200
0000
0000
0300
0020
0000
0000
0030
,
0001
0001
1000
0100
,
0010
0010
0100
0000
,
1000
0001
0100
0010
,
2000
0000
0000
3000
,
0001
0001
1000
1000
,
0100
0010
0001
0000
,
0010
0010
0100
0100
,
2000
0000
0000
3000
0002
0000
0000
0000
,
2003
0000
0000
0000
,
3020
0230
0302
2003
,
3100
0000
0000
0100
0000
0000
0000
0000
,
0020
0032
2003
3200
,
0310
0000
0000
0001
0002
0000
0003
0000
,
2000
3200
0320
0032
,
1003
0000
0000
1000
0000
0000
0000
0000
,
0002
2003
3200
0320
,
0031
0000
0000
1000
2000
0000
0000
3000
,
2000
3002
0023
0230
,
2300
0000
3000
0100
0200
0000
0300
0010
,
0020
0032
2003
3020
,
0130
0000
0100
0000
0002
0000
0003
1000
,
2000
3020
0032
0023
,
1030
0000
0001
0000
0002
0000
0003
0001
,
0002
0023
0230
2300
,
3010
0000
0010
0010
0000
1000
1000
0000
,
1001
0001
1000
0010
,
1000
0100
0010
0001
,
0100
0001
1000
0001
,
0010
0100
1000
0001
,
0100
0100
0010
0010
,
0100
0001
1000
0100
,
0010
0010
0100
1000
,
0001
0001
0100
0010
,
1000
0001
1000
0000
0001
0000
0100
0000
,
0010
1000
0100
0010
,
0001
0001
0001
0000
1000
1000
1000
0000
,
0020
0000
0230
0000
,
0302
0000
0000
0000
,
2003
0000
0000
3000
,
0200
0000
0000
0000
0000
0000
0000
0300
,
0010
0010
0001
0001
,
1000
0001
1000
0010
,
0100
0100
0020
0030
,
1000
0001
0010
0100
,
2000
0000
0000
3000
,
0001
0001
0100
0100
,
0010
0100
0002
0003
,
1000
1000
0100
0100
,
0020
0000
0000
0030
0002
0000
0000
0003
,
1000
1000
0010
0100
,
0001
0001
2000
3000
,
0100
0010
1000
0010
,
0200
0000
0000
0000
0000
0000
0000
0300
,
1000
1000
0010
0100
,
0001
0000
0001
0000
2000
0000
0000
3000
,
0001
0001
0010
0100
,
2000
0000
0000
3000
0002
0000
0000
0003
,
0200
0000
0000
0000
0000
0000
0000
0300
,
0010
0000
1000
0000
,
0001
0001
1000
0000
,
0100
0100
1000
1000
,
0001
0000
0010
0000
0200
0000
0000
0300
,
1000
1000
0010
0010
,
0100
0200
0000
0300
0001
0000
0001
0000
,
2000
3000
0100
0010
,
0002
0000
0003
1000
1000
0000
1000
0000
,
1001
0000
0001
1001
0000
1100
0000
1001
,
0000
0101
0000
1001
0000
0110
0000
0000
,
0002
0000
0000
0000
0000
0000
0000
0000
0003
0000
0000
0000
0000
0000
0000
1000
,
0000
0001
0000
0010
0000
0010
0000
0001
0000
1000
0000
0020
0000
0030
0000
0100
,
0000
0001
0000
0100
0000
0001
0000
2000
0000
0000
0000
3000
0000
0000
0000
0100
,
0000
1000
0000
0001
0000
0010
0000
0100
0000
1000
0000
0001
0000
1000
0000
2000
,
0000
3020
0000
0230
0000
0302
0000
2003
0000
0000
0000
0000
0000
0000
3002
0000
,
0000
0000
0003
1000
0000
1000
0000
0010
,
0100
0010
0000
1000
0000
0001
0000
2000
,
0000
3000
0000
0001
0000
0001
0000
0010
,
0000
0200
0300
1000
0100
1000
0000
0001
,
0000
0100
0000
0010
0000
0010
0000
0100
,
0000
0001
0000
1000
0000
0001
1000
0001
,
0000
1000
0000
0100
0000
0100
0000
0010
,
0000
0010
0000
0200
0000
0000
0000
2300
,
0000
0000
0000
3020
0000
0000
0000
0000
,
0000
0000
0030
0100
0000
0100
0000
0001
,
1000
0001
0000
1000
0000
0100
0000
0020
,
0000
0030
0000
0001
0000
0001
0000
1000
,
0000
0010
0000
0200
0000
0000
0000
0000
,
0000
0000
0300
0010
0000
1000
0000
0001
,
0000
1000
0000
0100
0000
0100
0000
0020
,
0000
0030
0000
0001
0000
1000
0000
0010
,
1000
0010
0000
0200
0000
0000
0000
0302
,
0000
0000
0003
1000
0000
0001
0000
1000
,
0001
1000
0000
0001
0000
0010
0000
0200
,
0000
0000
0300
1000
0000
1000
0000
0010
,
0000
0100
0000
0001
0100
0001
0000
1000
,
0000
0100
0000
0010
0100
0010
0000
0100
,
0000
1000
0000
0001
0000
0100
0000
0020
,
0000
0000
0030
1000
0000
1000
0000
0010
,
0000
0010
0000
0200
0000
0000
0000
0302
,
0000
0000
0000
2003
0000
0000
0000
0000
,
0000
0000
3000
0200
0000
0320
0000
0032
,
0000
0203
0000
0301
0000
0000
0001
0000
,
0000
0000
0000
0200
0000
0302
0000
2003
,
0000
3020
0000
1030
0000
0000
0100
0200
,
0000
0300
0000
0020
0000
0032
0000
2003
,
0000
3200
0000
0310
0000
0000
0010
0000
,
0001
0001
0000
0002
0000
0023
0000
0230
,
0000
0000
2300
0000
0000
0000
3001
0000
0000
0010
0000
0000
0100
0000
2000
0000
,
0000
0000
0001
3000
0001
0000
0000
0000
0200
0000
0000
0000
0000
0000
0000
0000
,
0000
0000
0000
0000
,
0000
0000
0000
0000
,
0300
0000
0000
0000
;
