#TITLE:Inferno;
#SUBTITLE:Fire Force Opening 1;
#ARTIST:Green Apple;
#TITLETRANSLIT:;
#SUBTITLETRANSLIT:;
#ARTISTTRANSLIT:;
#GENRE:;
#CREDIT:Magna Trick;
#BANNER:INBN.jpg;
#BACKGROUND:INBG.jpg;
#LYRICSPATH:;
#CDTITLE:Magna Trick title!.png;
#MUSIC:Inferno.mp3;
#OFFSET:-0.057451;
#SAMPLESTART:38.139999;
#SAMPLELENGTH:14.000000;
#SELECTABLE:YES;
#BPMS:0.000000=185.000000
,80.500000=92.500000
,98.500000=185.000000
,176.500000=92.500000
,190.500000=185.000000
,233.500000=123.333008
,237.166672=185.000000
;
#STOPS:16.500000=0.162000,
128.000000=0.324000,
175.000000=0.324000,
176.000000=0.324000,
191.000000=0.324000
;
#BGCHANGES:0.083=Inferno.avi=1.000=0=0=1=====,
236.833=INBG.jpg=1.000=0=0=1=====,
99999=-nosongbg-=1.000=0=0=0 // don't automatically add -songbackground-
;
#KEYSOUNDS:;
#ATTACKS:;

//---------------dance-single - ----------------
#NOTES:
     dance-single:
     :
     Hard:
     12:
     0.455639,0.504193,0.216760,0.681246,0.112251,412.000000,384.000000,28.000000,88.000000,0.000000,0.000000,0.455639,0.504193,0.216760,0.681246,0.112251,412.000000,384.000000,28.000000,88.000000,0.000000,0.000000:
0000
0000
1001
0001
,
1000
0001
0001
0000
1000
0000
0001
0000
,
1000
0010
0010
0000
0100
0000
0010
0000
,
0100
0000
0010
0000
0010
0000
0000
0000
0110
0000
0000
0000
0001
1000
0001
1000
,
0010
0010
1000
1000
0001
1000
0001
0010
,
0100
0010
0100
1000
0010
1000
0010
0100
,
0001
0100
0001
1000
0100
1000
0100
0010
,
0001
0010
0001
1000
0010
0100
0001
1000
,
0000
0100
0010
0100
1000
0100
1000
0001
,
0100
0001
0100
0010
1000
0010
1000
0001
,
0010
0001
0010
0100
1000
0001
0100
0010
,
1000
0100
0010
0100
1000
0001
0100
0010
,
0000
1000
0001
1000
0000
0001
1000
0001
,
0000
1000
0100
0001
1000
0001
0100
1000
,
0000
0010
0001
1000
0001
0010
1000
0100
,
0010
1000
0001
0100
0010
0001
1000
0010
,
0000
0010
0100
0001
0000
0001
0100
0010
,
0000
0010
1000
0100
0010
0001
0010
0100
,
0000
0100
1000
0010
0100
1000
0001
0010
,
1000
0100
0010
1000
0001
0100
0010
1001
,
0000
0000
0002
0000
2003
0000
0000
3000
2000
0000
3000
0001
0002
0000
0003
0000
,
0100
0010
0010
2000
3020
0230
0302
0003
,
0002
0023
0230
2300
3020
2030
3200
0320
,
0032
0203
0302
2003
3002
0000
2003
0000
,
0000
0000
3200
0000
0000
0320
0031
2000
,
0000
3010
0100
0002
0000
1003
0100
0020
,
0000
0130
1000
0020
0000
0031
0010
2000
,
0000
3100
0010
2000
0000
3001
0100
0020
,
0000
0000
0000
0000
0000
0000
0000
0030
0000
0000
0000
0000
0001
0000
0200
0000
,
0000
1300
0001
0020
0000
1030
0100
0020
,
0000
1030
0010
0002
0000
0103
0010
0002
,
0000
1003
0100
0020
0000
1030
0100
0011
,
1100
0000
1010
0000
0101
0000
0001
1000
0001
1000
0002
0000
0000
0000
1003
0000
,
0010
0002
0000
1003
0001
0020
0000
1030
,
0100
0020
0000
1030
0010
0200
0000
1300
,
0001
0200
0000
0310
0001
2000
0000
3100
,
0000
0000
0010
1000
0010
1000
0010
0100
0001
0100
0002
0000
0000
0000
1003
0000
,
0000
0100
1000
0001
0100
0020
0000
1030
,
0000
0001
0010
0100
1000
0020
0000
0031
,
0000
1000
0100
1000
0001
0020
0000
1030
,
0000
0020
0000
1030
0000
0101
0000
0101
,
0000
1100
0000
1100
0000
1010
0000
1010
,
0000
0011
0000
0011
0000
0110
0000
0110
,
0000
1001
0000
1001
0000
1010
0101
0011
,
1100
0000
1002
0000
0000
1003
0020
0000
0000
0130
0002
0000
0000
1003
0200
0000
,
0000
0310
0002
0000
0000
1003
0020
0000
0000
0130
0002
0000
0000
1003
0200
0000
,
0000
0301
0200
0000
0000
0310
0020
0000
0000
0031
2000
0000
0000
3010
0002
0000
,
0000
0013
2000
0000
0000
3100
0020
0000
0030
0001
0011
0000
1100
0000
1100
0000
,
0011
0000
0001
2000
0000
3010
0100
0002
,
0000
1003
0100
0020
0000
1030
0010
0200
,
0000
1300
0010
0002
0000
0013
0100
0002
,
0000
1003
0100
0020
0000
0130
1000
0002
,
0000
0103
0010
2000
0000
3001
0100
0020
,
0000
1030
0100
0020
0000
0130
1000
0020
,
0000
0031
1000
0200
0000
0310
1000
0200
,
0000
0310
1000
0002
0000
0103
0010
0002
,
0000
1003
0000
0001
1000
0001
1000
0010
,
0100
0010
0100
0001
1000
0001
1000
0100
,
0010
0000
0000
0001
0000
0000
0000
0000
0000
0002
0000
2003
0000
3020
0000
0230
0000
0302
0000
2003
0000
3200
0000
0320
,
0000
0032
0000
0000
0000
0003
0000
0000
0000
0000
0000
0000
0000
0000
0000
0000
0000
0000
0000
0000
0000
0000
0000
0000
;

//---------------dance-single - ----------------
#NOTES:
     dance-single:
     :
     Challenge:
     15:
     0.549642,0.870879,0.301916,0.650281,0.267080,497.000000,458.000000,39.000000,84.000000,0.000000,0.000000,0.549642,0.870879,0.301916,0.650281,0.267080,497.000000,458.000000,39.000000,84.000000,0.000000,0.000000:
0000
0000
1001
1000
,
0001
1000
1000
0000
0001
0010
1000
0000
,
0001
0100
0100
0000
0110
0001
0100
0000
,
0010
0000
0100
0000
0100
0000
0000
0000
0110
0000
0000
0000
1000
0001
1000
0001
,
0110
0110
0001
1001
1000
0001
1000
0100
,
0010
0100
0010
0001
0100
0001
0100
0010
,
1000
0010
1000
0001
0010
0001
0010
0100
,
1000
0100
1000
0001
0100
0010
1000
0001
,
0000
0010
0100
0010
0001
0010
0001
1000
,
0010
1000
0010
0100
0001
0100
0001
1000
,
0100
1000
0100
0010
0001
1000
0010
0100
,
0001
0010
0100
0010
0001
1000
0010
0200
,
0300
1000
0100
0001
0000
1000
0100
0001
,
0000
0001
0010
1000
0001
1000
0010
0001
,
0000
0100
1000
0001
1000
0100
0001
0010
,
0100
0001
1000
0010
0100
1000
0001
0100
,
0000
0100
0010
1000
0000
1000
0010
0100
,
0000
0100
0001
0010
0100
1000
0100
0010
,
0000
0010
0001
0100
0010
0001
1000
0100
,
0001
0010
0100
0001
1000
0010
0100
1001
,
0000
0000
2000
0000
3002
0000
0000
1003
0002
0000
0003
1000
2000
0000
3000
0100
,
0010
0000
0100
0010
0100
0010
0002
1000
0203
0010
0302
0010
0203
0000
1300
0000
,
2000
0001
3200
0010
2300
0100
3002
1000
0023
0100
2030
0001
3020
1000
0032
0100
,
2003
0000
0010
0000
3200
0000
0001
0000
2300
0000
0100
0000
3020
0000
0001
0000
2030
0000
0000
0000
0000
0000
0000
0000
3001
0000
1000
0001
1000
0000
0100
0000
,
0010
0000
0001
0000
0010
0100
0010
0100
1000
0000
0000
0000
1000
0000
0000
0000
0010
0000
0000
0000
1000
0000
0100
0000
0000
0000
1000
0000
0010
0000
0000
0000
1000
0000
0100
0000
0010
0000
0001
0000
0200
0000
0000
0000
0000
0000
0000
0000
0301
0000
0000
0000
0000
0000
0000
0000
0002
0000
0000
0000
0000
0000
0000
0000
,
0000
0103
0010
2000
0001
3001
0010
0200
,
0000
0310
0001
0200
1000
1300
0100
0002
,
0000
0013
0100
0002
0000
1003
0010
0200
,
0001
0000
0001
0000
0000
0000
0001
0300
0001
0000
0100
0000
1000
0000
0020
0000
,
0000
0031
1000
0200
0001
0301
0010
0200
,
0000
0301
0100
2000
0010
3010
0100
2000
,
0000
3001
0010
0200
0001
0301
0010
1100
,
0011
0000
0101
0000
1010
0000
1000
0001
0100
0001
2000
0000
0000
0000
3001
0000
,
0100
2000
0001
3001
1000
0200
0000
0301
,
0010
0200
1000
0301
0100
0020
0000
0031
,
1000
0020
0100
0130
1000
0002
0003
1001
,
0000
0000
1000
0001
0010
0100
1000
0010
1000
0100
0011
0000
0000
0000
0001
0000
,
0000
0010
0001
1000
0010
0200
0000
0301
,
0000
1000
0100
0010
0001
0201
0000
1300
,
0000
0001
0010
0001
1000
0200
0001
0301
,
0000
0200
0001
0310
0000
1010
1000
1010
,
0000
0011
0001
0011
0000
0101
0001
0101
,
0000
1100
1000
1100
0000
0110
0010
0110
,
0000
1001
1000
1001
0000
0101
1010
1100
,
0011
0100
2001
0000
0000
3001
0200
0000
0000
0310
2000
0000
0000
3001
0020
0000
,
0000
0130
2000
0000
0000
3001
0200
0000
0000
0310
2000
0000
0000
3001
0020
0000
,
0000
1030
0020
0000
0000
0130
0200
0000
0000
1300
0002
0000
0000
0103
2000
0000
,
0000
3100
0002
0000
0000
0013
0200
0000
0300
1000
1100
0000
0011
0000
0011
0000
,
1100
0000
1000
1002
0000
0103
0010
2000
,
0001
3001
0010
0200
0000
0301
0100
0020
,
0100
0031
0100
2100
0000
3100
0010
2000
,
0001
0000
3001
0000
0010
0000
0200
0000
0300
0000
0101
0000
0000
0000
1000
0010
,
0100
0001
0100
0010
1000
0100
0011
0000
0000
0000
1000
0000
0010
0000
0200
0000
,
1000
0301
0010
0200
0000
0310
0001
0200
,
0010
1300
0001
0020
0000
0130
0001
0020
,
1000
0130
0001
2000
0000
3010
0100
2000
,
0000
3001
0000
1000
0001
1000
0001
0100
,
0010
0100
0010
1000
0001
1000
0001
0010
,
0100
0000
0000
1000
0000
0000
0000
0000
0000
2000
0000
3002
0000
0203
0000
0320
0000
2030
0000
3002
0000
0023
0000
0230
,
0000
2300
0000
0000
0000
3000
0000
0000
0000
0000
0000
0000
0000
0000
0000
0000
0000
0000
0000
0000
0000
0000
0000
0000
;

//---------------dance-single - ----------------
#NOTES:
     dance-single:
     :
     Medium:
     10:
     0.368271,0.504193,0.294175,0.704471,0.081285,333.000000,295.000000,38.000000,91.000000,0.000000,0.000000,0.368271,0.504193,0.294175,0.704471,0.081285,333.000000,295.000000,38.000000,91.000000,0.000000,0.000000:
0000
0000
1001
1000
,
0001
1000
0001
1000
,
0001
0100
0010
0100
,
0010
0000
0100
0000
0110
0000
1000
0001
,
1001
1001
0000
0001
1000
0001
0000
1000
,
0001
1000
0000
0010
0100
0010
0000
0100
,
0010
0100
0000
0001
0100
0001
0000
1000
,
0100
1000
0000
0001
0010
0001
0000
1000
,
0010
1000
0000
0010
0100
0010
0000
0100
,
0010
0100
0000
0001
1000
0001
0000
1000
,
0001
1000
0000
0100
1000
0100
0000
0010
,
0001
0010
0000
0001
0100
0001
0000
1000
,
0000
0000
0000
0001
0000
1000
0000
0001
,
0000
1000
0000
0010
0000
0100
0000
0010
,
0000
0100
0000
0001
1000
0001
0000
1000
,
0001
1000
0000
0100
0010
0100
0000
0010
,
0000
0100
1000
0100
0000
1000
0000
0001
,
0000
0100
0000
0001
0100
0001
0100
0001
,
0000
0100
0000
0010
1000
0010
1000
0001
,
0100
0001
1000
0100
1000
0001
0000
1001
,
0000
0000
2000
0000
3002
0000
0000
0003
0002
0000
0003
1000
2000
0000
3000
0000
,
0010
0100
0100
0002
0203
0320
2030
3000
,
2000
3200
0320
0032
0203
0302
0023
0230
,
2300
3020
2030
3002
2003
0000
3002
0000
,
0000
0000
0023
0000
0000
0030
1000
0002
,
0000
0003
0001
2000
0000
3000
0010
0200
,
0000
0300
0001
0200
0000
0300
0100
0002
,
0000
0003
0100
0002
0000
0003
0010
0200
,
0000
0000
0000
0000
0000
0000
0000
0300
0000
0000
0000
0000
1000
0000
0020
0000
,
0000
0030
1000
0200
0000
0300
0010
0200
,
0000
0300
0100
2000
0000
3000
0010
2000
,
0000
3000
0010
0200
0000
0300
0000
1100
,
0011
0101
1010
0000
0001
2000
0000
3000
,
0100
2000
0000
3000
1000
0200
0000
0300
,
0010
0200
0000
0300
0100
0020
0000
0030
,
1000
0020
0000
0030
0001
2000
0000
3010
,
0000
0100
0001
0100
0010
2000
0000
3001
,
0000
0020
0000
0100
0030
0200
0000
1300
,
0000
2000
0000
3020
0000
0230
0000
0301
,
0000
0020
0000
0130
0000
2000
0000
3001
,
0000
0200
0000
0301
0000
1010
0000
1010
,
0000
0011
0000
0011
0000
0101
0000
0101
,
0000
1100
0000
1100
0000
0110
0000
0110
,
0000
1001
0000
1001
0000
0101
1010
1100
,
0011
0000
2001
0000
0000
3001
0200
0000
0000
0310
2000
0000
0000
3001
0020
0000
,
0000
0130
2000
0000
0000
3001
0200
0000
0000
0310
2000
0000
0000
3001
0020
0000
,
0000
1030
0020
0000
0000
0130
0200
0000
0000
1300
0002
0000
0000
0103
2000
0000
,
0000
3100
0002
0000
0000
0013
0200
0000
0300
1000
1100
0000
0011
0000
0011
0000
,
1100
0000
1000
0002
0000
0003
0001
2000
,
0000
3000
0010
0200
0000
0300
0100
0020
,
0000
0030
0100
0002
0000
0003
0001
2000
,
0000
3000
0010
0200
0000
0301
0000
2000
,
0000
3100
0000
0020
0000
0031
0000
0200
,
0000
0310
0000
0200
0000
1300
0000
0200
,
0000
0310
0000
2000
0000
3001
0000
0020
,
0000
0130
0000
2000
0000
3001
0000
0200
,
0000
0301
0000
1100
0000
1100
0000
0101
,
0000
0101
0000
1010
0000
1010
0000
0011
,
0000
0000
0000
0011
0000
0000
0000
0000
0000
2000
0000
3002
0000
2003
0000
3002
0000
0023
0000
0230
0000
0320
0000
0230
,
0000
2300
0000
0000
0000
3000
0000
0000
0000
0000
0000
0000
0000
0000
0000
0000
0000
0000
0000
0000
0000
0000
0000
0000
;

//---------------dance-single - ----------------
#NOTES:
     dance-single:
     :
     Easy:
     4:
     0.254361,0.412522,0.239985,0.673505,0.011612,230.000000,199.000000,31.000000,87.000000,0.000000,0.000000,0.254361,0.412522,0.239985,0.673505,0.011612,230.000000,199.000000,31.000000,87.000000,0.000000,0.000000:
// measure 0
0000
0000
1001
1000
,  // measure 1
0000
1000
0000
1000
,  // measure 2
0000
0001
0000
0001
,  // measure 3
0000
0001
1001
0000
,  // measure 4
1001
0000
0000
0001
0000
0001
0000
1000
,  // measure 5
0000
1000
0000
0010
0000
0100
0000
0001
,  // measure 6
0000
0000
0000
1000
0000
1000
0000
0100
,  // measure 7
0000
0100
0000
0010
0000
0001
0000
1000
,  // measure 8
0000
0000
0000
0001
0000
0001
0000
0100
,  // measure 9
0000
0100
0000
0010
0000
1000
0000
0001
,  // measure 10
0000
0000
0000
1000
0000
1000
0000
0100
,  // measure 11
0000
0100
0000
0010
0000
0001
0000
1000
,  // measure 12
0000
0000
0000
0001
0000
1000
0000
0001
,  // measure 13
0000
1000
0000
0010
0000
0010
0000
0100
,  // measure 14
0000
0000
0000
1000
0000
0001
0000
1000
,  // measure 15
0000
0001
0000
0010
0000
0010
0000
0100
,  // measure 16
0000
0000
0000
1000
0000
0001
0000
0100
,  // measure 17
0000
0010
0000
1000
0000
0100
0000
0010
,  // measure 18
0000
0000
0000
0001
0000
0010
0000
0100
,  // measure 19
0000
1000
0000
0001
0000
0100
0000
1001
,  // measure 20
0000
0000
2000
0000
3002
0000
0000
0003
0002
0000
0003
0000
2000
0000
3000
0000
,  // measure 21
0010
0100
0100
0002
0203
0320
2030
3000
,  // measure 22
2000
3200
0320
0032
0203
0302
0023
0230
,  // measure 23
2300
3020
2030
3002
2003
0000
3002
0000
,  // measure 24
0000
0000
0023
0000
0000
0030
0000
0002
,  // measure 25
0000
0003
0000
2000
0000
3000
0000
0200
,  // measure 26
0000
0300
0000
0200
0000
0300
0000
0002
,  // measure 27
0000
0003
0000
0002
0000
0003
0000
0200
,  // measure 28
0000
0000
0000
0000
0000
0000
0000
0300
0000
0000
0000
0000
0000
0000
0020
0000
,  // measure 29
0000
0030
0000
0200
0000
0300
0000
0200
,  // measure 30
0000
0300
0000
2000
0000
3000
0000
2000
,  // measure 31
0000
3000
0000
0200
0000
0300
0000
1001
,  // measure 32
0000
1001
0000
0000
0000
2000
0000
3000
,  // measure 33
0000
2000
0000
3000
0000
0200
0000
0300
,  // measure 34
0000
0200
0000
0300
0000
0020
0000
0030
,  // measure 35
0000
0020
0000
0030
0000
0002
0000
0003
,  // measure 36
0000
1000
0000
0001
0000
2000
0000
3001
,  // measure 37
0000
0020
0000
0100
0030
0200
0000
1300
,  // measure 38
0000
2000
0000
3020
0000
0230
0000
0301
,  // measure 39
0000
0020
0000
0130
0000
2000
0000
3001
,  // measure 40
0000
0200
0000
0301
0000
1001
0000
1001
,  // measure 41
0000
0110
0000
0110
0000
1001
0000
1001
,  // measure 42
0000
0110
0000
0110
0000
1001
0000
0110
,  // measure 43
0000
1001
0000
0110
0000
1001
0000
1001
,  // measure 44
0000
0000
2001
0000
0000
3000
0200
0000
0000
0300
2000
0000
0000
3000
0020
0000
,  // measure 45
0000
0030
2000
0000
0000
3000
0200
0000
0000
0300
2000
0000
0000
3000
0020
0000
,  // measure 46
0000
0030
0020
0000
0000
0030
0200
0000
0000
0300
0002
0000
0000
0003
2000
0000
,  // measure 47
0000
3000
0002
0000
0000
0003
0200
0000
0300
0000
1001
0000
0000
0000
1001
0000
,  // measure 48
0000
0000
0000
0002
0000
0003
0000
2000
,  // measure 49
0000
3000
0000
0200
0000
0300
0000
0020
,  // measure 50
0000
0030
0000
0002
0000
0003
0000
2000
,  // measure 51
0000
3000
0000
0200
0000
0300
0000
2000
,  // measure 52
0000
3100
0000
0020
0000
0031
0000
0200
,  // measure 53
0000
0310
0000
2000
0000
3001
0000
0200
,  // measure 54
0000
0310
0000
2000
0000
3001
0000
0020
,  // measure 55
0000
0130
0000
2000
0000
3001
0000
0200
,  // measure 56
0000
0301
0000
1001
0000
1001
0000
0110
,  // measure 57
0000
0110
0000
1001
0000
1001
0000
0110
,  // measure 58
0000
0000
0000
0110
0000
0000
0000
0000
0000
2000
0000
3000
0000
2000
0000
3000
0000
0002
0000
0003
0000
0002
0000
0003
,  // measure 59
0000
0200
0000
0000
0000
0300
0000
0000
0000
0000
0000
0000
0000
0000
0000
0000
0000
0000
0000
0000
0000
0000
0000
0000
;
