#TITLE:Inferno;
#SUBTITLE:Berserk 2016 Opening 1;
#ARTIST:9mm Parabellum Bullet;
#TITLETRANSLIT:;
#SUBTITLETRANSLIT:;
#ARTISTTRANSLIT:;
#GENRE:;
#CREDIT:Magna Trick;
#BANNER:IBN.jpg;
#BACKGROUND:IBG.jpg;
#LYRICSPATH:;
#CDTITLE:Magna Trick title!.png;
#MUSIC:Inferno Berserk.mp3;
#OFFSET:-0.038000;
#SAMPLESTART:46.580269;
#SAMPLELENGTH:14.000000;
#SELECTABLE:YES;
#DISPLAYBPM:195.000000;
#BPMS:0.000000=195.000000
;
#STOPS:
;
#BGCHANGES:0.063=Inferno Berserk.avi=1.000=0=0=1=====,
288.500=IBG.jpg=1.000=0=0=1=====,
99999=-nosongbg-=1.000=0=0=0 // don't automatically add -songbackground-
;
#KEYSOUNDS:;
#ATTACKS:;

//---------------dance-single - ----------------
#NOTES:
     dance-single:
     :
     Medium:
     11:
     0.561841,0.683032,0.133696,0.256250,0.000000,353.000000,341.000000,12.000000,23.000000,0.000000,0.000000,0.561841,0.683032,0.133696,0.256250,0.000000,353.000000,341.000000,12.000000,23.000000,0.000000,0.000000:
0000
0000
0000
0000
0000
0001
1000
0000
,
0001
1000
0000
0010
0000
0010
0000
0010
,
0000
0100
0001
0000
0100
0001
0000
0010
,
0000
0010
0000
0010
0000
0100
1000
0000
,
0100
1000
0000
0001
0000
0001
0000
0001
,
0000
0010
0100
0000
0010
0100
0000
0010
,
0000
0010
0000
0010
0000
1001
0000
1000
,
0000
0001
0000
0011
0000
0010
0000
0100
,
0000
1100
0000
0000
1000
0000
0001
0101
,
0000
0000
0000
1000
0001
0010
0000
0100
,
0000
1000
0000
0002
0000
0100
0000
0023
,
0000
0230
0000
2300
0000
3001
0000
0200
,
0000
0010
0000
0301
0000
1000
0010
0100
,
0010
0100
0010
1000
0010
1000
0010
1000
,
0010
0100
0001
0100
0001
0100
0001
2000
,
0000
0000
0000
3000
0000
1000
0001
1000
,
0001
1000
0001
1000
0100
1000
0100
1000
,
0100
0010
0100
0010
0100
0010
0001
2000
,
0000
0000
0000
3000
0000
0001
0000
0100
,
0001
0000
0100
0010
0000
1000
0100
0000
,
0010
0100
0000
0010
0001
0000
1000
0002
,
0000
0003
0000
1000
0000
1100
0000
0100
,
0000
0010
0001
1000
0000
1000
0000
0100
,
0010
0001
0000
0010
0100
0000
1000
0001
,
0000
0100
0000
0010
0000
1000
0100
1000
,
0000
0100
0000
0010
0001
0010
0000
0001
,
0000
1000
0001
1000
0000
0001
0000
0100
,
0010
0100
0000
0001
0100
0001
0000
0100
,
0000
0010
1000
0010
0000
0100
0000
0001
,
1000
0001
0000
1000
0100
0000
0010
0001
,
0000
2000
0000
3020
0000
0230
0000
0300
,
0000
0000
0000
0002
0000
0000
0000
0003
,
0000
0020
0000
0000
0000
0030
0000
0010
,
0000
0010
0000
0010
0000
0001
0000
1000
,
0000
0010
0000
0100
0000
0001
0000
1000
,
0000
0100
0000
0010
0000
0001
0000
1000
,
0000
0010
0000
0100
0000
0001
0000
0100
,
0010
0000
0100
0001
0000
1000
0000
0010
,
0000
1000
0000
0100
0010
0000
0001
0010
,
0000
0100
0000
1000
0000
0001
0000
0100
,
0010
0000
0100
0001
0000
1000
0000
0100
,
0000
0010
0000
0100
1000
0000
0100
0010
,
0000
0100
0000
1000
0000
0001
0000
1000
,
0001
1000
0001
1000
0000
0001
1000
0001
,
1000
0001
0001
0000
1000
1000
0000
1001
,
0000
1001
0000
0000
0000
0001
0000
0001
,
0000
0001
0000
1000
0000
1000
0000
1000
,
0000
0100
0000
0010
0000
0001
0010
0001
,
0000
0010
0000
0100
1000
0100
0000
0010
,
0000
0001
0000
1000
0000
0100
0000
0010
,
0100
0010
0000
0100
0000
0001
0000
1000
,
0000
0100
0000
0010
0000
0100
1000
0001
,
1000
0001
1000
0001
0100
0010
0100
0010
,
0100
0001
0010
0001
0010
0001
1000
0100
,
1000
0100
1000
0100
0010
0001
1000
0010
,
0100
0001
1000
0200
0000
0000
0300
0100
,
0010
0001
1000
0010
0100
0001
1000
0020
,
0000
0000
0000
0030
0000
0000
0000
0001
,
1000
0001
1000
0200
0000
0320
0000
0030
,
0000
0000
0000
0001
0010
0001
0010
0002
,
0000
1003
0000
0001
1000
1001
0000
0100
,
0000
0001
0000
1100
0000
1000
0000
0001
,
0000
0101
0000
0010
0000
1000
0001
1000
,
1000
2000
0000
3000
0000
1000
0000
0100
,
0000
1000
0000
0001
0000
0010
0000
0001
,
0000
1000
0000
0100
0000
1000
0000
0002
,
0000
0000
0000
0000
0003
0100
0000
0001
,
0000
0100
0000
0010
0000
1000
0000
0010
,
0000
0100
0000
0001
0000
0100
0000
0020
,
0000
0000
0000
0000
0030
1000
0000
0001
,
1000
0000
0001
1000
0000
0100
0000
0010
,
0000
0110
0100
0100
1000
0001
0001
2002
,
0000
3003
0000
0000
0000
0000
0000
0000
;

//---------------dance-single - ----------------
#NOTES:
     dance-single:
     :
     Hard:
     15:
     0.832416,0.964281,0.267392,0.178261,0.267392,523.000000,499.000000,24.000000,16.000000,0.000000,0.000000,0.832416,0.964281,0.267392,0.178261,0.267392,523.000000,499.000000,24.000000,16.000000,0.000000,0.000000:
0000
0000
0000
0000
0000
0000
0000
0000
0000
0000
1000
0100
1000
0000
0000
0000
,
0001
0010
0001
0000
0000
0000
0100
0000
0001
0000
0100
0000
1000
0000
0100
0000
,
0000
0000
0010
0001
0010
0000
0000
0000
0100
1000
0100
0000
0000
0000
0010
0000
,
1000
0000
0010
0000
0001
0000
0010
0000
0000
0000
1000
0001
1000
0000
0000
0000
,
0001
1000
0001
0000
0000
0000
1000
0000
0100
0000
1000
0000
0010
0000
1000
0000
,
0000
0000
0100
0010
0100
0000
0000
0000
0010
0100
0010
0000
0000
0000
0001
0000
,
0010
0001
0100
0001
0000
1001
0000
0001
,
0000
1000
0000
1100
0000
0100
0000
0010
,
0000
0011
0000
0000
0001
0000
1000
2010
,
0000
0000
0000
3100
0010
0001
0010
1000
,
0010
0001
0010
0100
1000
0100
0001
0100
,
1000
0000
0010
0000
0001
0000
0010
0000
1000
0000
0010
0000
0001
0000
1000
0100
,
0001
1000
0000
0010
0000
0100
0010
1000
,
0010
0001
0010
1000
0100
0010
0100
0001
,
0100
0010
1000
0010
0100
0010
0001
0100
,
0010
1000
0100
1000
0010
0100
0001
0100
,
1000
0100
0001
0010
0100
0010
1000
0010
,
0001
0100
1000
0100
0010
0100
0001
2000
,
0000
0000
0001
0000
3000
0000
0010
0000
0000
0000
0100
0001
0100
0000
0010
0000
,
1000
0010
1000
0010
1000
0001
0100
0000
0000
0000
0001
0000
0010
0000
0000
0000
,
0100
0000
0010
0100
0010
0000
0001
1000
0001
1000
0001
0100
0010
1000
0001
0000
,
0100
0000
0001
0000
1000
0000
0100
0000
1000
0000
0001
0010
0001
0010
0001
0000
,
0100
0000
0010
0000
1000
0000
0100
0010
0100
0010
0100
0000
0000
0000
0010
0000
,
0001
0000
1000
0001
1000
0000
0100
0000
0010
1000
0010
1000
0010
0001
1000
0000
,
0100
1000
0001
0100
0001
1001
0010
0001
,
1000
0000
0100
0000
0010
0000
0001
0000
0100
0000
0010
0000
1000
0001
1000
0000
,
0000
0001
1000
0001
0100
0010
1000
0100
,
0010
0000
0001
0000
1000
0001
1000
0000
0010
0000
1000
0100
1000
0100
0010
0000
,
0000
0000
0100
0000
0010
0000
0001
0100
0001
0100
0010
0000
0000
0000
1000
0000
,
0000
0000
0110
0000
0000
0000
0001
0010
0001
0000
0000
0000
1000
0100
1000
0000
,
0000
0002
0000
0203
0000
0320
0000
1030
,
0100
1000
0100
2000
0000
0100
0000
3000
,
0010
0200
0000
0000
0001
0300
0010
0100
,
0000
0000
0010
0000
1000
0001
0100
0000
0000
0000
0010
0000
0000
0000
1000
0000
,
0100
0010
0001
1000
0000
1000
0000
0000
,
0001
0010
0000
0000
0100
0000
1000
0001
,
0000
0100
0000
0010
0000
1000
0010
1000
,
0100
0001
0100
1000
0000
0010
0000
0100
,
0000
0001
0010
0001
0100
1000
0100
0001
,
0000
0010
0000
0001
0000
1000
0010
0001
,
0010
1000
0100
0001
0100
1000
0001
0010
,
0100
1000
0000
0010
0001
0000
0010
0100
,
0000
0010
0000
1000
0000
1001
1000
0001
,
0100
0001
1000
0010
1000
0001
0100
0010
,
1000
1001
1001
0000
1001
1001
0000
1001
,
0000
1001
0000
0000
0000
1010
0000
0010
,
0000
0100
0000
0101
0000
0001
0000
0100
,
0000
0110
0000
0000
0010
1000
0100
0010
,
0000
0000
0000
0000
0001
0010
0001
0000
1000
0000
0100
0000
0001
0000
1000
0000
,
0010
0001
0100
0001
0100
0010
1000
0100
,
0010
1000
0001
0100
1000
0010
0100
0001
,
1000
0001
1000
0000
0000
0000
0100
0000
0000
0000
0010
0000
0001
0000
0100
0000
,
0001
1000
0010
1000
0100
0001
0100
0010
,
1000
0010
0100
0001
0100
1000
0010
1000
,
0100
0001
1000
0010
0001
0100
0010
0001
,
1000
0100
0010
2000
0000
0100
3000
0010
,
1000
0100
0001
0100
0010
1000
0001
0200
,
0000
1000
0000
0301
0000
0110
0000
1000
,
0001
1000
0001
0020
0000
0230
0000
1300
,
0000
0000
0001
0000
0000
0000
1000
0000
0100
0000
1000
0000
0100
0000
0010
0001
,
0010
0000
0001
1000
0001
0000
1000
0000
0001
0000
1001
0000
0000
0000
0010
0000
,
0000
1000
0000
0011
0000
0001
0000
1000
,
0000
1010
0001
1000
0001
1000
0001
1001
,
0001
0000
0012
0000
0000
0000
0103
0010
0100
0010
1000
0000
0010
0000
1000
0000
,
0010
1000
0010
0100
0001
0100
0001
0100
,
0001
0010
0100
0010
0100
0010
0100
2000
,
0000
0000
0000
0000
3000
0010
1000
0010
,
1000
0010
1000
0100
0001
0100
0001
0100
,
0001
1000
0010
0001
0100
0010
1000
0200
,
0000
0000
0000
0000
0000
0000
0000
0000
0300
0000
0001
0010
0001
0000
0000
0000
,
1000
0000
0000
0100
0000
0000
1000
0000
0000
0000
0000
0000
0000
0000
0000
0000
0000
0000
0001
0000
0000
0000
0010
0000
0000
0000
0100
0000
0000
0000
1000
0000
0000
0000
0010
0000
0000
0000
0100
0000
0000
0000
0001
0000
0000
1000
0000
0000
,
0001
0110
0010
0010
0001
1000
1000
2002
,
0000
3003
0000
0000
0000
0000
0000
0000
;

//---------------dance-single - ----------------
#NOTES:
     dance-single:
     :
     Challenge:
     18:
     1.109357,1.285708,0.534783,0.133696,0.947012,697.000000,649.000000,48.000000,12.000000,0.000000,0.000000,1.109357,1.285708,0.534783,0.133696,0.947012,697.000000,649.000000,48.000000,12.000000,0.000000,0.000000:
// measure 0
0000
0000
0000
0000
0000
0000
0000
0000
0000
0000
0010
0001
0010
0100
1000
0100
,  // measure 1
0010
0000
0000
0001
0000
0000
1000
0000
0000
0010
0000
0000
0100
0000
0000
0001
0000
0000
1000
0000
0000
0000
0010
0000
0000
0000
1000
0000
0000
0000
0001
0000
0000
0000
0100
0000
0000
0000
0001
0000
0000
0000
1000
0000
0000
0000
0000
0000
,  // measure 2
0000
0000
0000
0000
0000
0000
0010
0000
0000
1000
0000
0000
0010
0000
0000
0100
0000
0000
0001
0000
0000
0100
0000
0000
0010
0000
0000
1000
0000
0000
0100
0000
0000
0010
0000
0000
0001
0000
0000
0100
0000
0000
0010
0000
0000
0000
1000
0000
,  // measure 3
0000
0000
0100
0000
0000
0000
0010
0000
0000
0000
0100
0000
0000
0000
0001
0000
0000
0000
0100
0000
0000
0000
0000
0000
0000
0000
0000
0000
0000
0000
1000
0000
0000
0001
0000
0000
1000
0000
0000
0010
0000
0000
0100
0000
0000
0001
0000
0000
,  // measure 4
1000
0000
0000
0001
0000
0000
0010
0000
0000
0100
0000
0000
1000
0000
0000
0010
0000
0000
0100
0000
0000
0000
0001
0000
0000
0000
0100
0000
0000
0000
0010
0000
0000
0000
0100
0000
0000
0000
1000
0000
0000
0000
0100
0000
0000
0000
0000
0000
,  // measure 5
0000
0000
0000
0000
0000
0000
0010
0000
0000
1000
0000
0000
0100
0000
0000
1000
0000
0000
0010
0000
0000
0100
0000
0000
0001
0000
0000
0100
0000
0000
0010
0000
0000
1000
0000
0000
0100
0000
0000
0010
0000
0000
0001
0000
0000
0000
0100
0000
,  // measure 6
0000
0010
0000
1000
0000
0001
0000
0100
0000
0010
0000
0000
0000
0000
0000
1001
0000
0000
0000
0000
0000
1000
0000
0000
,  // measure 7
0000
0001
0000
0011
0000
0010
0000
0100
,  // measure 8
0000
1100
0000
0000
1000
0000
0001
0102
,  // measure 9
0000
0000
0000
0013
0100
1000
0100
0001
,  // measure 10
0100
1000
0100
0010
0001
0010
1000
0010
,  // measure 11
0001
0000
0100
0000
1000
0000
0100
0000
0001
0000
0100
0000
1000
0000
0001
0010
,  // measure 12
1000
0000
0001
0000
0000
0000
0100
0000
0000
0000
0010
0100
0001
0000
1000
0000
,  // measure 13
0100
0000
1000
0000
0100
0000
0010
0001
1000
0000
0100
0000
0010
0000
0100
0000
,  // measure 14
0010
0000
0001
0100
0010
0000
1000
0000
0010
0000
1000
0001
1000
0010
0100
0000
,  // measure 15
0001
0000
0010
0000
0100
0000
0001
0000
0100
0000
0010
1000
0001
0000
0100
0000
,  // measure 16
0001
0000
0100
0000
0001
0000
0100
1000
0010
0000
0100
0000
0001
0000
0100
0000
,  // measure 17
1000
0000
0001
0010
1000
0000
0010
0000
0100
0000
0010
1000
0001
0100
0002
0000
,  // measure 18
0010
0000
0103
0000
1000
0000
0001
0000
0000
0000
0010
0001
1000
0000
0100
0000
,  // measure 19
0001
0100
1000
0001
0010
1000
0001
0000
0000
0000
0100
0000
0010
0000
0000
0000
,  // measure 20
0001
0000
0100
1000
0001
0000
1000
0010
0001
1000
0100
0001
0010
0100
1000
0000
,  // measure 21
1000
0000
0010
0000
0010
0000
0100
0000
0100
0000
0001
0100
0010
0001
1000
0000
,  // measure 22
0100
0000
0001
0000
0010
0000
0100
0001
1000
0010
0100
0000
0000
0000
0010
0000
,  // measure 23
0001
0000
0100
0010
0001
0000
1000
0000
0100
0001
0010
1000
0001
0100
1000
0000
,  // measure 24
0010
0000
0100
0000
0001
0000
0010
0000
0100
0000
1100
0000
1000
0000
0001
0010
,  // measure 25
0001
0000
0010
0100
0010
0000
1000
0000
0010
0100
0010
0000
0001
1000
0010
0000
,  // measure 26
0000
0000
0100
0000
0001
1000
0010
0000
1000
0000
0100
0000
0010
0000
0001
0000
,  // measure 27
0100
0000
0010
0000
1000
0001
0100
0000
0010
0000
0001
0010
1000
0001
0100
0000
,  // measure 28
0000
0000
0100
0000
0010
0000
1000
0010
0001
1000
0100
0000
0000
0000
0001
0000
,  // measure 29
0000
0000
0110
0000
0010
0000
0100
1000
0001
0010
0001
0000
1000
0100
0001
0000
,  // measure 30
0000
0000
0200
0000
0000
0000
2300
0000
0000
3000
1002
0000
0000
0000
0103
0000
,  // measure 31
0010
1000
0010
2010
0000
0010
0000
0000
,  // measure 32
3100
0120
0000
0000
1000
0030
0010
0011
,  // measure 33
0000
0000
0001
0000
0010
0100
1000
0000
0000
0000
0110
0000
0000
0000
0001
0000
,  // measure 34
0010
0100
1000
1001
0000
0002
0000
1003
,  // measure 35
0100
0010
0000
0001
0010
0000
0001
1000
,  // measure 36
0000
0000
0110
0000
0000
0000
1001
0000
0000
0000
0100
1000
0100
0010
0001
0010
,  // measure 37
0100
0000
0000
1000
0000
0000
0001
0000
0000
0100
0000
0000
0010
0000
0000
1000
0000
0000
0001
0000
0000
0000
0100
0000
0000
0000
0001
0000
0000
0000
1000
0000
0000
0000
0010
0000
0000
0000
1000
0000
0000
0000
0001
0000
0000
0000
0000
0000
,  // measure 38
0000
0000
0000
0000
0000
0000
0100
0000
0000
0001
0000
0000
0100
0000
0000
0010
0000
0000
1000
0000
0000
0010
0000
0000
0100
0000
0000
0001
0000
0000
0010
0000
0000
0100
0000
0000
1000
0000
0000
0010
0000
0000
0100
0000
0000
0000
0001
0000
,  // measure 39
0000
0000
0010
0000
0000
0000
0100
0000
0000
0000
0010
0000
0000
0000
1000
0000
0000
0000
0010
0000
0000
0000
0000
0000
0000
0000
0000
0000
0000
0000
0001
0000
0000
1000
0000
0000
0001
0000
0000
0100
0000
0000
0010
0000
0000
1000
0000
0000
,  // measure 40
0001
0000
0000
1000
0000
0000
0100
0000
0000
0010
0000
0000
0001
0000
0000
0100
0000
0000
0010
0000
0000
0000
1000
0000
0000
0000
0010
0000
0000
0000
0100
0000
0000
0000
0010
0000
0000
0000
0001
0000
0000
0000
0010
0000
0000
0000
0000
0000
,  // measure 41
0000
0000
0000
0000
0000
0000
0100
0000
0000
0001
0000
0000
0010
0000
0000
0001
0000
0000
0100
0000
0000
0010
0000
0000
1000
0000
0000
0010
0000
0000
0100
0000
0000
0001
0000
0000
0010
0000
0000
0100
0000
0000
1000
0000
0000
0000
0010
0000
,  // measure 42
0000
0100
0000
0001
0000
1000
0000
0010
0000
0100
0000
0000
0000
0000
0000
1001
0000
0000
0001
0000
0000
1000
0000
0000
,  // measure 43
0010
1000
0001
0100
0001
1000
0010
0100
,  // measure 44
0001
0101
0011
0000
1100
1010
0000
0110
,  // measure 45
0000
0000
0000
1001
0000
0000
0000
0000
0001
1000
0000
0000
0000
0000
0000
0101
0000
0000
0000
0000
0000
0100
0000
0000
,  // measure 46
0000
0010
0000
1010
0000
1000
0000
0010
,  // measure 47
0000
0110
0000
0000
0100
0001
0010
1200
,  // measure 48
0000
0000
0300
0000
1000
0100
1000
0000
0001
0000
0010
0000
1000
0000
0001
0000
,  // measure 49
0100
0000
1000
0000
0010
1000
0001
0000
0010
0000
0100
0000
0010
0000
0001
0000
,  // measure 50
0100
0010
1000
0000
0001
0000
0010
0000
0001
0000
0100
0000
0010
0000
1000
0100
,  // measure 51
0010
0001
0010
0100
1000
0010
0100
0000
0000
0000
0101
0000
1000
0000
0010
0000
,  // measure 52
1000
0001
0100
1001
0010
1000
0010
0100
,  // measure 53
0001
1100
0010
1000
0110
0001
1010
0011
,  // measure 54
0100
1000
0001
0100
1000
0110
0001
1000
,  // measure 55
0001
0010
0100
1001
0010
1000
0001
0100
,  // measure 56
0001
0110
1000
0010
0100
0001
1000
0110
,  // measure 57
1000
0000
0001
0000
0100
0000
0010
1000
0001
1000
0110
0000
0000
0000
0001
0000
,  // measure 58
0001
0001
1000
0100
0001
0010
0001
0100
,  // measure 59
1000
0000
0010
0000
0100
0000
0001
0000
0001
0000
0001
0000
0010
0000
0100
1000
,  // measure 60
0001
0010
1000
0001
0100
1000
0010
0100
0001
0010
1001
0000
0000
0000
0100
0000
,  // measure 61
0000
0001
0000
1100
0001
1000
0000
0001
,  // measure 62
0000
0000
0101
0000
1000
0010
0100
0000
0001
0000
0001
0000
1000
0000
1001
0000
,  // measure 63
1000
0000
2100
0000
0000
0000
3010
0100
0010
0100
0001
0000
0100
0000
0001
0000
,  // measure 64
0100
0000
0001
0100
0001
0100
0010
0000
1000
0000
0010
0000
1000
0000
0010
1000
,  // measure 65
0010
1000
0100
0000
0010
0000
0100
0000
0010
0000
0100
0010
0100
0010
0001
0000
,  // measure 66
1000
0000
0001
0000
1000
0000
0001
0000
1000
0000
0100
0010
0001
0000
0100
0000
,  // measure 67
0001
0000
0100
0000
0001
0000
0010
0100
1000
0000
0010
0000
1000
0000
0010
0000
,  // measure 68
1000
0000
0001
0100
1000
0001
0010
1000
0001
0100
1000
0100
0010
1000
0100
0010
,  // measure 69
0001
0000
0000
0010
0000
0000
0001
0000
0000
0100
0000
0000
0010
0000
0000
0100
0000
0000
0010
0000
0000
1000
0000
0000
0001
0000
0000
0010
0000
0000
0100
0000
1000
0000
0010
0000
0100
0000
0000
0000
0000
0000
0000
0000
0000
0000
0000
0000
,  // measure 70
0010
0000
0001
0000
0100
0000
0010
0000
0000
0000
0000
0000
0000
0000
0000
0000
0000
0000
1000
0000
0001
0000
0100
0000
0010
0000
0000
0000
0000
0000
0001
0000
1000
0000
0010
0000
0100
0000
0000
0000
0000
0000
1000
0000
0000
0001
0000
0000
,  // measure 71
0000
1100
1100
1100
1001
0011
0011
0022
,  // measure 72
0000
0033
0000
0000
0000
0000
0000
0000
;

//---------------dance-single - ----------------
#NOTES:
     dance-single:
     :
     Easy:
     9:
     0.397904,0.683032,0.189402,0.155978,0.000000,250.000000,233.000000,17.000000,14.000000,0.000000,0.000000,0.397904,0.683032,0.189402,0.155978,0.000000,250.000000,233.000000,17.000000,14.000000,0.000000,0.000000:
0000
0000
0000
0000
,
0000
0000
0000
0000
,
0000
0000
0000
0000
,
0000
0000
0000
0000
,
0000
0000
0000
0000
,
0000
0000
0000
0000
,
0000
0000
0000
0000
0000
1001
0000
0000
,
0000
0000
0000
1001
0000
0000
0000
0000
,
0000
1001
0000
0000
0000
0000
0000
1001
,
0000
0000
0000
0000
0000
0010
0000
0100
,
0000
0010
0000
0200
0000
0000
0000
0301
,
0000
0010
0000
0001
0000
0010
0000
0200
,
0000
0000
0000
1300
0000
0002
0000
0100
,
0000
0100
0000
0010
0000
0010
0000
0010
,
0000
1000
0000
1000
0000
1000
0003
0200
,
0000
0000
0000
0300
0000
0010
0000
0010
,
0000
0010
0000
1000
0000
1000
0000
1000
,
0000
0001
0000
0001
0000
0001
0000
0020
,
0000
0000
0000
0000
0030
0001
0000
0000
,
1000
0000
0000
0010
0000
0000
0100
0000
,
0000
0001
0000
0000
1000
0000
0000
0100
,
0000
0000
0000
0010
0000
0001
0000
0000
,
0000
1000
0000
0010
0000
0000
0000
0100
,
0000
0001
0000
1000
0001
0000
1000
0001
,
0000
0000
0000
0000
0000
0010
0100
0010
,
0000
0000
0000
0100
0010
0100
0000
0000
,
0000
1000
0001
1000
0000
0000
0000
0001
,
1000
0001
0000
0000
0000
0100
0000
0000
,
0000
0000
0000
0010
0000
0000
0000
0000
,
0000
0011
0000
1000
1100
0000
0001
0012
,
0000
0000
0000
0000
0000
1003
0000
0000
,
0000
0000
0000
0100
0000
0000
0000
0000
,
0000
0001
0000
0000
1000
0000
0100
1000
,
0000
0000
0000
0000
0000
0001
0000
0000
,
0000
0000
0000
0010
0000
0000
0000
0000
,
0000
0001
0000
0000
0100
0000
0010
0100
,
0000
0000
0000
0000
0000
0001
0000
0000
,
0001
0000
0000
1000
0000
0100
0000
1000
,
0000
0001
0000
0000
0001
0000
0000
1000
,
0000
0100
0000
1000
0000
0001
0000
0000
,
0001
0000
0000
1000
0000
0100
0000
1000
,
0000
0001
0000
0000
0001
0000
0000
1000
,
0000
0100
0000
1000
0000
0010
0000
0100
,
0000
0001
0000
0100
0000
0010
0000
1000
,
0000
0001
1000
0000
0001
1000
0000
1001
,
0000
1001
0000
0110
0000
0101
0000
1000
,
0000
0010
0000
0101
0000
0010
0000
1000
,
0000
0101
0000
0000
0010
0000
1000
0200
,
0000
0000
0300
0010
0000
0001
0000
1000
,
0000
0010
0000
0200
0000
0000
0300
0001
,
0000
0100
0000
0010
0000
1000
0000
0200
,
0000
0000
0000
0000
0300
0010
0000
0001
,
0000
1000
0000
0010
0000
0100
0000
0001
,
0000
1000
0000
0010
0000
1000
0000
0001
,
0000
0010
0000
0001
0000
1000
0000
0010
,
0000
0100
0000
0001
0000
1000
0000
0010
,
0000
1000
0000
0001
0000
0010
0000
0002
,
0000
0000
0000
0000
0003
1000
0000
0010
,
0000
1000
0001
1000
0000
0001
0000
0100
,
0000
0010
0000
0100
0000
0001
0100
0001
,
0000
1000
0000
0100
0000
0011
0000
0100
,
0000
1000
0000
1010
0000
0001
0000
0100
,
0000
1001
0000
0000
0010
0000
0100
0001
,
1000
0010
0000
0000
0000
1000
0100
1000
,
0100
1000
0100
0010
0001
0010
0001
0010
,
0001
1000
0001
1000
0001
1000
0010
0200
,
0000
0000
0000
0000
0300
0001
0100
0001
,
0100
0001
0100
0010
1000
0010
1000
0010
,
1000
0100
0010
0001
1000
0010
0100
0002
,
0000
0000
0000
0003
0000
1000
0000
0000
,
0010
0000
0000
0100
0000
0001
0000
1000
,
0000
0001
1000
0001
1000
0001
1000
0220
,
0000
0330
0000
0000
0000
0000
0000
0000
;
