#TITLE:Imagination;
#SUBTITLE:Haikyu!! Opening;
#ARTIST:Spyair;
#TITLETRANSLIT:;
#SUBTITLETRANSLIT:;
#ARTISTTRANSLIT:;
#GENRE:;
#CREDIT:Magna Trick;
#BANNER:IMABN.jpg;
#BACKGROUND:IMABG.jpg;
#LYRICSPATH:;
#CDTITLE:Magna Trick title!.png;
#MUSIC:Imagination.mp3;
#OFFSET:-0.097792;
#SAMPLESTART:37.000000;
#SAMPLELENGTH:14.000000;
#SELECTABLE:YES;
#BPMS:0.000000=101.980003
,61.500000=152.970001
,63.000000=203.960007
,132.000000=101.980003
,148.000000=203.960007
,188.000000=407.920013
,268.000000=203.660004
;
#STOPS:61.500000=0.130000,
131.500000=0.450000
;
#BGCHANGES:0.083=Imagination.avi=1.000=0=0=1=====,
267.000=IMABG.jpg=1.000=0=0=1=====,
99999=-nosongbg-=1.000=0=0=0 // don't automatically add -songbackground-
;
#KEYSOUNDS:;
#ATTACKS:;

//---------------dance-single - ----------------
#NOTES:
     dance-single:
     :
     Hard:
     12:
     0.545635,0.796712,0.184462,0.412326,0.298394,352.000000,335.000000,17.000000,38.000000,0.000000,0.000000,0.545635,0.796712,0.184462,0.412326,0.298394,352.000000,335.000000,17.000000,38.000000,0.000000,0.000000:
0000
0000
0000
0000
,
0000
0000
0000
0000
,
0000
0000
0000
0000
0000
0000
0000
0000
0001
0000
0010
0000
0100
0000
1000
0001
,
0000
0100
0000
0010
0000
0000
0000
0000
0010
0000
1000
0000
0001
0000
0100
0010
,
0000
1000
0000
0100
0000
0000
0000
0000
0100
0000
0010
0000
0110
0000
0000
0001
,
0000
0000
1000
0000
1001
0000
0000
1000
0000
0000
0010
0100
0001
0000
1000
0100
,
0000
0010
0000
0001
0000
0000
0000
0000
0010
0000
0100
0000
1000
0000
0001
0000
,
0100
0010
0100
0000
0010
0000
1000
0000
0100
1000
0100
0000
1000
0000
0010
0000
,
0100
0001
0100
0000
0001
0000
1000
0000
0100
1000
0100
0000
0010
0000
0001
0010
,
0000
0010
0001
0000
1000
0000
0010
1000
0000
1000
0010
0000
1000
0000
0001
1000
,
0100
0010
0001
0001
0100
1000
0001
0000
,
0000
0000
0000
0000
0100
0001
0000
0001
1000
0000
1000
0100
0000
0000
0010
0000
,
0010
0001
2000
0000
3010
0000
0110
0000
,
0000
0000
0000
0000
0100
0001
0000
0001
1000
0000
1000
0100
0000
0000
0020
0000
,
0000
0032
0000
0000
0000
0003
2001
0000
,
0000
0000
0000
0000
0000
0000
0000
0000
3001
0000
0001
0000
0001
0000
0000
1000
0000
0000
0001
0000
0000
0000
0000
0000
0001
0000
0000
0000
0000
0000
0000
0000
,
1000
0100
0000
1000
0001
0000
0100
0000
,
0001
0010
0000
0001
0100
0000
0010
0000
,
0010
1000
1000
0001
,
0001
0000
0000
0010
0100
0000
1000
0000
,
0001
0100
0000
0010
0100
0000
0001
0000
,
1000
0100
0000
0010
0100
1000
0001
0000
,
0100
0010
0010
2000
,
3000
0000
0000
0001
0010
1000
0010
0000
,
0001
0100
0000
1000
0100
0001
0100
0000
,
1000
0100
0000
0001
0010
1000
0020
0000
,
0230
2300
3020
0230
,
0302
0000
0003
1000
0100
1000
0002
0000
,
0203
0302
0023
0230
,
2300
0000
3002
0000
0203
0000
0310
0100
,
0000
0010
0000
1000
0001
1000
0010
0100
,
0001
1000
0100
0010
0001
0010
0100
1100
,
1000
0000
0110
0010
0000
0011
0000
1001
,
0001
1000
0000
0001
0000
1000
0100
0000
0010
0001
0000
0010
0000
0100
1000
0000
,
0001
0100
0000
0010
0000
0010
0000
1000
0000
1000
0000
0001
0000
0001
0000
0000
,
1000
0100
0000
1000
0000
0001
0100
0000
0001
1000
0000
0100
0000
1000
0010
0000
,
0100
0001
0010
0100
0000
1000
0000
0100
0000
0010
0000
0002
0000
0000
0003
0000
,
0010
0001
0100
0010
0000
0001
0010
0000
,
1000
0100
0010
1000
0000
0010
0100
0000
,
1000
0010
0100
0002
0000
2003
0000
3200
,
0000
0320
0000
0032
0000
2003
0000
3000
,
0010
0100
1000
0200
0000
0320
0000
0032
,
0000
0023
0000
2030
0000
3200
0000
0302
,
0000
2003
0000
3010
0001
0000
0100
0000
,
0100
0000
0100
0000
0100
0010
0100
0010
,
0100
0010
0100
0010
0110
0010
0000
0110
,
0100
1001
0220
0330
,
1001
0001
0000
1000
,
0000
0100
1000
0000
,
0001
0100
0001
0100
,
0000
0010
1000
0000
,
0001
0010
0001
0010
,
0000
0001
1000
0000
,
0010
1000
0010
1000
,
0000
0100
1000
0010
,
0100
0001
0010
0010
,
0000
0100
1000
0010
,
0100
0100
0010
1000
,
1000
0001
0010
0010
,
0100
1000
1000
0001
,
0100
0100
0010
0001
,
0010
1000
0100
0001
,
0000
1000
0010
0001
,
0010
0100
1000
0100
,
0011
0001
0000
1100
,
0100
0000
1001
0100
,
2002
0000
0000
3003
;

//---------------dance-single - ----------------
#NOTES:
     dance-single:
     :
     Challenge:
     14:
     0.723896,1.013997,0.434028,0.499132,0.699870,467.000000,427.000000,40.000000,46.000000,0.000000,0.000000,0.723896,1.013997,0.434028,0.499132,0.699870,467.000000,427.000000,40.000000,46.000000,0.000000,0.000000:
// measure 0
0000
0000
0000
0000
0000
0000
0000
0000
0000
0000
0000
0001
0010
0000
0100
0000
,  // measure 1
1000
0001
1000
0100
0000
0010
0001
0000
1000
0001
1000
0000
0010
0000
0100
0000
,  // measure 2
0001
1000
0001
0010
0000
0100
1000
0000
1000
0100
0010
0000
0011
0000
0001
1000
,  // measure 3
0000
0010
0000
0200
0000
0000
0300
0000
0100
0001
1000
0000
1100
0000
0010
0100
,  // measure 4
0000
1000
0000
0020
0000
0000
0030
0000
0100
0010
1000
0000
1100
0000
0001
1000
,  // measure 5
0000
1000
0001
0000
0101
0000
1000
0001
0000
0100
0100
0010
0101
0000
0001
0010
,  // measure 6
0000
0000
0100
0000
0000
0000
1000
0000
0001
0000
1000
0000
0001
0000
0000
0000
0100
0010
0100
0000
0010
0000
1000
0000
0001
0000
0000
0000
1000
0000
0100
0000
,  // measure 7
0000
0010
0001
0100
0010
0000
1000
0000
0010
0001
0010
1000
0100
0000
0010
0001
,  // measure 8
0000
1000
0010
0100
0001
0000
0010
0000
0100
1000
0010
0100
0001
0000
1000
0100
,  // measure 9
0000
0100
1000
0001
0001
0000
0100
0001
0000
0001
0100
1000
0001
0000
1000
0001
,  // measure 10
0010
1000
0100
0000
1000
0000
1000
0000
0010
1000
0001
1000
0100
0000
0000
0100
,  // measure 11
0000
0000
0100
0000
0010
0001
0000
1000
0010
0000
0100
0010
0000
0000
0100
0001
,  // measure 12
0100
0000
1000
0000
0001
1000
0100
0000
0001
0010
0000
0000
1100
0000
1000
0001
,  // measure 13
0000
0001
1000
0000
0010
0100
0000
0001
1000
0000
0100
0010
0000
0000
0200
0000
,  // measure 14
0000
0000
2300
0000
0000
0001
0001
0001
0001
0001
3001
0001
1002
0000
0000
0000
,  // measure 15
0000
0000
0000
0000
0000
0000
0003
0000
1100
0000
0101
0000
1001
0000
0000
0001
0000
0000
1000
0000
0000
0000
0000
0000
1000
0000
0000
0000
0000
0000
0000
0000
,  // measure 16
0001
0010
0000
0001
1000
0100
0010
0000
,  // measure 17
0001
0100
0000
1000
0100
0001
0100
0000
,  // measure 18
0100
0001
0001
1000
,  // measure 19
1000
0000
0000
0100
0010
0001
1000
0000
,  // measure 20
0010
0100
0000
0001
0010
0100
1000
0000
,  // measure 21
0001
0010
0000
0100
0010
0001
1000
0000
,  // measure 22
0010
0100
0100
0002
,  // measure 23
0003
0000
0000
0000
0000
0001
1000
0000
0000
1000
0001
0000
0110
0000
0000
0000
,  // measure 24
0010
0100
0000
0001
0010
0100
0110
0000
,  // measure 25
1000
0100
0000
1000
0100
1000
1200
0000
,  // measure 26
0320
0000
0000
0030
0102
0000
0000
0000
0203
0000
0000
0300
1002
0000
0000
0000
,  // measure 27
2003
0000
3000
0001
0010
0001
2001
0000
,  // measure 28
3020
2030
3200
0320
,  // measure 29
0032
0000
0000
0000
0000
0000
2003
0000
0000
0000
0000
0000
3002
0000
0000
0000
0000
0000
0013
0000
0000
0100
0000
1000
,  // measure 30
0000
0100
0000
1000
0000
0100
0000
1000
0000
0001
0000
0100
0000
0001
0000
0100
0000
0001
0000
0100
0000
0010
0000
1000
,  // measure 31
0000
0010
0000
1000
0000
0010
0000
1000
0000
0001
0000
0010
0000
0001
0000
0010
0000
0001
0000
0010
0000
0011
0000
0000
,  // measure 32
0001
0000
0110
0100
0000
1100
0000
1001
,  // measure 33
1000
0001
0000
1001
0000
0001
0010
0000
0100
1000
0000
1001
0000
0010
0001
0000
,  // measure 34
1000
0010
0100
1001
0000
0100
0000
0001
0000
0001
0000
1001
0000
1000
0000
0000
,  // measure 35
0001
0010
0100
1001
0000
1000
0100
0000
1000
0001
0100
1001
0000
0001
0100
0000
,  // measure 36
0010
1000
0100
0020
0000
0032
0000
0023
0000
0230
0000
2300
0000
0000
3001
0000
,  // measure 37
0100
0010
0100
0010
0100
0000
0001
0000
0000
0000
1000
0000
0100
0000
0000
0000
,  // measure 38
1000
0100
0001
0100
0000
0010
0001
0000
,  // measure 39
0001
0000
0100
0000
0010
0000
2100
0000
0000
0000
3020
0000
0000
0030
0102
0000
,  // measure 40
0000
0000
0023
0000
0000
0030
2001
0000
0000
0000
3002
0000
0000
0000
0003
0000
,  // measure 41
0100
0010
1000
0120
0000
0230
0000
2300
,  // measure 42
0000
3200
0000
0302
0000
0023
0000
0230
,  // measure 43
0000
0000
0000
2300
0000
0000
0000
0000
0000
3100
0000
0000
1000
0000
0001
0000
1000
0000
0001
0000
1000
0000
0001
0000
,  // measure 44
0100
0010
0100
0010
0100
0010
1000
0100
1000
0100
1000
0100
,  // measure 45
0010
0000
0001
0000
0010
0000
0001
0000
0010
0000
0001
0000
0110
0000
0000
0100
0000
0000
0000
0000
0000
0110
0000
0000
,  // measure 46
0010
1001
0220
0330
,  // measure 47
1001
1000
0000
1001
,  // measure 48
0000
0010
0001
0000
,  // measure 49
1000
0010
1000
0020
,  // measure 50
0030
0100
0001
0000
,  // measure 51
1000
0100
1000
0200
,  // measure 52
0300
1000
0001
0000
,  // measure 53
0100
0001
0100
0002
,  // measure 54
0003
0010
0001
0100
,  // measure 55
0010
1000
0100
0100
,  // measure 56
0000
0010
0001
0100
,  // measure 57
0010
0010
0100
0001
,  // measure 58
0001
1000
0100
0100
,  // measure 59
0010
0001
0001
1000
,  // measure 60
0010
0010
0100
1000
,  // measure 61
0100
0001
0010
1000
,  // measure 62
0000
0001
0100
1000
,  // measure 63
0100
0010
0001
0010
,  // measure 64
1100
1000
0000
0011
,  // measure 65
0010
0000
1001
0010
,  // measure 66
2002
0000
0000
3003
;

//---------------dance-single - ----------------
#NOTES:
     dance-single:
     :
     Medium:
     7:
     0.472780,0.724284,0.227865,0.455729,0.233290,305.000000,284.000000,21.000000,42.000000,0.000000,0.000000,0.472780,0.724284,0.227865,0.455729,0.233290,305.000000,284.000000,21.000000,42.000000,0.000000,0.000000:
0000
0000
0000
0000
,
0000
0000
0000
0000
,
0000
0000
0000
0000
0000
0000
0000
0000
1000
0000
0100
0000
0010
0000
0001
1000
,
0000
0010
0000
0100
0000
0000
0000
0000
0100
0000
0001
0000
1000
0000
0010
0100
,
0000
0001
0000
0010
0000
0000
0000
0000
0010
0000
0100
0000
0110
0000
0000
1000
,
0000
0000
0001
0000
1001
0000
0000
0001
0000
0000
0100
0000
0010
0000
1000
0010
,
0000
0100
0000
0001
0000
0000
0000
0000
0100
0000
0010
0000
0100
0000
0001
0000
,
0010
0010
0100
1000
0001
0001
1000
0100
,
0010
0000
0010
0000
0001
0000
1000
0000
0010
0000
0010
0000
0100
0000
0001
0100
,
0000
0001
0100
0000
0010
0000
1000
0010
0000
1000
0010
0000
0100
0000
0001
1000
,
0001
0000
0100
0000
0010
0000
0010
0000
1000
0000
0002
0000
2000
0000
0003
3000
,
0000
0000
0000
0000
1000
0001
0000
1000
0001
0000
1000
0001
0000
0000
1000
0000
,
1000
0001
0002
0000
0103
0000
1001
0000
,
0000
0000
0000
0000
0001
1000
0000
0001
1000
0000
0001
1000
0000
0000
0200
0000
,
0000
0320
0000
0000
0000
0030
0002
0000
,
0000
0000
0000
0000
0000
0000
0000
0000
1003
0000
1000
0000
1000
0000
0000
0001
0000
0000
1000
0000
0000
0000
0000
0000
1000
0000
0000
0000
0000
0000
0000
0000
,
0000
0001
0000
1000
0001
0000
0010
0000
,
0000
0100
0000
0010
0100
0000
1000
0000
,
1000
0001
0001
0010
,
0010
0000
0000
0100
0010
0000
0001
0000
,
0000
1000
0000
0001
1000
0000
0001
0000
,
0000
0010
0000
0100
0010
0100
0010
0000
,
0001
1000
1000
0002
,
0003
0000
0000
1000
0001
0000
1000
0000
,
0000
0010
0000
0100
0010
0100
0010
0000
,
0000
0100
0000
0001
0100
0001
0200
0000
,
0320
2030
3200
0320
,
0032
0000
0003
0001
1000
0001
2000
0000
,
3020
2030
3200
0320
,
0032
0000
2003
0000
3020
0000
0230
0001
,
0300
0001
0000
1000
0000
1000
0000
0100
,
0000
0100
0000
0010
0000
0010
0000
0011
,
0001
0000
0110
0100
0000
1100
0000
1001
,
0001
1000
0000
1001
0000
0000
0000
0000
0000
0000
0000
1001
0000
0000
0000
0000
,
0000
0000
0000
1001
0000
1000
0000
1000
0000
0001
0000
1001
0000
1000
0000
0000
,
0001
1000
0000
1001
0000
0000
0000
0000
0000
0000
0000
1001
0000
0000
0000
0000
,
1000
0001
0001
1000
0000
0001
0000
0010
0000
0100
0000
2000
0000
0000
3000
0000
,
0100
0010
0000
0100
0000
0000
1000
0000
,
0001
1000
0000
0010
0000
0000
0100
0000
,
0001
1000
0000
2000
0000
3002
0000
0023
,
0000
0230
0000
2300
0000
3002
0000
0003
,
0100
0010
0100
0020
0000
0230
0000
0302
,
0000
2003
0000
3002
0000
0023
0000
0230
,
0000
2300
0000
3200
0010
0300
0010
0000
,
0001
0001
1000
1000
,
0100
0000
0100
0000
0110
0100
0000
0110
,
0010
1001
0220
0330
,
1000
1000
0000
0001
,
0000
0000
0100
0000
,
0010
0010
0000
1000
,
0000
0000
0001
0000
,
1000
0001
1000
0001
,
0000
0000
0010
0000
,
0100
0010
0100
0010
,
0000
0001
1000
0001
,
1000
0001
1000
0001
,
0000
0001
0001
0000
,
1000
1000
0000
0100
,
0100
0000
0010
0010
,
0000
0001
0001
0000
,
0010
0010
0100
1000
,
0100
1000
0010
1000
,
0000
0001
0100
0001
,
0100
0010
1000
0001
,
0101
0100
0000
1010
,
1000
0000
1001
0000
,
2002
0000
0000
3003
;

//---------------dance-single - ----------------
#NOTES:
     dance-single:
     :
     Easy:
     5:
     0.311570,0.615641,0.151910,0.412326,0.092231,201.000000,187.000000,14.000000,38.000000,0.000000,0.000000,0.311570,0.615641,0.151910,0.412326,0.092231,201.000000,187.000000,14.000000,38.000000,0.000000,0.000000:
0000
0000
0000
0000
,
0000
0000
0000
0000
,
0000
0000
1000
0100
,
0000
0000
0010
0001
,
0000
0000
0100
0010
,
0000
1000
0000
0001
,
0000
0000
1000
1000
0000
0000
0001
0000
,
0100
0001
1000
0001
,
0010
0001
1000
0001
,
0000
1000
0000
0100
,
0010
1000
0001
0010
,
0000
0100
0100
0100
,
0000
1000
0001
0100
,
0000
0000
0010
0000
0010
0000
0000
2000
,
0000
3002
0000
0000
0000
0003
2000
0000
,
0000
0000
0001
3001
0000
0000
1000
0000
,
0000
0001
0000
0000
0000
0000
1000
0000
,
0000
0001
0000
0000
0000
0000
0100
0000
,
0100
0010
0010
0100
,
0100
0000
0000
0001
,
0000
1000
0000
0000
0000
0000
0001
0000
,
0000
1000
0000
0000
0000
0000
0100
0000
,
0100
0010
0010
0100
,
0000
0000
0000
1000
0000
0000
0001
0000
,
0000
0000
0000
1000
0000
0000
0001
0000
,
0000
0000
0000
0001
0001
0000
0200
0000
,
0320
2030
3200
0320
,
0032
0000
0003
0001
0001
0000
2000
0000
,
3020
2030
3200
0320
,
0032
0000
2003
0000
3020
0000
0230
0001
,
0300
0001
0000
1000
0000
1000
0000
0100
,
0000
0100
0000
0010
0000
0010
0000
0001
,
0001
0000
1000
1000
0000
1001
0000
1001
,
0000
0000
0000
1001
0000
0000
0000
0000
0000
0000
0000
1001
0000
0000
0000
0000
,
0000
0000
0000
1001
0000
1000
0000
1000
0000
0001
0000
1001
0000
1000
0000
0000
,
0001
0001
0000
1001
0000
0000
0000
0000
0000
0000
0000
1001
0000
0000
0000
0000
,
1000
1000
0000
0001
0000
0001
0000
0010
0000
0100
0000
2000
0000
0000
3000
0000
,
1000
0000
0000
0001
0000
0000
0000
0000
,
0100
0000
0000
0010
0000
0000
0000
0000
,
1000
0000
0000
2000
0000
3002
0000
0023
,
0000
0230
0000
2300
0000
3002
0000
0003
,
0000
0000
0000
0002
0000
2003
0000
3002
,
0000
2003
0000
3002
0000
0023
0000
0230
,
0000
2300
0000
3200
0010
0300
0010
0000
,
0001
0001
1000
1000
,
0100
0000
0100
0000
0010
0010
0000
0100
,
0100
0110
0220
0330
,
1000
1000
0000
0001
,
0000
0000
0100
0000
,
0010
0010
0000
1000
,
0000
0000
0001
0000
,
1000
0000
1000
0000
,
1000
0000
0010
0000
,
0100
0000
0100
0000
,
0100
0000
0001
0000
,
0001
0000
0001
0000
,
1000
0000
0001
0000
,
1000
0000
1000
0000
,
0100
0000
0100
0000
,
0010
0000
0010
0000
,
0001
0000
0001
0000
,
1000
0000
0001
0000
,
1000
0000
0001
0000
,
0100
0000
0010
0000
,
1001
0001
0000
1001
,
1000
0000
1001
0000
,
2002
0000
0000
3003
;
