#TITLE:Ike Ike;
#SUBTITLE:Ichigo 100% Ending;
#ARTIST:HINOI TEAM;
#TITLETRANSLIT:;
#SUBTITLETRANSLIT:;
#ARTISTTRANSLIT:;
#GENRE:Otaku's Dream 3rd Anime Mix;
#CREDIT:Xion Steel;
#BANNER:Ichigo 100%.png;
#BACKGROUND:Ichigo 100% bg.png;
#LYRICSPATH:Ichigo 100% - Ike Ike.lrc;
#CDTITLE:CDtitle.png;
#MUSIC:Ichigo 100% - Ike Ike.mp3;
#OFFSET:0.433000;
#SAMPLESTART:39.560001;
#SAMPLELENGTH:14.000000;
#SELECTABLE:YES;
#BPMS:0.000000=156.000000
;
#STOPS:
;
#BGCHANGES:0.063=Ichigo 100% - Ike Ike.avi=1.000=0=0=1=====,
232.500=Ichigo 100% bg.png=1.000=0=0=1=====,
99999=-nosongbg-=1.000=0=0=0 // don't automatically add -songbackground-
;
#KEYSOUNDS:;
#ATTACKS:;

//---------------dance-single - ----------------
#NOTES:
     dance-single:
     :
     Easy:
     4:
     0.332763,0.379493,0.133742,0.066871,0.000000,209.000000,197.000000,12.000000,6.000000,0.000000,0.000000,0.332763,0.379493,0.133742,0.066871,0.000000,209.000000,197.000000,12.000000,6.000000,0.000000,0.000000:
0000
0000
0000
0000
,
0000
0000
0000
0000
,
1000
0100
1000
0010
,
0001
1000
0010
0010
,
1000
0100
0001
0100
,
0010
1000
0010
0100
,
0001
1000
0100
1000
,
0010
0010
1000
0001
,
0100
0010
1000
0010
,
0100
1000
0100
0110
,
1000
0001
0100
0010
,
1000
0010
0100
0001
,
1000
0100
0010
0100
,
0001
1000
0010
1000
,
0100
1000
0001
0010
,
0100
0001
0010
0100
,
1000
0100
1000
0010
,
0100
0001
1000
0001
,
0100
1000
0010
0100
,
0001
1000
0100
1000
,
0010
0100
0001
1000
,
0100
0100
0100
0100
,
1000
0010
0100
0001
,
1000
0010
0100
0001
,
0010
0100
1000
0010
,
0000
1001
0000
0000
,
0010
0100
1000
0000
,
0100
1000
0010
0100
,
0001
0100
0010
1000
,
0010
0100
0001
0010
,
0100
0001
1000
0010
,
0100
0001
0100
0010
,
1000
0001
0010
0100
,
2002
0000
0000
3003
,
0110
0000
0000
0110
0000
0000
1001
0000
,
0100
1000
0010
0100
,
1000
0001
0100
0010
,
1001
0100
1000
0010
,
0100
0001
0100
0010
,
0001
1000
0010
0100
,
1000
0001
0100
0010
,
1001
1001
0100
0010
,
0220
0000
0000
0330
,
2002
0000
0000
0000
,
0000
0000
0000
3003
0010
0000
0100
0000
,
1000
0010
0100
0001
,
0100
0100
0001
1000
,
0100
0010
0010
0100
,
1000
0001
1000
0001
,
0100
0010
1000
0001
,
0100
0010
1000
0010
,
0100
0001
0100
1000
,
0010
0000
0000
0000
,
0001
0010
1000
0100
,
0010
0001
0100
0010
,
0000
1000
0000
0010
,
0000
0100
0000
0110
;

//---------------dance-single - ----------------
#NOTES:
     dance-single:
     :
     Medium:
     8:
     0.452175,0.474366,0.657565,0.156032,0.000000,284.000000,225.000000,59.000000,14.000000,0.000000,0.000000,0.452175,0.474366,0.657565,0.156032,0.000000,284.000000,225.000000,59.000000,14.000000,0.000000,0.000000:
// measure 0
0000
0000
0000
0000
,  // measure 1
0000
0000
0010
1000
,  // measure 2
1100
1010
0100
1000
,  // measure 3
1010
1010
0100
0010
,  // measure 4
1001
1001
0100
1000
,  // measure 5
0110
0101
0010
0100
,  // measure 6
0110
1001
1000
1000
,  // measure 7
0101
0101
0010
0100
,  // measure 8
1001
1010
0100
0010
,  // measure 9
1000
0000
0100
0010
0001
0000
1001
0000
,  // measure 10
0100
0001
0010
0000
1000
0000
0010
0000
,  // measure 11
0100
0001
0100
0010
,  // measure 12
1000
0100
1000
0000
0010
0000
0100
0000
,  // measure 13
0100
0001
1000
0010
,  // measure 14
0100
0010
0010
1000
,  // measure 15
0100
0000
0010
0000
0100
0000
1000
0010
,  // measure 16
0100
0000
0010
0000
0100
0000
0000
2002
,  // measure 17
0000
0000
3003
0220
0330
1000
0001
0000
,  // measure 18
1000
0010
0100
0010
,  // measure 19
0110
1001
0100
0010
,  // measure 20
1000
0100
0010
0100
,  // measure 21
1001
1001
1001
1001
,  // measure 22
1000
0010
0100
0001
,  // measure 23
1000
0010
0100
0000
0010
0000
0100
0000
,  // measure 24
0001
1000
0010
0100
,  // measure 25
0010
0000
1000
0000
0001
1000
0010
0000
,  // measure 26
1001
0110
1001
1010
,  // measure 27
1010
0010
0001
1000
,  // measure 28
0100
0001
0100
0110
,  // measure 29
0110
0001
1000
0100
,  // measure 30
0001
0010
0100
0010
,  // measure 31
0100
1000
0001
0100
,  // measure 32
0010
1000
0100
0001
,  // measure 33
0101
0011
1000
0100
,  // measure 34
0220
0000
0330
2002
0000
3003
0110
0000
,  // measure 35
0110
1000
0010
0100
,  // measure 36
0010
1000
0001
1100
,  // measure 37
1010
0100
0001
0100
,  // measure 38
0001
1000
0010
0100
,  // measure 39
0010
0001
0001
0100
,  // measure 40
0010
1000
0010
0100
,  // measure 41
1000
0100
0010
0000
0001
0000
0010
0000
,  // measure 42
2002
0000
3003
0220
0000
0330
0000
0000
,  // measure 43
1010
0101
0000
0000
,  // measure 44
1000
0010
1001
1001
,  // measure 45
0010
1000
0101
0101
,  // measure 46
0100
0010
0110
0110
,  // measure 47
1000
0001
1100
0011
,  // measure 48
0010
1000
1100
0110
,  // measure 49
1000
0100
1001
0011
,  // measure 50
1000
0001
0110
0110
,  // measure 51
0001
0010
1000
0100
,  // measure 52
1001
2002
0000
3003
,  // measure 53
0010
0100
0001
1000
,  // measure 54
0100
0000
0001
0000
0100
0000
1000
0100
,  // measure 55
0010
0000
0001
0100
0001
0000
0100
0010
,  // measure 56
1000
0000
0010
0100
0010
0000
1001
0000
;

//---------------dance-single - ----------------
#NOTES:
     dance-single:
     :
     Hard:
     13:
     0.649604,0.664113,0.925049,0.200613,0.022290,408.000000,325.000000,83.000000,18.000000,0.000000,1.000000,0.649604,0.664113,0.925049,0.200613,0.022290,408.000000,325.000000,83.000000,18.000000,0.000000,1.000000:
0000
0000
0000
0000
1000
0001
1000
0001
,
0000
0000
0000
1000
0100
1000
0001
0100
,
1001
0000
1001
0010
0100
0010
0100
1000
,
0011
0000
1001
0100
1000
0010
0100
0010
,
0101
0000
1010
0001
0010
0100
1000
0100
,
0110
0000
1010
0100
0001
0100
1000
0010
,
0110
0000
0011
1000
0010
0100
0001
0010
,
1100
0000
1001
1000
0100
0001
0100
0001
,
0110
0000
1010
0001
0100
0010
1000
0010
,
0101
0000
0000
1010
0000
0000
0110
0000
1001
0000
0000
0000
1001
0000
0000
0000
,
1000
0100
0020
0000
0030
1000
0100
1000
,
0001
0100
0010
1000
0101
0000
1010
0000
,
0010
0100
0002
0000
0003
0100
1000
0100
,
1000
0010
0100
0010
1100
0000
0011
0000
,
1000
0010
0100
0001
2000
0000
3100
0010
,
0000
0110
0000
0001
0100
1000
0100
0020
,
0000
0030
0000
0000
0000
0001
0010
0100
,
0000
0010
0100
1000
0000
0110
1010
0000
,
2000
0000
0001
3010
0000
1001
0000
0010
,
0000
0110
0101
0000
0000
0000
0000
2000
,
0000
0100
3001
0100
0010
0100
0010
0000
,
1001
1100
0110
0101
,
1000
0100
0001
0010
0100
0100
0000
1001
,
0000
0100
0010
0000
0000
0000
0000
2000
,
0000
0100
3010
0010
0100
0001
0000
0100
,
0001
0010
1000
0001
1000
1001
0000
0000
,
1001
0000
0000
1100
0000
0000
0110
0000
0011
0000
0001
0000
0010
0000
0001
0000
,
0010
0100
1000
0001
0000
0100
1000
0001
,
0000
0100
0001
1000
0000
0010
0100
0001
,
1000
0010
0100
1000
0000
0100
0010
1000
,
1001
0110
0011
1100
,
0100
0100
0001
0010
0000
0100
1000
1000
,
0000
0100
0010
0002
0000
0010
0103
1100
,
0110
0000
2002
0000
0000
3003
0000
0000
,
2100
0000
0000
3012
0000
1000
0010
0103
,
0001
0010
1000
0001
0000
0010
0001
0100
,
0000
1000
0100
0010
0000
0010
0100
0001
,
0100
0010
0010
0100
0000
0001
0100
0010
,
1001
0110
0110
1100
,
0100
1000
0100
0010
0000
0001
0010
0100
,
0000
0100
0010
2000
0000
0010
3100
1000
,
0110
1001
0110
0000
0000
0000
0000
0000
,
2002
0000
3003
0220
0000
0000
0000
0330
,
0100
0010
1000
0200
0000
0300
0000
0010
,
0100
1000
0001
0100
0110
0000
1010
0100
,
0010
1000
0001
0010
1100
0000
0011
0100
,
0001
0100
0010
1000
0110
0000
0101
0010
,
0100
0001
0100
0001
1010
0000
1100
0010
,
0001
0100
1000
0100
0011
0000
0110
0001
,
0010
0100
1000
0100
1001
0000
0110
0001
,
0100
0010
1000
0010
0101
0000
0101
0010
,
0100
0000
0010
0000
0100
0000
0001
0000
0110
0000
0000
1100
0000
0000
1001
0000
,
0100
0010
0100
0010
0000
0000
0000
0000
,
1010
0101
1100
1001
,
0110
0000
1100
0000
0110
0000
1001
0100
,
0000
1000
0000
0100
0000
0010
0000
0100
,
0010
0000
0000
0100
0000
0000
1000
0000
0010
0000
0100
0000
1001
0000
0000
0000
;

//---------------dance-single - ----------------
#NOTES:
     dance-single:
     :
     Challenge:
     18:
     0.985551,1.103650,0.824742,0.278629,0.913904,619.000000,545.000000,74.000000,25.000000,0.000000,0.000000,0.985551,1.103650,0.824742,0.278629,0.913904,619.000000,545.000000,74.000000,25.000000,0.000000,0.000000:
0000
0000
0000
0000
1000
0010
0100
0002
,
0000
0003
0000
1100
0010
0100
0001
1000
,
0100
0010
0000
0001
0100
0000
0010
0000
1000
0000
0100
0000
1000
0000
0001
0000
,
0110
0000
0000
1001
0000
0000
0110
0000
1000
0000
0001
0000
0100
0000
0010
0000
,
0100
0001
0000
0001
1000
0000
0001
0000
0100
0000
0010
0000
1000
0000
0100
0000
,
1100
0000
0000
0011
0000
0000
1001
0000
0100
0000
0010
0000
1000
0000
0100
0000
,
0010
0001
0000
1000
0100
0000
0010
0000
0001
0000
0100
0000
0010
0000
1000
0000
,
0110
0000
0000
0011
0000
0000
1001
0000
0100
0000
0010
0000
1000
0000
0001
0000
,
0100
0010
0000
1000
0001
0000
0100
0000
0010
0000
1000
0000
0001
0000
0100
0000
,
1001
0000
0000
0110
0000
0000
1100
0000
0011
0000
0000
0000
2002
0000
3003
0000
,
0200
0010
0002
0303
0000
1000
0010
0100
,
0001
1000
0100
0010
0001
0010
0100
1000
,
0002
0010
0200
0303
1001
0010
0100
0001
,
1000
0000
0100
0000
0010
0000
0100
0000
1000
0100
0010
0001
1000
0001
0100
0001
,
0010
0000
0100
0000
2002
3003
1000
0000
0100
0000
1000
0000
0001
0000
0101
0000
,
0000
1010
0000
0011
1001
0110
1010
1001
,
0010
0100
0001
1000
0100
2000
0010
3100
,
0000
0002
0010
0103
0000
1001
0110
1001
,
0010
0100
0001
1000
0100
1000
0001
0100
,
0001
0000
1000
0000
0010
0000
0100
0000
0010
0000
1000
0000
0100
0010
0001
0100
,
0010
1000
0100
0010
0001
0010
0100
0010
0001
1000
0100
0010
0100
1000
0001
0100
,
0110
1001
1010
0101
,
2000
0100
3010
0002
0000
0100
0000
1000
,
0000
0010
0103
0010
1000
0001
0010
0001
,
1000
0010
0100
0001
1000
0010
0100
0001
,
1000
0100
0010
0001
0100
0001
1000
0001
0010
0100
1000
0001
1000
0010
0100
0000
,
0101
0000
0000
1010
0000
0000
0110
0000
1001
0000
0010
0000
0100
0000
0001
0000
,
1000
0100
0010
0100
1000
0001
0100
0010
0100
0001
1000
0100
0010
0001
1000
0001
,
1000
0100
0010
0100
1000
0001
0100
0010
0100
0001
1000
0001
0100
0010
1000
0100
,
0010
0001
1000
0001
1000
0100
0010
0001
0100
0010
1000
0001
0100
0010
1000
0001
,
1001
0110
1010
0101
,
0010
0100
0001
1000
0100
0010
0001
0100
0001
1000
0001
0010
0100
1000
0001
1000
,
0010
0100
0001
1000
0001
0100
0010
1000
0100
1000
0001
1000
0010
0100
0001
1000
,
0001
0010
0100
1000
0100
0010
0001
0100
0001
1000
0001
0010
0100
0010
0001
1000
,
0010
0100
0010
1000
0001
0100
0010
1000
0100
1000
0002
0000
2003
0000
3020
0000
,
0230
0301
1000
0010
0100
0001
0010
0100
1000
0010
1000
0100
1000
0001
0100
0010
,
1000
0001
0010
0100
1000
0001
0010
0100
0010
0001
1000
0010
0100
0010
1000
0001
,
0100
0010
1000
0100
1000
0001
1000
0010
0100
0001
1000
0100
0010
0100
1000
0001
,
0011
0110
1100
1001
,
0010
0100
0001
1000
0001
0100
0010
0100
0001
1000
0001
0100
0010
1000
0100
0010
,
0001
1000
0001
1000
0100
0010
0001
0100
0010
1000
0001
0100
0010
1000
0001
1000
,
0100
0010
0100
1000
0100
0010
0001
0100
0010
1000
0001
0100
0010
0100
0001
1000
,
0010
1000
0100
1000
0010
0100
0001
0100
0010
0100
0010
1000
0001
1000
0100
0010
,
0002
0203
0320
2030
0000
0000
3000
0011
,
0100
0000
0010
0000
1000
0000
0001
0000
0010
0100
0000
1000
0010
0000
0100
0000
,
0001
0000
0010
0000
0001
0000
1000
0000
0110
0000
0000
1001
0000
0000
0110
0000
,
0001
0000
1000
0000
0010
0000
0100
0000
0010
1000
0000
1000
0001
0000
1000
0000
,
0010
0000
0100
0000
0001
0000
0010
0000
0011
0000
0000
1100
0000
0000
1001
0000
,
0010
0000
0100
0000
0001
0000
0010
0000
0100
1000
0000
0001
0010
0000
0100
0000
,
1000
0000
0010
0000
0100
0000
0001
0000
0110
0000
0000
1100
0000
0000
1001
0000
,
0010
0000
0100
0000
0001
0000
1000
0000
0010
0100
0000
0001
1000
0000
0010
0000
,
0100
0000
0001
0000
1000
0000
0010
0000
1001
0000
0000
0110
0000
0000
0011
0000
,
1100
0011
0110
2002
0000
0000
0000
3003
,
1100
0011
0110
0101
,
1010
0000
1100
0000
0110
0000
0011
1100
,
0010
0100
0001
1000
0100
0010
0100
1000
0001
0010
0100
0010
0001
1000
0010
0100
,
1001
0000
0000
0110
0000
0000
1010
0000
0101
0000
0000
0000
2002
0000
0000
0000
,
0000
0000
0000
0000
,
0000
3003
0000
0000
;
