#TITLE:Hikaru Nara;
#SUBTITLE:Your Lie in April Opening;
#ARTIST:Goose House;
#TITLETRANSLIT:;
#SUBTITLETRANSLIT:;
#ARTISTTRANSLIT:;
#GENRE:;
#CREDIT:Magna Trick;
#BANNER:HNBN.jpg;
#BACKGROUND:HNBG.jpg;
#LYRICSPATH:;
#CDTITLE:Magna Trick title!.png;
#MUSIC:Hikaru Nara.mp3;
#OFFSET:0.176851;
#SAMPLESTART:53.500000;
#SAMPLELENGTH:14.000000;
#SELECTABLE:YES;
#BPMS:0.000000=79.995003
,5.000000=159.990005
;
#STOPS:
;
#BGCHANGES:0.188=Hikaru Nara.avi=1.000=0=0=1=====,
232.500=HNBG.jpg=1.000=0=0=1=====,
99999=-nosongbg-=1.000=0=0=0 // don't automatically add -songbackground-
;
#KEYSOUNDS:;
#ATTACKS:;

//---------------dance-single - ----------------
#NOTES:
     dance-single:
     :
     Hard:
     12:
     0.554847,0.617606,0.357143,0.301339,0.033482,348.000000,316.000000,32.000000,27.000000,0.000000,0.000000,0.554847,0.617606,0.357143,0.301339,0.033482,348.000000,316.000000,32.000000,27.000000,0.000000,0.000000:
0000
0000
0000
0000
1000
0100
1000
0100
0000
0010
0001
0010
0000
0001
1000
0002
,
0000
0000
0000
0003
1010
0000
0000
0000
0101
0000
0000
0000
0011
0000
0000
0000
,
1100
0000
1000
0100
1000
0100
0000
0010
,
0000
0001
1000
0010
1000
0010
0000
0100
,
0000
0001
1000
0000
0001
1000
0000
0100
,
0000
0010
0001
0000
1000
0000
0001
0100
,
1000
0000
0011
0011
0000
1010
1010
0000
,
1001
1001
0100
0010
0100
0010
0000
0002
,
0000
2003
0000
3000
0010
0000
0100
0001
,
1000
0000
0001
0000
0010
0000
0100
0010
,
0001
0000
1000
0000
0001
0000
0100
0001
,
0010
0000
0100
0000
1000
0000
0001
1000
,
0100
0000
0010
0000
0100
0000
1000
0100
,
0001
0000
0100
0000
0010
0000
0100
0010
,
0001
0000
0010
0000
0001
0000
1000
0100
,
0001
2000
0000
3020
0000
0032
0000
0103
,
0010
0000
1000
0000
0100
0000
0010
0001
,
0010
0001
0011
0000
1000
0000
0001
0100
,
0001
0100
0101
0000
0010
0000
1000
0100
,
0010
0002
0000
0023
0000
0230
0000
2300
,
0000
3000
1001
0000
0100
0000
0010
0100
,
0001
0000
1000
0000
0100
0000
1000
0100
,
0010
0000
0100
1100
1100
0000
0101
0000
,
0110
0110
0000
1010
0000
0101
0000
2002
,
0000
3003
0010
0100
0001
1000
0100
0010
,
0001
0100
0010
0001
0000
1001
0000
0010
,
1000
0000
0100
0001
0100
0010
0001
1000
,
0010
1000
0001
0010
0100
0100
0000
1000
,
0001
0000
0100
0100
0010
0100
0001
0001
,
1000
0100
0010
0010
0100
0010
0001
0001
,
1000
0010
0200
0000
0001
0000
1000
1000
,
1000
0000
0010
0300
0001
0000
1001
1000
,
0001
0000
0101
0101
0000
1100
1100
0000
,
1001
2002
0000
0000
0000
0000
0000
3003
,
0000
0000
0001
1000
0010
0100
0000
0100
,
0001
0010
0000
1000
0010
0002
0000
0000
,
0000
0003
1000
0010
0001
1000
0000
0100
,
0001
0020
0000
0000
0100
0000
0000
0000
,
0100
0030
0100
1000
0001
0100
0000
0010
,
1000
0100
0000
0010
0001
0200
0000
0000
,
0000
0000
0000
0300
0010
0000
1000
0000
0001
0000
0010
0000
0000
0000
0100
0000
,
1000
0002
0000
0000
0100
0000
0000
0000
,
0100
0003
0100
0010
0100
0002
0000
1003
,
0100
0010
0000
0010
0100
2000
0000
0000
,
0000
0000
0001
3000
0001
0000
0100
0000
0010
0000
2000
0000
0000
0000
3001
0000
,
0010
0000
0200
0000
1000
0300
0001
0000
0001
0000
1000
0000
0000
0000
0010
0000
,
0100
1000
0001
0010
1000
0110
0000
0001
,
0010
2000
0000
3010
0001
2000
0000
0000
,
3000
0000
0010
0100
0001
1000
0000
0001
,
0100
2000
0000
0000
0000
0000
0000
0000
,
0000
3000
0001
0010
0001
0010
0100
1000
,
0100
1000
0001
0100
0001
0100
0010
1000
,
0010
1000
0001
0010
0100
1000
0000
0000
,
1000
0100
0010
0001
0000
0000
0100
0010
,
0100
0000
0001
0010
0001
0010
0100
1000
,
0100
1000
0010
0100
0010
0100
0001
1000
,
0001
1000
0100
0010
0001
0011
0000
1000
,
0100
0021
0000
0000
0000
0000
0000
0000
,
0000
0030
0000
0000
;

//---------------dance-single - ----------------
#NOTES:
     dance-single:
     :
     Challenge:
     13:
     0.655293,0.715123,0.569196,0.279018,0.061384,411.000000,360.000000,51.000000,25.000000,0.000000,0.000000,0.655293,0.715123,0.569196,0.279018,0.061384,411.000000,360.000000,51.000000,25.000000,0.000000,0.000000:
// measure 0
0000
0000
0000
0000
0001
0010
0001
0010
0000
0100
1000
0100
0000
1000
0001
2000
,  // measure 1
0000
0000
0000
0000
0000
0000
3001
0100
0101
0000
0000
0000
0000
0000
0000
0000
1010
0000
0000
0000
0000
0000
0000
0000
1100
0000
0000
0000
0010
0000
0000
0000
,  // measure 2
0011
0000
0001
0100
1000
0010
0000
1000
,  // measure 3
0000
0100
0001
0010
1000
0001
0000
0100
,  // measure 4
0000
1000
0001
0000
1000
0001
0000
0010
,  // measure 5
0000
0100
1000
0000
0001
0000
1000
0010
,  // measure 6
0001
0000
1100
1100
0000
0101
0101
0000
,  // measure 7
1001
1001
0010
0100
0010
0100
0000
1010
,  // measure 8
0000
0101
0002
0000
0103
0000
0010
1000
,  // measure 9
0001
0100
1000
0000
0110
0000
0010
0100
,  // measure 10
1000
0001
0010
0000
0110
0000
0001
1000
,  // measure 11
0100
0001
1000
0000
0110
0000
1000
0010
,  // measure 12
0001
0100
1000
0000
0110
0000
0010
1000
,  // measure 13
0100
0010
0001
0000
0110
0000
0010
0100
,  // measure 14
1000
0001
0010
0000
2100
0000
3010
0000
,  // measure 15
0101
0101
0000
0011
0000
1010
0000
1001
,  // measure 16
1001
0000
0010
0000
0110
0000
0100
0001
,  // measure 17
0100
1000
0100
0000
0110
0000
0010
1000
,  // measure 18
0010
0001
0010
0000
0110
0000
0001
0010
,  // measure 19
0100
2000
0000
3200
0000
0320
0000
0032
,  // measure 20
1000
0003
2001
0000
3010
0000
1002
1000
,  // measure 21
1003
0000
0200
0000
0310
0000
0001
0010
,  // measure 22
0100
0000
0010
0011
0011
0000
1010
0000
,  // measure 23
0110
0110
0000
0101
0001
1010
0010
1002
,  // measure 24
1000
0003
0100
0010
1000
0001
0010
0100
,  // measure 25
1000
0010
0100
1000
0000
1001
0000
0100
,  // measure 26
0001
0000
1000
0100
0010
0000
1000
0000
0010
0000
0100
0000
1000
0000
0001
0000
,  // measure 27
0100
0001
1000
0100
0010
0010
0000
0001
,  // measure 28
1001
0000
0010
0010
0100
0010
1000
1000
,  // measure 29
0001
0010
0100
0100
0010
0100
1000
1000
,  // measure 30
0001
0100
0020
0000
1000
0000
0001
0001
,  // measure 31
0001
0000
0100
0030
1000
0000
1001
0001
,  // measure 32
1000
0000
1010
1010
0000
0011
0011
0000
,  // measure 33
1001
0000
0000
2001
0000
0000
0000
0000
0000
0001
0000
0000
0001
0000
0000
0010
0000
0000
3001
0000
0010
0000
0100
0000
,  // measure 34
1000
0010
1001
0001
0100
0010
0000
0010
,  // measure 35
1000
0100
0000
0001
0100
2000
0001
0001
,  // measure 36
0001
3000
0001
0100
1000
0001
0000
0010
,  // measure 37
1000
0200
0000
0010
0010
0000
0001
0001
,  // measure 38
0001
0300
0010
0001
1000
0010
0000
0100
,  // measure 39
0001
0010
0000
0100
1000
0020
0000
0100
,  // measure 40
0100
0000
0000
0030
0100
0000
0001
0000
1000
0000
0100
0000
0000
0000
0010
0000
,  // measure 41
0001
2000
0010
0010
0010
0010
0000
0001
,  // measure 42
0001
3001
0010
0100
1000
2000
0000
3001
,  // measure 43
0010
0100
0000
0100
0010
0002
0000
1000
,  // measure 44
1000
0000
0100
0003
1000
0000
0010
0000
0100
0000
0002
0000
0000
0000
1003
0000
,  // measure 45
0100
0000
0020
0000
0001
0030
1000
0000
1000
0000
0001
0000
0000
0000
0100
0000
,  // measure 46
0010
0001
1000
0100
0001
0110
0000
1000
,  // measure 47
0100
0002
0000
0103
1000
0002
0000
0100
,  // measure 48
0103
0000
1001
0010
1000
0001
0000
1000
,  // measure 49
0100
0002
1000
0000
0010
0000
0100
0000
,  // measure 50
1000
0003
1000
0100
1000
0100
0010
0001
,  // measure 51
0010
0001
1000
0010
1000
0010
0100
0001
,  // measure 52
0100
0001
1000
0100
0001
0010
0000
0000
,  // measure 53
0010
0001
0100
1000
0000
0000
0010
0100
,  // measure 54
0010
0000
1000
0100
1000
0100
0010
0001
,  // measure 55
0010
0001
0100
0010
0100
0010
1000
0001
,  // measure 56
1000
0001
0010
0100
1000
1100
0000
0001
,  // measure 57
0010
1200
0000
0000
0000
0000
0000
0000
,  // measure 58
0000
0300
0000
0000
;

//---------------dance-single - ----------------
#NOTES:
     dance-single:
     :
     Medium:
     8:
     0.395408,0.551409,0.022321,0.256696,0.000000,248.000000,246.000000,2.000000,23.000000,0.000000,0.000000,0.395408,0.551409,0.022321,0.256696,0.000000,248.000000,246.000000,2.000000,23.000000,0.000000,0.000000:
0000
0000
0000
0000
,
0000
0001
1000
0001
,
1000
0000
0010
0100
0010
0100
0000
0001
,
0000
1000
0000
0100
0010
0100
0000
0010
,
0000
0001
1000
0000
0001
1000
0000
0001
,
0000
1000
0020
0000
0000
0030
0100
0000
,
0001
1000
1000
0001
,
0001
0000
0010
0000
0100
0010
0000
0100
,
0000
2000
0000
0000
0000
3000
0001
0000
,
1000
0000
0010
0000
0100
0000
0001
0100
,
0001
0000
0100
0000
0010
0000
1000
0010
,
1000
0000
0001
0000
0010
0000
0001
0010
,
0001
0000
0010
0000
0100
0000
1000
0100
,
1000
0000
0010
0000
1000
0000
0001
0100
,
0001
0000
0100
0000
0010
0000
1000
0010
,
1000
0001
0000
1000
0000
0001
0000
2000
,
0000
0000
3001
0000
0010
0000
0100
0010
,
0100
0000
0010
0000
0001
0000
1000
0001
,
1000
0000
0010
0000
0100
0000
0001
0100
,
0001
0100
0000
0010
0000
2000
0000
0000
,
0000
3000
0002
0000
0000
0000
0023
0000
,
0000
0000
0230
0000
0000
0300
1000
0000
,
0001
0000
0100
0010
0100
0000
0010
0000
,
0100
0001
0000
1000
0000
0100
0000
0020
,
0000
0130
1000
0100
,
0010
0000
0001
0000
1000
0020
0000
0030
,
0000
0010
0100
0001
,
1000
0000
0100
0000
0010
0100
0000
0010
,
0200
0300
1000
0001
,
0100
0010
0100
0001
,
2000
0000
0000
0000
,
0000
0000
3000
0010
,
0100
0002
0000
2003
,
3000
0200
0000
0000
0000
0000
0000
0000
,
0300
0000
0010
0001
0010
0001
0000
0010
,
0001
0010
0000
0001
0010
0002
0000
0000
,
0000
0003
1000
0010
1000
0010
0000
1000
,
0010
2000
0000
0000
0000
0000
0000
0000
,
0000
3000
0100
1000
0100
1000
0000
0100
,
1000
0100
0000
1000
0100
2000
0000
0000
,
0000
0000
3001
0100
0001
0100
0000
0001
,
0100
0002
0000
0000
0000
0000
0000
0000
,
0000
0000
1003
0001
1000
0001
0000
1000
,
0001
1000
0000
0001
1000
0002
0000
0000
,
0000
1003
0001
1000
0001
1000
0000
1000
,
0001
2000
0000
0000
0000
0000
0000
0000
,
0000
3000
0010
0100
0010
0100
0000
0010
,
0100
0010
0000
0100
0010
0200
0000
0000
,
0000
0300
0010
0100
0001
1000
0000
0100
,
0010
0200
0000
0000
0000
0000
0000
0000
,
0000
0300
1000
0001
1000
0001
1000
0010
,
1000
0010
0100
0010
0100
0010
0100
0001
,
0100
0001
1000
0010
0100
0001
0000
0000
,
0001
0010
0100
1000
0000
0000
1010
0000
,
0101
0000
1000
0010
1000
0010
1000
0001
,
1000
0001
0100
0001
0100
0001
0010
0001
,
0010
0100
0010
0100
1000
0001
0000
0100
,
0010
2000
0000
0000
0000
0000
0000
0000
,
0000
3000
0000
0000
0000
0000
0000
0000
;

//---------------dance-single - ----------------
#NOTES:
     dance-single:
     :
     Easy:
     6:
     0.320472,0.358329,0.066964,0.200893,0.000000,201.000000,195.000000,6.000000,18.000000,0.000000,0.000000,0.320472,0.358329,0.066964,0.200893,0.000000,201.000000,195.000000,6.000000,18.000000,0.000000,0.000000:
0000
0000
0000
0000
,
0000
1000
1000
0001
,
0001
0100
0010
0000
,
0100
0010
1000
0000
,
0001
0010
0100
1000
,
0001
0000
0200
0000
0000
0300
0010
0000
,
0010
1001
0000
1001
,
0000
1001
0010
0100
,
0001
0000
0020
0000
0000
0030
0100
0000
,
1000
0000
0001
0000
1000
0000
0010
0100
,
0010
0000
0100
0000
0001
0000
1000
0001
,
1000
0000
0100
0000
0010
0000
0100
0010
,
0100
0000
0010
0000
0001
0000
1000
0001
,
1000
0000
0010
0000
0100
0000
0010
0100
,
0010
0000
0100
0000
0001
0000
1000
0001
,
1000
0001
0000
1000
0000
0001
0000
1000
,
0000
0100
0000
0010
,
0001
1000
0010
0100
,
0001
2000
0000
3000
,
0000
0100
0000
0100
0000
0010
0000
0000
,
0000
0002
0000
2003
,
0000
0000
3020
0000
0000
0030
0100
0000
,
0001
1000
0100
0010
,
0001
1000
0000
0001
0000
1000
0000
0020
,
0000
0030
0100
0001
,
1000
0100
0010
0100
,
0000
0000
1000
0100
,
1000
0001
0010
0001
,
2000
0000
0000
3000
0010
0000
0010
0000
,
0100
0100
0001
0001
,
1000
1000
0100
0010
,
0001
1000
0001
1000
,
0010
0110
0000
0110
,
0000
0220
0000
0000
0000
0000
0000
0000
,
0330
0010
0010
0100
,
0100
0001
1000
0002
,
0000
0003
1000
0000
0100
0000
1000
0000
,
0100
0200
0000
0000
,
0000
0300
0010
0000
0001
0000
1000
0000
,
0010
0100
0001
0002
,
0000
1003
0010
1000
,
0100
0020
0000
0000
,
0030
0001
0001
1000
,
1000
0010
0100
0002
,
0000
0003
1000
0000
0010
0000
1000
0000
,
0100
0020
0000
0000
,
0030
0001
0010
0001
,
1000
0010
1000
0002
,
0000
0003
0100
0000
0001
0000
0100
0000
,
0010
1000
0001
1000
,
0001
1000
1000
0001
,
0001
0100
0100
0010
,
0010
0100
0001
1000
,
0001
0100
0010
1000
,
1000
0001
1000
1000
,
0001
0001
0100
0100
,
0010
0000
0100
0000
0001
1000
0000
0001
,
0000
2000
0000
0000
0000
0000
0000
0000
,
0000
0000
0000
3000
0000
0000
0000
0000
;
