#TITLE:Hero's Come Back;
#SUBTITLE:Naruto Shippuden Opening 1;
#ARTIST:Nobodyknows;
#TITLETRANSLIT:;
#SUBTITLETRANSLIT:;
#ARTISTTRANSLIT:;
#GENRE:;
#CREDIT:Magna Trick;
#BANNER:HCBBN.jpg;
#BACKGROUND:HCBBG.jpg;
#LYRICSPATH:;
#CDTITLE:Magna Trick title!.png;
#MUSIC:Naruto_Shippuuden______-_Hero_s_Come_Back_-_Nobodyknows.mp3;
#OFFSET:-0.444862;
#SAMPLESTART:38.299999;
#SAMPLELENGTH:12.000000;
#SELECTABLE:YES;
#BPMS:0.000000=104.019997
,87.000000=208.000000
,120.000000=104.000000
,137.000000=52.000000
,144.500000=104.000000
;
#STOPS:
;
#BGCHANGES:0.083=Naruto_Shippuuden______-_Hero_s_Come_Back_-_Nobodyknows.avi=1.000=0=0=1=====,
162.500=BG.jpg=1.000=0=0=1=====,
99999=-nosongbg-=1.000=0=0=0 // don't automatically add -songbackground-
;
#KEYSOUNDS:;
#ATTACKS:;

//---------------dance-single - ----------------
#NOTES:
     dance-single:
     :
     Challenge:
     15:
     0.803340,1.018748,0.603703,0.022359,1.028531,503.000000,449.000000,54.000000,2.000000,0.000000,0.000000,0.803340,1.018748,0.603703,0.022359,1.028531,503.000000,449.000000,54.000000,2.000000,0.000000,0.000000:
// measure 0
0001
0000
0000
0010
0100
0000
0100
1000
0000
1000
0000
0001
0100
0000
0010
0100
,  // measure 1
0010
0000
1000
0001
1000
0000
0001
1000
0000
1000
0000
0010
0110
0000
0110
0000
,  // measure 2
1001
0000
0100
1000
1100
0000
0010
1000
0000
1000
0001
0010
0101
0000
1000
0000
,  // measure 3
1001
0000
0100
0010
1010
0000
1000
0010
0000
0010
0100
1000
1001
0000
0000
0010
,  // measure 4
1000
0100
1000
0010
0100
0001
0010
0100
0010
0001
1000
0000
1001
0110
0000
0000
,  // measure 5
0010
1000
0100
1000
0010
0100
0001
0100
0010
1000
0001
0000
0011
0000
1100
0000
,  // measure 6
0000
0100
1000
0100
1000
0000
1000
0010
0100
0001
0010
0000
0011
0000
1100
0000
,  // measure 7
0010
1000
0001
0100
1000
0100
0001
0010
0000
0010
0001
0010
0100
0100
0000
0000
,  // measure 8
0000
1000
0010
0100
0001
0100
0010
1000
0100
0010
0001
0000
0110
0000
1100
0000
,  // measure 9
0000
0010
1000
0100
0010
1000
0001
0100
1000
0010
0100
0000
1010
0000
0110
0000
,  // measure 10
0000
0100
1000
0001
1000
0100
0001
0010
1000
0001
0110
0000
0011
0000
0000
0001
,  // measure 11
1000
0010
0100
0001
1000
0100
1000
0010
0100
0001
0010
0000
0110
0000
0100
0100
,  // measure 12
1000
0000
0001
1000
0010
0000
0100
0001
0000
0010
0001
0000
1000
0100
1000
0010
,  // measure 13
0100
0000
0100
0001
0010
0000
0010
0100
0000
0100
1000
0000
1000
0001
0100
0010
,  // measure 14
1000
0100
0010
1000
0010
0000
0100
1000
0000
1000
0001
0000
0001
0100
1000
0001
,  // measure 15
0010
1000
0100
0010
0001
0000
0001
0010
0000
0010
0000
0100
1000
0000
1001
0100
,  // measure 16
1001
0000
0001
0100
0010
0000
1000
0100
0000
0010
0001
0000
0010
0100
0010
0001
,  // measure 17
0100
0010
0100
1000
0001
0000
0010
1000
0000
0001
0010
0000
0001
1000
0100
0010
,  // measure 18
0001
0010
0100
0010
1000
0101
0000
0110
0000
1010
0000
0000
0000
0001
0100
0010
,  // measure 19
0110
0000
0000
1001
0000
0000
1100
0000
0011
0000
0001
1000
1001
0000
0001
1000
,  // measure 20
1001
0000
0010
0100
0110
0000
0010
0100
0110
0000
0001
0010
0011
0000
1000
0010
,  // measure 21
1010
0000
0001
0100
0101
0000
1000
0100
1100
0010
0001
0100
1001
0000
0010
0000
,  // measure 22
1000
0000
0100
0000
1000
0001
0000
0010
,  // measure 23
0001
0000
0010
0010
0100
0100
1000
1000
,  // measure 24
0010
0000
0010
1000
0000
0001
0100
0010
,  // measure 25
0000
1000
0100
0000
0010
0001
0010
0000
,  // measure 26
0000
0100
1000
0001
0100
0010
0100
0001
,  // measure 27
0010
0100
0010
0001
1000
1000
0001
0001
,  // measure 28
0000
0001
0100
0010
1000
0100
0010
1000
,  // measure 29
0010
0100
1000
0010
0100
1000
0001
0110
,  // measure 30
1000
0001
1000
0000
0100
0000
0010
0000
0001
0010
0000
0010
0100
1000
0001
0100
,  // measure 31
1000
0100
0001
0010
0100
0010
0001
0000
0100
0001
0000
0100
0001
0010
1000
0010
,  // measure 32
0001
0000
0001
1000
0010
0100
0001
0000
0100
0010
1000
0000
1000
0100
0010
0000
,  // measure 33
0000
0000
0010
0100
0010
1000
0010
0000
0001
0000
0010
0001
0100
0000
0101
0000
,  // measure 34
0010
0000
0000
0000
1001
0000
0000
0000
0001
0100
1000
0000
1000
0100
0000
0100
0000
0000
0000
0001
0010
1000
0010
0000
0010
0100
1000
0000
1000
0010
0000
0010
,  // measure 35
0000
0000
0000
0100
0001
1000
0100
0010
0001
0010
0100
0000
0010
0100
0000
0100
0000
0000
0000
0100
1000
0010
0001
1000
0100
0010
1000
0000
1000
0100
0000
0100
,  // measure 36
0000
0010
0001
0000
0110
0000
0001
0000
0110
0000
0000
0000
1000
0000
0001
0000
1000
0000
0000
0000
0001
0000
1100
0000
0000
0000
0101
0000
0000
0000
0000
0000
,  // measure 37
0000
0010
1000
0100
0010
0001
0010
0100
1000
0000
1000
0110
0000
1001
0000
0000
,  // measure 38
0000
0100
0010
1000
0100
0010
1000
0010
0100
0001
0000
1010
0000
0011
0000
0000
,  // measure 39
0000
0100
0001
1000
1010
0000
0010
0101
0000
0010
1001
0000
1000
0000
0001
0100
,  // measure 40
1000
0000
0010
0100
2002
0000
0000
0000
3003
0000
0000
0000
0000
0000
0000
0000
;

//---------------dance-single - ----------------
#NOTES:
     dance-single:
     :
     Hard:
     8:
     0.475935,0.498055,0.357750,0.022359,0.100617,298.000000,266.000000,32.000000,2.000000,0.000000,0.000000,0.475935,0.498055,0.357750,0.022359,0.100617,298.000000,266.000000,32.000000,2.000000,0.000000,0.000000:
0001
0000
1000
0000
0010
0010
0010
0000
,
1000
0000
0001
0000
0010
0010
0110
0000
,
1100
0000
1001
0000
0101
0100
0101
0000
,
1001
0000
1100
0000
1100
0100
1100
0000
,
1000
0010
1000
0100
0010
0001
0101
0000
,
0100
0010
0100
0001
1000
0100
1100
1100
,
0000
0010
1000
0100
1000
0001
0001
0100
,
0001
0100
0010
0100
0001
1001
1001
0000
,
0000
0010
1000
0100
1000
0001
0101
0101
,
0000
0001
0100
1000
0100
0001
0011
0011
,
0000
0001
0010
1000
0010
0001
1001
0000
,
0010
0100
1000
0100
0010
1000
1001
0001
,
1000
0001
0010
0100
0010
0010
0000
0000
,
0100
1000
0001
0100
0010
0010
0000
0000
,
0100
0001
1000
0100
0010
0010
0000
0000
,
0001
1000
0010
0100
0010
0010
1000
0001
,
1001
0001
0100
0001
1000
1000
0100
1000
,
0100
0010
0001
0010
0100
0100
1000
0001
,
0100
0100
0010
0010
1000
1000
0001
0010
,
0110
0000
0000
0011
0000
0000
1001
0000
1001
0000
0010
0000
0100
0000
0000
0000
,
0010
1000
0100
0010
,
0001
0000
0100
0000
0010
0010
1000
0000
,
0001
1000
0001
0100
,
0010
0000
0100
0100
0010
0010
1000
1000
,
0001
0000
0100
0010
0000
1000
0100
0000
,
1000
0001
0010
0000
0100
0010
0001
0000
,
0000
1000
0001
0100
,
0010
1000
1000
0001
,
0000
0001
0010
0100
,
0010
0001
0100
0100
,
0010
1000
0010
0100
0001
0100
0010
1000
,
1000
0001
0010
0001
1000
0100
0100
1000
,
1000
0001
0100
0010
0100
0001
0001
1000
,
1000
0000
0001
1000
0001
1000
0001
0000
0100
0000
0010
0100
0010
0000
0100
0000
,
0001
0000
1001
0000
0001
1000
0000
0100
0100
0000
0000
0010
0000
0001
0000
0100
,
0100
0000
0000
0010
0000
1000
0000
0100
0100
0000
0000
0010
0000
0001
0000
0100
,
0100
0010
1000
0000
1001
0000
0010
0000
1000
0000
0001
0000
0100
0000
0100
0000
,
0001
1000
0100
0100
1000
1000
0001
0100
,
0010
1000
0001
0001
0010
0010
0100
1000
,
0001
0000
0100
0000
0110
0000
0000
1001
0000
0000
1100
0000
0011
0000
0001
1000
,
0001
1000
0220
0000
0330
0000
0000
0000
;

//---------------dance-single - ----------------
#NOTES:
     dance-single:
     :
     Medium:
     5:
     0.327405,0.408757,0.055898,0.022359,0.078258,205.000000,200.000000,5.000000,2.000000,0.000000,0.000000,0.327405,0.408757,0.055898,0.022359,0.078258,205.000000,200.000000,5.000000,2.000000,0.000000,0.000000:
0001
0000
1000
0000
0010
0010
0100
0100
,
0001
0000
1000
0000
0100
0100
0010
0010
,
0100
1000
0001
0100
,
0010
0000
1000
0000
0100
0010
0110
0000
,
0100
1000
0001
0000
1000
0100
1000
0000
,
0100
1000
0001
0000
0100
0001
0100
0000
,
0000
0001
1000
0000
0001
0000
1100
0000
,
0001
0001
0000
1000
1000
0000
0010
0100
,
0000
0001
1000
0000
0100
0000
0010
0010
,
0000
0000
0001
0000
1000
0000
0010
0010
,
0000
0100
0001
0010
,
0100
0000
1000
0000
0010
0010
0010
0000
,
0100
0000
0001
0000
1000
1000
0000
0000
,
0001
0000
0010
0000
0100
0100
0000
0000
,
1000
0000
0010
0000
0100
0100
0000
0000
,
0001
0000
1000
0000
0010
0010
0000
0000
,
1000
0000
0001
0000
0010
0010
0000
0000
,
0100
0000
1000
0000
0001
0001
0000
0000
,
0100
0000
0010
0000
1000
1000
0000
0000
,
0010
1000
0100
0010
,
0100
0010
0100
0010
,
0100
0010
0100
0010
,
1000
0001
0100
0010
,
1000
0100
0100
0100
,
0100
1000
0001
0100
,
0010
1000
0001
0001
,
0100
0010
1000
0100
,
0010
0001
1000
1000
,
0000
0001
0100
0010
,
1000
0100
0010
0010
,
0010
0010
0010
1000
0001
0100
0001
0001
,
0001
1000
0100
1000
0001
0010
0010
0010
,
0000
0100
1000
0001
0100
0010
0010
0010
,
0000
1000
0001
1000
0010
0100
0010
0100
,
0000
0000
1001
0000
0001
1000
0000
0010
0010
0000
0000
1000
0000
0001
0000
0010
,
0010
0000
0000
0100
0000
1000
0000
0001
0001
0000
0000
0100
0000
0010
0000
1000
,
0000
0001
0000
0000
1001
0000
0000
0000
0010
0000
0100
0000
0010
0000
0100
0000
,
0000
0000
0001
0000
1000
0000
0100
0010
,
0000
0000
0001
0000
1000
0000
0010
0100
,
0000
0000
0000
0000
1000
0000
0000
0100
0000
0000
0001
0000
0010
0000
0100
0010
,
0100
1000
2002
0000
0000
3003
0000
0000
;

//---------------dance-single - ----------------
#NOTES:
     dance-single:
     :
     Easy:
     2:
     0.207623,0.227087,0.011180,0.022359,0.000000,130.000000,129.000000,1.000000,2.000000,0.000000,0.000000,0.207623,0.227087,0.011180,0.022359,0.000000,130.000000,129.000000,1.000000,2.000000,0.000000,0.000000:
0001
1000
0001
1000
,
0010
0010
1000
1000
,
0001
0100
0001
0100
,
0010
0100
0010
0100
,
0001
0001
1000
1000
,
0010
1000
0010
1000
,
1000
0001
0010
0001
,
0001
0100
0010
1000
,
0000
0010
1000
0100
,
0000
0010
0001
0100
,
0000
0010
1000
0100
,
1000
0001
0100
0001
,
0010
0010
0010
0000
,
0100
0100
0100
0000
,
1000
1000
1000
0000
,
0001
0001
0001
0100
,
0010
1000
0010
0000
,
1000
0100
1000
0000
,
0001
0100
0001
0000
,
0010
0100
0010
0001
,
1000
1000
0001
0001
,
1000
0001
1000
0001
,
0000
1000
0000
1000
,
0000
0010
0000
0010
,
0000
1000
0000
0100
,
0000
0001
0000
0010
,
0000
1000
0000
1000
,
0000
0001
0000
0001
,
0000
0010
0000
0100
,
0000
1000
0000
0001
,
0000
1000
0000
1000
0000
0010
0000
0010
,
0000
1000
0000
0001
0000
0010
0000
0010
,
0000
0001
0000
0100
0000
0010
0000
0010
,
0000
1000
0000
0001
0000
1000
0000
1000
,
0000
0001
0000
0000
0000
0000
0000
0000
,
0000
0000
0000
0000
,
0000
0001
1000
0001
,
1000
0010
0010
0010
,
0010
0100
0100
0100
,
0100
0001
0001
1000
,
1000
0000
2002
0000
0000
3003
0000
0000
;
