#TITLE:Hard Knock Days;
#SUBTITLE:One Piece Opening 18;
#ARTIST:Generations from Exile Tribe;
#TITLETRANSLIT:;
#SUBTITLETRANSLIT:;
#ARTISTTRANSLIT:;
#GENRE:;
#CREDIT:Magna Trick;
#BANNER:HKDBN.png;
#BACKGROUND:HKDB.png;
#LYRICSPATH:;
#CDTITLE:Magna Trick title!.png;
#MUSIC:Hard Knock Days.mp3;
#OFFSET:0.235827;
#SAMPLESTART:55.000000;
#SAMPLELENGTH:16.000000;
#SELECTABLE:YES;
#BPMS:0.000000=184.059998
,255.500000=92.029999
,259.500000=184.059998
;
#STOPS:
;
#BGCHANGES:0.063=Hard Knock Days.avi=1.000=0=0=1=====,
452.000=HKDB.png=1.000=0=0=1=====,
99999=-nosongbg-=1.000=0=0=0 // don't automatically add -songbackground-
;
#KEYSOUNDS:;
#ATTACKS:;

//---------------dance-single - ----------------
#NOTES:
     dance-single:
     :
     Hard:
     12:
     0.593101,0.643565,0.147081,0.254050,0.010028,621.000000,599.000000,22.000000,38.000000,0.000000,0.000000,0.593101,0.643565,0.147081,0.254050,0.010028,621.000000,599.000000,22.000000,38.000000,0.000000,0.000000:
0000
0000
0000
0000
,
0000
0000
0000
0000
0000
0000
0000
1000
,
0000
0001
0000
1000
0000
0001
0000
0100
,
0000
0010
0000
0100
0000
0010
1000
0001
,
0100
0010
0000
1000
0010
0000
1000
0000
,
0010
0000
1000
0100
0010
0001
0000
0010
,
0000
0001
0000
0010
0000
0100
0000
0010
,
0000
0001
0100
0001
0000
0100
0010
0100
,
0001
2000
0000
3000
0011
0000
1100
0000
,
0000
1001
0000
0000
0110
0000
0001
1000
,
0001
1000
0000
0001
0000
1000
0000
0001
,
0010
0100
0000
0010
0000
0001
0100
0010
,
0100
0010
0000
1000
0100
0000
1000
0000
,
0100
0000
0010
0100
0010
0000
0100
0010
,
0001
0100
0000
0010
0000
0100
0010
0100
,
0010
1000
0000
0010
1000
0000
0010
0000
,
2000
0000
0000
0000
0000
0000
3001
0100
,
0001
0100
0000
0001
0100
0000
0001
0100
,
0010
1000
0000
0010
1000
0010
1000
0010
,
0000
1000
0100
1000
0100
1000
0000
0001
,
0010
0001
1000
0001
0100
0000
0001
0100
,
0001
0001
1000
0001
0001
1001
0000
1000
,
0001
0100
0000
0010
0100
0010
0100
0010
,
0000
0100
0010
0100
0010
0100
0000
0010
,
1000
0001
0100
0010
1000
0000
0010
1000
,
0000
0010
1000
0001
0100
0010
0010
0100
,
0100
0000
0000
0001
1000
0001
1000
0001
,
0000
1000
0001
1000
0001
1000
0000
0001
,
0010
0100
0010
0100
0010
0000
0100
0010
,
0000
0100
1000
0100
0000
1001
0000
0000
,
0000
0001
0000
0100
0010
0100
0010
0100
,
0000
0010
0100
0010
0100
0010
0000
1000
,
0010
1000
0001
1000
0001
0000
0100
0001
,
0000
0100
0001
0100
0001
1000
0000
0000
,
0000
0010
1000
0010
1000
0000
0000
0001
,
0000
0100
0001
0100
0001
0000
0000
1000
,
0001
0000
0000
0001
1000
0001
1000
0001
,
1000
0001
0000
0001
0000
1000
0100
1000
,
0100
0000
0000
0010
0001
0010
0001
0000
,
0000
0001
0100
0001
0100
0000
0000
0010
,
1000
0000
0000
0010
1000
0100
0010
0001
,
0010
0100
0000
1000
0000
0001
1000
0001
,
0000
0202
0000
0303
2020
0000
3030
2002
,
0000
3003
0010
1000
0010
1000
0000
0000
,
0000
0000
0100
1000
0100
1000
0000
0001
,
0010
0000
0001
0010
0001
0010
0001
0010
,
0000
0202
0000
0303
2020
0000
3030
2002
,
0000
3003
0010
0001
0010
0001
0000
0000
,
1000
0000
0100
1000
0100
1000
0000
0010
,
0100
0000
0010
0100
0010
0100
0000
0000
,
0000
1000
0100
0001
0010
0000
0000
0010
,
0001
0100
1000
0000
1000
0100
0001
0010
,
1000
0010
0000
0001
0020
0000
0030
0002
,
0000
0000
0000
0003
0010
0001
0100
1000
,
0100
0020
0000
0000
2030
0000
0000
3200
,
0000
0000
0302
0000
0000
0103
0000
0010
,
0000
0001
0000
0100
0020
0000
0000
0230
,
0000
0000
0000
0300
0000
0020
0000
0030
,
0000
1000
0010
1000
0010
0000
0000
0001
,
0100
0001
0100
0000
0001
1000
0100
0010
,
0001
0010
0000
0010
0100
0000
0100
2000
,
0000
0000
3000
0000
0001
1000
0001
1000
,
0001
1000
0000
1000
0001
1000
0000
1000
,
0001
0000
1000
0000
0000
0000
1000
0000
0010
0000
1000
0000
0000
0000
1000
0001
,
0010
0000
0010
0001
0000
0001
1000
0000
0002
0000
2003
0000
3002
0000
1003
0000
,
0010
0100
0000
0001
0000
0100
0000
0010
,
0100
0001
0000
1000
0000
0010
0100
0001
,
1000
0010
0000
0100
0001
0000
1000
0000
,
0010
0000
1000
0010
1000
0010
0000
1000
,
0000
0100
0000
0010
0000
0001
0000
0010
,
0000
0100
0010
0001
0000
0010
0100
1000
,
0001
0020
0000
0030
0110
0000
0110
0000
,
0000
1001
0000
0000
0110
0000
0001
0010
,
0100
1000
0000
0010
0000
0100
0000
0001
,
0100
0010
0000
1000
0000
0010
1000
0100
,
0010
0001
0000
0010
0100
0000
1000
0000
,
0001
0000
1000
0001
1000
0000
0001
1000
,
0001
1000
0000
0001
0000
0100
0010
0100
,
0010
1000
0000
0010
1000
0000
0010
0000
,
1000
0100
0000
0010
0000
0001
0010
0001
,
1000
0001
0100
0000
0010
0000
1000
0010
,
1000
0001
0000
0100
0000
0010
0000
1000
,
0001
0100
0000
0010
0000
1000
0100
0010
,
0001
0010
0000
0100
0010
0000
0001
0000
,
0100
0000
1000
0100
0001
0010
0000
0001
,
0000
0010
0000
0001
0000
0100
0000
0010
,
0000
1000
0100
1000
0000
0010
0100
1000
,
0100
0010
0000
0000
0110
0000
0110
0000
,
0000
1001
0000
0000
0110
0000
1000
0001
,
0100
0010
0000
1000
0000
0001
0000
1000
,
0010
0100
0000
0001
0000
1000
0100
0001
,
0100
1000
0000
0010
1000
0000
0010
0000
,
0001
0010
1000
0200
,
0300
0020
0000
0000
0030
0000
0001
0100
,
0010
1000
0000
0001
0100
0000
0010
0000
,
2000
0000
0000
0000
0000
3000
0001
0010
,
0100
0010
0100
0000
1000
0000
0010
0000
,
0100
0000
0000
0001
0100
1000
0100
0001
,
0000
0001
0010
1000
0010
0001
0000
0001
,
1000
0010
0100
0001
1000
0000
1000
0010
,
0000
0010
1000
0100
0010
0011
0000
0000
,
0000
0000
0000
0001
0010
0100
1000
0100
,
0000
1000
0100
0010
0001
0010
0000
0001
,
0010
0100
1000
0000
0001
0000
1000
0001
,
1000
0002
0000
0000
0000
0203
0000
0000
,
0000
0310
0000
0010
1000
0100
1000
0010
,
0000
0010
0001
0100
0001
0010
0000
0100
,
0001
1000
0010
0100
0001
0000
1000
0010
,
0000
0100
0001
1000
0010
1001
0001
1000
,
1000
0010
0010
0010
1000
0100
0100
0010
,
0001
0000
0100
0001
0000
0100
0010
1000
,
0000
0001
1000
0010
0100
0000
0001
0100
,
0000
0001
0100
0010
2000
3002
2003
3002
,
2003
3000
0000
0000
;

//---------------dance-single - ----------------
#NOTES:
     dance-single:
     :
     Medium:
     7:
     0.361018,0.492681,0.093597,0.006686,0.000000,378.000000,364.000000,14.000000,1.000000,0.000000,0.000000,0.361018,0.492681,0.093597,0.006686,0.000000,378.000000,364.000000,14.000000,1.000000,0.000000,0.000000:
0000
0000
0000
0000
,
0000
0000
0000
0000
,
0000
0000
0000
0000
,
0000
0000
0000
0000
,
0000
0000
0000
0000
,
0000
0000
0000
0000
,
0000
0000
0000
0000
,
0000
0000
0000
0000
,
0000
0000
0000
0000
,
0000
0000
0000
0000
,
0000
0001
0000
0010
0000
0100
0000
0010
,
0000
0001
0000
0100
0000
0010
0100
0010
,
0000
1000
0000
0010
0000
1000
0000
0001
,
0000
0100
0000
0010
0000
1000
0000
0100
,
0000
1000
0000
0000
0000
0000
0000
0000
,
0000
0001
0000
1000
0000
0100
0000
0010
,
0000
0001
0000
0000
0000
0000
0000
0000
,
0000
0001
0000
0010
0000
0100
0000
1000
,
0000
0001
0000
1000
0001
1000
0001
1000
,
0000
0001
1000
0001
1000
0001
0000
1000
,
0001
0000
0000
0000
,
0000
0000
0000
0000
,
0000
0000
0000
0010
0100
0010
0100
0010
,
0000
0100
0010
0100
0010
0100
0000
0010
,
0100
0000
0000
0000
,
0000
0000
0000
0000
,
0000
0000
0000
0001
1000
0001
1000
0001
,
0000
1000
0001
1000
0001
1000
0000
0001
,
1000
0000
0000
0000
,
0000
0000
0000
0000
,
0000
0000
0000
0010
0100
0010
0100
0010
,
0000
0100
0010
0100
0010
0100
0000
0010
,
0100
0000
0000
0000
,
0000
0000
0000
0000
0000
0000
0000
0001
,
0000
1000
0001
1000
0001
0000
0000
1000
,
0000
0001
1000
0001
1000
0000
0000
0001
,
1000
0000
0000
0001
1000
0001
1000
0001
,
1000
0001
0000
0001
0000
1000
0000
1000
,
0000
0000
0000
0010
0100
0010
0100
0000
,
0000
0010
0100
0010
0100
0000
0000
0010
,
0100
0000
0000
0010
0100
0010
0100
0010
,
0100
0010
0000
1000
0000
0001
1000
0001
,
0000
1000
0000
0000
0100
0000
0000
0010
,
0000
0000
0000
0001
0010
0100
0000
0000
,
0000
0000
1000
0100
0010
0001
0000
0010
,
0100
0000
0010
0100
0010
0100
0010
0100
,
0000
1000
0000
0000
0001
0000
0000
0100
,
0000
0000
0000
0010
0100
0010
0000
0000
,
0000
0000
0000
0000
,
0000
0000
0000
0000
,
0000
1000
0001
1000
0001
0000
0000
0001
,
1000
0001
1000
0000
0000
0010
1000
0100
,
0010
0001
0000
0000
0010
0000
0000
0100
,
0000
0000
0000
0000
0000
1000
0001
0100
,
0010
1000
0000
0000
0010
0000
0000
1000
,
0000
0000
0001
0000
0000
0010
0000
0100
,
0000
0010
0000
0000
0100
0000
0000
1000
,
0000
0000
0000
0000
0000
0001
0000
0000
,
0000
0100
0000
0000
0010
0000
0000
1000
,
0000
0000
0001
0000
0000
0010
0000
0100
,
0000
0010
0000
0000
0001
0000
0000
0100
,
0000
0000
0000
0000
0000
0010
0000
1000
,
0000
0101
0000
0000
0000
1010
0000
0000
,
0000
1001
0000
0000
0000
0110
0000
0000
,
0100
0000
1000
0000
0001
0100
0001
1000
,
0000
1000
0000
0001
0000
0001
0000
0100
,
0000
0100
0000
0010
0000
1000
0010
1000
,
0010
1000
0000
0001
0100
0000
0001
0000
,
0100
0000
0010
0100
0010
0100
0000
1000
,
0000
0100
0000
0010
0000
1000
0000
0100
,
0000
0010
0000
0001
0000
1000
0000
0001
,
0000
1000
0000
0000
1010
0000
1010
0000
,
0000
0001
0000
0000
0101
0000
0101
0000
,
0000
1000
0000
0001
0000
0010
0000
0100
,
0000
1000
0000
0001
0000
0100
0000
0010
,
0000
0010
0000
1000
0000
1000
0000
0001
,
0000
1000
0000
0001
0000
0010
0000
0010
,
0000
0110
0000
0000
0000
0000
0000
0000
,
0000
0001
0000
0100
0000
0010
0000
0100
,
0000
0110
0000
0000
0000
0000
0000
0000
,
0000
1000
0000
0100
0000
0010
0000
0100
,
0000
1000
0000
0010
0000
0100
0000
0001
,
0000
0100
0000
0010
0000
1000
0000
0001
,
0000
1000
0000
1000
0000
0001
0000
0001
,
0000
1000
0000
0001
0000
1000
0000
0000
,
0000
0001
0000
0010
0000
0001
0000
0100
,
0000
0010
0000
0100
0000
0001
0000
1000
,
0000
0100
0000
0000
0110
0000
0110
0000
,
0000
0001
0000
0000
0110
0000
0110
0000
,
0000
0010
0000
1000
0000
0001
0000
0100
,
0000
0010
0000
1000
0000
0001
0000
0001
,
0000
1000
0000
0001
1000
0000
0001
0000
,
0010
0100
1000
0001
,
0000
0100
0000
0000
0000
0000
0010
1000
,
0010
1000
0000
0001
0100
0000
0010
0000
,
1000
0000
0000
0000
0000
0000
0010
0001
,
0010
0001
0000
0010
0100
0000
1000
0000
,
0001
0000
0000
1000
0001
1000
0001
1000
,
0000
0001
1000
0001
1000
0001
0000
1000
,
0001
0000
0000
0000
,
0000
0000
0000
0000
,
0000
0000
0000
0100
0010
0100
0010
0100
,
0000
0010
0100
0010
0100
0010
0000
0100
,
0010
0000
0000
0000
,
0000
0000
0000
0000
,
0000
0000
0000
0001
0010
0001
0010
0001
,
0000
0010
0001
0010
0001
0010
0000
0001
,
0010
0000
0000
0000
,
0000
0000
0000
0000
,
0000
0000
0000
0100
1000
0000
0100
1000
,
0000
0000
0000
0000
,
0000
0001
0000
1000
0001
0000
1000
0001
,
0000
0000
0000
0000
0000
0001
0100
0010
,
2000
0000
0000
3000
0000
0000
0000
0000
;

//---------------dance-single - ----------------
#NOTES:
     dance-single:
     :
     Easy:
     4:
     0.254050,0.378568,0.000000,0.006686,0.000000,266.000000,266.000000,0.000000,1.000000,0.000000,0.000000,0.254050,0.378568,0.000000,0.006686,0.000000,266.000000,266.000000,0.000000,1.000000,0.000000,0.000000:
0000
0000
0000
0000
,
0000
0000
0000
0000
,
0000
0000
0000
0000
,
0000
0000
0000
0000
,
0000
0000
0000
0000
,
0000
0000
0000
0000
,
0000
0000
0000
0000
,
0000
0000
0000
0000
,
0000
0000
0000
0000
,
0000
0000
0000
0000
,
0000
1000
0000
1000
0000
0001
0000
0001
,
0000
1000
0000
1000
0000
0001
0000
1000
,
0000
0001
0000
1000
0000
1000
0000
0001
,
0000
0001
0000
1000
0000
0001
0000
1000
,
0000
0001
0000
0000
0000
0000
0000
0000
,
0000
0010
0000
0100
0000
0010
0000
0100
,
0000
0010
0000
0000
0000
0000
0000
0000
,
0000
1000
0000
0010
0000
1000
0000
0010
,
0000
1000
0000
0000
0000
0001
0000
0000
,
0000
0100
0000
0000
0000
0010
0000
0000
,
0000
1000
0000
0000
0000
0000
0000
0000
,
0000
0000
0000
0000
,
0000
0000
0000
0000
0000
1000
0000
0000
,
0000
0100
0000
0000
0000
0010
0000
0000
,
0000
0001
0000
0000
0000
0000
0000
0000
,
0000
0000
0000
0000
,
0000
0000
0000
0000
0000
0100
0000
0000
,
0000
0010
0000
0000
0000
1000
0000
0000
,
0000
0001
0000
0000
0000
0000
0000
0000
,
0000
0000
0000
0000
,
0000
0000
0000
0000
0000
0010
0000
0000
,
0000
0100
0000
0000
0000
1000
0000
0000
,
0000
0001
0000
0000
0000
0000
0000
0000
,
0000
0000
0000
0000
,
0000
1000
0000
1000
0000
0001
0000
0000
,
0000
0001
0000
0001
0000
1000
0000
0000
,
0000
0010
0000
0100
0000
0010
0000
0100
,
0000
0010
0000
0010
0000
0100
0000
0100
,
0000
0000
0000
0010
0000
1000
0000
0000
,
0000
0001
0000
0100
0000
0001
0000
0000
,
0000
0000
0000
1000
0000
0100
0000
1000
,
0000
0100
0000
0010
0000
0010
0000
0001
,
0000
1000
0000
0000
0001
0000
0000
1000
,
0000
0000
0000
0000
,
0000
0000
0000
0000
,
0000
0000
0000
0000
,
0000
0001
0000
0000
1000
0000
0000
0001
,
0000
0000
0000
0000
,
0000
0000
0000
0000
,
0000
0000
0000
0000
,
0000
0010
0000
0010
0000
0010
0000
0000
,
0000
1000
0000
1000
0000
0001
0000
0001
,
0000
1000
0000
0000
0001
0000
0000
1000
,
0000
0000
0000
0000
0000
0001
0000
0001
,
0000
0010
0000
0000
0100
0000
0000
1000
,
0000
0000
0100
0000
0000
0010
0000
0001
,
0000
0100
0000
0000
0010
0000
0000
1000
,
0000
0000
0000
0000
0000
0001
0000
0000
,
0000
1000
0000
1000
0000
0001
0000
0000
,
0000
0001
0000
0001
0000
1000
0000
0000
,
0000
0001
0000
0010
0000
0100
0000
1000
,
0000
0000
0000
0000
0000
0100
0000
1000
,
0000
0001
0000
0000
0000
0100
0000
0000
,
0000
0010
0000
0000
0000
1000
0000
0000
,
0001
0000
1000
0000
0001
0001
0001
1000
,
0000
0001
0000
1000
0000
0001
0000
0100
,
0000
0010
0000
0100
0000
0010
0000
1000
,
0000
0001
0000
0100
0000
0010
0000
1000
,
0000
0001
0000
0001
0000
1000
0000
0000
,
0000
1000
0000
1000
0000
1000
0000
0001
,
0000
0001
0000
0001
0000
1000
0000
0001
,
0000
1000
0000
0000
0001
0000
1000
0000
,
0000
0001
0000
0000
1000
0000
0001
0000
,
0000
1000
0000
1000
0000
1000
0000
0001
,
0000
0001
0000
0001
0000
0100
0000
0010
,
0000
0100
0000
0001
0000
1000
0000
0100
,
0000
0010
0000
0100
0000
1000
0000
0001
,
0000
1000
0000
0000
0000
0000
0000
0000
,
0000
0001
0000
0000
0000
0100
0000
0000
,
0000
0010
0000
0000
0000
0000
0000
0000
,
0000
1000
0000
0000
0000
0100
0000
0000
,
0000
0010
0000
0001
0000
0100
0000
0001
,
0000
0010
0000
0001
0000
1000
0000
1000
,
0000
0010
0000
1000
0000
0100
0000
1000
,
0000
0010
0000
0001
0000
0001
0000
0000
,
0000
1000
0000
1000
0000
0001
0000
0001
,
0000
0100
0000
0010
0000
1000
0000
0001
,
0000
1000
0000
0000
0010
0000
0010
0000
,
0000
1000
0000
0000
0100
0000
0100
0000
,
0000
0010
0000
0010
0000
0001
0000
0001
,
0000
1000
0000
1000
0000
0001
0000
0100
,
0000
0001
0000
1000
0000
1000
0000
0001
,
0000
1000
0000
0001
0000
1000
0000
1000
,
0000
0001
0000
0000
0000
0000
0000
0001
,
0000
0010
0000
0100
0000
1000
0000
0100
,
0000
1000
0000
0000
0000
0000
0000
0000
,
0000
1000
0000
0010
0000
0100
0000
0001
,
0000
0100
0000
0000
0000
0001
0000
0000
,
0000
1000
0000
0000
0000
0001
0000
1000
,
0000
0100
0000
0000
0000
0010
0000
0000
,
0000
0001
0000
1000
0000
0001
0000
0000
,
0000
1000
0000
0000
0000
0001
0000
0000
,
0000
0100
0000
0010
0000
1000
0000
0000
,
0000
0001
0000
0000
0000
1000
0000
0000
,
0000
0100
0000
0010
0000
0001
0000
0000
,
0000
0100
0000
0000
0000
0001
0000
0000
,
0000
0010
0000
0100
0000
1000
0000
0000
,
0000
0001
0000
0000
0000
0100
0000
0000
,
0000
0010
0000
0100
0000
0001
0000
0000
,
0000
1000
0000
0000
0000
0001
0000
0000
,
0000
0010
0000
0100
0000
1000
0000
0000
,
0000
0100
0000
0000
0000
0010
0000
0000
,
0000
0001
0000
0000
0000
1000
0000
0002
,
0000
0003
0000
0000
;

//---------------dance-single - ----------------
#NOTES:
     dance-single:
     :
     Challenge:
     14:
     0.680013,0.757135,0.167138,0.240679,0.147081,712.000000,687.000000,25.000000,36.000000,0.000000,0.000000,0.680013,0.757135,0.167138,0.240679,0.147081,712.000000,687.000000,25.000000,36.000000,0.000000,0.000000:
// measure 0
0000
0000
0000
0000
,  // measure 1
0000
0000
1000
0000
0001
0000
1000
0000
0001
0000
0010
0100
0010
0100
1000
0000
,  // measure 2
0000
1000
0000
0001
0000
0001
0100
0010
,  // measure 3
0100
0001
0000
1000
0000
0001
0001
1000
,  // measure 4
0010
0100
0000
0001
0100
0000
0001
0000
,  // measure 5
0100
0000
0001
0001
0100
0010
0000
0100
,  // measure 6
0000
1000
1000
0100
0000
0010
0000
0100
,  // measure 7
0000
1000
0100
0001
0000
0010
0100
0010
,  // measure 8
1000
1001
0000
0000
1100
0000
0011
0000
,  // measure 9
0100
0010
1001
0000
0000
0000
0000
0000
0110
0000
0000
0000
1000
0001
1000
0001
,  // measure 10
0100
0001
0000
1000
0000
0001
0000
1000
,  // measure 11
0100
0010
0000
0100
0000
1000
0010
0100
,  // measure 12
0001
0100
0000
0001
0010
0000
0001
0000
,  // measure 13
0010
0000
0000
0000
0100
0000
0010
0000
0100
0000
0000
0000
0010
0000
0100
1000
,  // measure 14
0100
1000
0010
0000
0000
0000
0100
0000
0000
0000
0010
0000
0100
0000
0010
0000
,  // measure 15
0100
0001
0000
0100
0001
0000
0100
0001
,  // measure 16
0002
2000
0003
0000
3000
0000
1000
0010
,  // measure 17
1000
0010
0000
1000
0010
1000
1000
0010
,  // measure 18
0100
0101
0000
1000
0100
0001
0100
1000
,  // measure 19
0000
0001
0010
1000
0010
0001
0000
1000
,  // measure 20
0100
0001
1000
0010
0001
0000
1000
0010
,  // measure 21
1000
1000
0001
1000
1000
1001
0000
0001
,  // measure 22
1000
0010
0000
0001
0100
1000
0100
0001
,  // measure 23
0000
1000
0010
0001
0010
1000
0000
0100
,  // measure 24
0001
1000
0010
0100
0001
0000
0100
1000
,  // measure 25
0000
0000
0100
0000
0001
0000
1000
0000
0010
0000
0100
0010
0100
0000
0010
0000
,  // measure 26
0010
0000
0000
1000
0100
0001
0010
1000
,  // measure 27
0000
0001
0100
1000
0010
0001
0000
1000
,  // measure 28
0100
0010
1000
0010
0100
0000
0010
0100
,  // measure 29
0000
0010
0001
0010
0000
1001
0000
0001
,  // measure 30
1000
0100
0000
0001
0010
1000
0100
0001
,  // measure 31
0000
1000
0010
0001
0100
1000
0000
0001
,  // measure 32
0100
0001
1000
0001
1000
0000
0010
1000
,  // measure 33
0000
0000
0010
0000
1000
0000
0010
0000
1000
0000
1001
0000
0001
0000
1000
0001
,  // measure 34
1000
0100
0010
0100
0010
0000
0000
0001
,  // measure 35
0000
0010
1000
0010
1000
0000
0000
0001
,  // measure 36
1000
0000
0000
0001
0100
1000
0001
1000
,  // measure 37
0010
0001
0000
1000
0000
0001
0010
0001
,  // measure 38
0010
0000
0000
1000
0100
1000
0100
0000
,  // measure 39
0000
1000
0010
1000
0010
0000
0000
0100
,  // measure 40
0001
0000
0000
0100
0001
0010
0100
1000
,  // measure 41
0100
0010
0000
0001
0000
1000
0001
1000
,  // measure 42
0000
2020
0000
3030
0202
0000
0303
2002
,  // measure 43
0000
3003
0100
0001
0100
0002
0000
1000
,  // measure 44
0003
1000
0100
0010
0100
0010
0000
0010
,  // measure 45
0001
0000
1000
0100
0001
0010
1000
0100
,  // measure 46
0000
2020
0000
3030
0202
0000
0303
2002
,  // measure 47
0000
0000
3003
0000
0100
1000
0100
0000
0010
0000
0020
0000
0000
0000
0030
0000
,  // measure 48
0001
0000
0010
0001
0010
0001
0100
0100
,  // measure 49
0010
0000
0000
0000
0100
0000
0001
0000
0010
0000
1000
0000
0001
0100
0001
0100
,  // measure 50
0010
1000
0100
0000
0010
0000
1000
0000
0100
0000
0000
0000
0000
0000
0100
0000
,  // measure 51
1000
0010
0001
0000
0001
0010
1000
0100
,  // measure 52
0001
0100
0000
1000
0200
0000
0300
2000
,  // measure 53
0000
0000
0000
3000
0100
1000
0010
0001
,  // measure 54
0010
0200
0000
0000
0302
0000
0000
0023
,  // measure 55
0000
0000
2030
0000
0000
3010
0000
0100
,  // measure 56
0000
1000
0000
0010
0200
0000
0000
0320
,  // measure 57
0000
0000
0000
0000
0000
0000
0030
0000
0000
0000
0100
0010
0100
0010
0001
0000
,  // measure 58
0001
1000
0001
0000
0100
0000
0001
0000
0100
0000
0000
0000
0000
0000
1000
0000
,  // measure 59
0010
1000
0010
0000
1000
0001
0010
0100
,  // measure 60
1000
0100
0000
0100
0010
0000
0010
0002
,  // measure 61
0000
0000
0003
0010
1000
0100
0001
0010
,  // measure 62
1000
0100
0000
0001
0010
1000
0000
0100
,  // measure 63
0001
0000
0010
0000
0000
0000
1000
0000
0100
0000
0001
0000
0000
0000
0010
1000
,  // measure 64
0100
0000
0000
0000
0100
0000
1000
0000
0000
0000
1000
0000
0001
0000
0000
0000
2000
0000
0000
0000
3002
0000
0000
0000
1003
0001
1000
0001
0010
0000
0000
0000
,  // measure 65
0100
0010
0000
1000
0000
0010
0000
0100
,  // measure 66
0010
1000
0000
0001
0000
0100
0010
1000
,  // measure 67
0001
0100
0000
0010
1000
0000
0001
0000
,  // measure 68
0100
0000
0001
0100
1000
0010
0000
0001
,  // measure 69
0000
0010
0000
0100
0000
1000
0000
0100
,  // measure 70
0000
0010
0100
1000
0000
0100
0010
0001
,  // measure 71
1000
0200
0000
0300
0110
0000
0110
0000
,  // measure 72
0010
0100
1001
0000
0000
0000
0000
0000
0110
0000
0000
0000
1000
0100
1000
0100
,  // measure 73
0010
0001
0000
0100
0000
0010
0000
1000
,  // measure 74
0010
0100
0000
0001
0000
0100
0001
0010
,  // measure 75
0100
1000
0000
0100
0010
0000
0001
0000
,  // measure 76
1000
0000
0000
0000
0001
0000
1000
0000
0001
0000
0000
0000
1000
0001
1000
0010
,  // measure 77
0100
0010
1000
0000
0000
0000
1000
0000
0000
0000
0010
0000
0100
0000
0010
0000
,  // measure 78
0100
0001
0000
0100
0001
0000
0100
0000
,  // measure 79
0001
0010
0000
0100
0000
1000
0100
1000
,  // measure 80
0001
0000
1000
0000
0010
0000
0010
0000
0100
0000
0100
0000
0001
0100
0001
0100
,  // measure 81
0010
1000
0000
0010
0000
0100
0000
0001
,  // measure 82
1000
0010
0000
0100
0000
0001
0010
0100
,  // measure 83
1000
0100
0000
0010
0100
0000
1000
0000
,  // measure 84
0010
0000
0001
0010
1000
0100
0000
1000
,  // measure 85
0000
0100
0000
1000
0000
0010
0000
0100
,  // measure 86
0000
0001
0010
0001
0000
0100
0010
0001
,  // measure 87
0010
0100
0000
0000
0110
0000
0110
0000
,  // measure 88
0010
0100
1001
0000
0000
0000
0000
0000
0110
0000
0000
0000
0001
1000
0001
0100
,  // measure 89
0010
0100
0001
0000
0000
0000
0001
0000
0000
0000
1000
0000
0000
0000
0001
0000
,  // measure 90
0100
0010
0000
1000
0000
0001
0010
1000
,  // measure 91
0010
0001
0000
0100
0001
0000
0100
0000
,  // measure 92
1000
0000
0000
0000
0100
0000
0000
0000
0001
0000
0000
0000
0010
0001
0010
0001
,  // measure 93
1000
0100
2000
0000
0000
0000
0001
0000
0000
0000
3001
0000
1000
0000
0010
0000
,  // measure 94
0100
0001
0000
1000
0010
0000
0100
0000
,  // measure 95
0002
2000
0003
0001
3000
0001
1000
0100
,  // measure 96
0010
0001
0010
0000
0001
0000
0100
0100
,  // measure 97
0010
1000
0000
1000
0010
0001
0010
1000
,  // measure 98
0000
1000
0100
0001
0100
1000
0000
1000
,  // measure 99
0001
0100
0010
1000
0001
0000
0001
0100
,  // measure 100
0000
0100
0001
0010
0100
1100
1000
1000
,  // measure 101
0001
0000
0000
1000
0100
0010
0001
0010
,  // measure 102
0000
0001
0010
0100
1000
0100
0000
1000
,  // measure 103
0100
0010
0001
0000
1000
0000
0001
1000
,  // measure 104
0001
0000
2000
0000
0000
0000
0000
0000
0000
0000
3010
0100
0010
0100
0001
1000
,  // measure 105
0001
1000
0100
0000
0000
0000
0100
0000
0001
0000
0010
0000
0001
0000
0100
0000
,  // measure 106
0000
0100
1000
0010
1000
0100
0000
0010
,  // measure 107
1000
0001
0100
0010
1000
0000
0001
0100
,  // measure 108
0000
0010
1000
0001
0100
1001
1000
0001
,  // measure 109
0001
0100
0100
0100
0001
0010
0010
0100
,  // measure 110
1000
0000
0010
1000
0000
0010
0100
0001
,  // measure 111
0000
1000
0001
0100
0010
0000
1000
0010
,  // measure 112
0000
0000
1000
0000
0010
0000
0100
0000
0002
0000
2003
0001
3010
0100
2000
0100
,  // measure 113
3020
0030
0000
0000
;
