#TITLE:Hacking to the Gate;
#SUBTITLE:Steins Gate Opening 1;
#ARTIST:Kanako Itou;
#TITLETRANSLIT:;
#SUBTITLETRANSLIT:;
#ARTISTTRANSLIT:;
#GENRE:;
#CREDIT:Magna Trick;
#BANNER:HTTGBN.png;
#BACKGROUND:HTTGB.png;
#LYRICSPATH:;
#CDTITLE:Magna Trick title!.png;
#MUSIC:Hacking to the Gate.mp3;
#OFFSET:0.083575;
#SAMPLESTART:65.000000;
#SAMPLELENGTH:11.000000;
#SELECTABLE:YES;
#BPMS:0.000000=161.000000
,112.000000=80.500000
,120.000000=161.000000
,136.000000=80.500000
,143.500000=161.000000
,161.000000=80.500000
,162.500000=161.000000
;
#STOPS:
;
#BGCHANGES:0.063=Hacking to the Gate.avi=1.000=0=0=1=====,
231.500=HTTGB.png=1.000=0=0=1=====,
99999=-nosongbg-=1.000=0=0=0 // don't automatically add -songbackground-
;
#KEYSOUNDS:;
#ATTACKS:;

//---------------dance-single - ----------------
#NOTES:
     dance-single:
     :
     Challenge:
     13:
     0.627666,0.824797,0.588625,0.367891,0.252268,418.000000,362.000000,56.000000,35.000000,0.000000,0.000000,0.627666,0.824797,0.588625,0.367891,0.252268,418.000000,362.000000,56.000000,35.000000,0.000000,0.000000:
0000
0000
0000
0000
,
0000
0000
0000
0000
,
0000
0000
0000
0000
,
0000
0000
0000
0000
,
0000
0001
0010
0001
1000
0000
1001
0000
,
1000
0001
0100
0001
1000
0000
1001
0000
,
1000
0001
0010
0001
1000
0000
1001
0000
,
1000
0001
0100
0001
1000
0000
1001
0000
,
0001
1000
0002
0000
0000
0000
0013
0000
0000
0000
0200
0000
0000
0000
1300
0000
,
0100
1000
0200
0000
0000
0000
0310
0000
0000
0000
0002
0000
0000
0000
1003
0000
,
0000
0020
0000
0130
0000
0002
0000
1003
,
0000
0200
0000
0310
0000
0002
0000
1003
,
0000
0010
0100
0010
1000
0010
0100
0010
,
1000
0100
0010
0002
0000
1003
0000
0001
,
0010
0100
0010
0001
0010
0100
0010
0001
,
0100
2000
0000
3001
0000
0001
0010
1000
,
0000
1000
0010
0100
0001
2000
0000
3001
,
0100
0001
0000
1000
0010
0000
2000
0010
,
3100
0101
0101
0101
0101
0000
1001
1000
,
1001
0000
0000
0000
0100
0000
0000
0000
0010
0000
0000
0000
0001
0000
0000
0000
0000
0000
0000
0000
0000
0000
0000
0000
1000
0000
0000
0100
0000
0000
0010
0000
0000
0001
0000
0000
0010
0000
0000
0100
0000
0000
1000
0000
0000
0010
0000
0000
,
1000
0001
0100
0000
0001
0000
0100
0000
0001
0000
0100
0000
0001
0000
0100
0000
,
0001
0010
0001
0000
0010
0000
0001
0000
0010
0000
0001
0000
0010
0000
0001
0000
,
1000
0001
1000
0000
0001
0000
1000
0000
0001
0000
1000
0000
0001
0000
1000
0000
,
0010
1000
0010
0000
1000
0000
0010
0000
1000
0000
0010
0000
1000
0000
0010
0000
,
1000
0100
1000
0000
0100
0000
1000
0000
0100
0000
1000
0000
0100
0000
1000
0000
,
0100
0010
0100
0000
0010
0000
0100
0000
0010
0000
0100
0000
0010
0000
0100
0000
,
0010
0001
0010
0000
0001
0000
1000
0000
0010
0000
0100
0001
1000
0100
1000
0010
,
1001
0000
0011
1001
0000
1100
1001
0000
,
0110
0000
0000
0001
0000
1000
0001
0000
1000
0000
0100
0010
0100
1000
0000
0010
,
0000
0100
0000
0001
0100
0000
0001
0100
0001
0000
1000
0010
0100
0001
0100
0001
,
0010
0001
0010
0001
0010
0001
0010
0100
,
0010
0100
0010
0000
0100
0000
1000
0000
0100
0000
1000
0000
0100
0000
1000
0000
,
0100
0010
0000
0001
0100
0000
0010
0100
,
0001
1100
0011
1001
0000
1000
1001
0000
,
0110
0000
0000
0001
0000
1000
0010
0000
0100
0000
0001
0010
0001
1000
0000
0100
,
0000
0010
0000
0100
1000
0000
0010
0100
0010
0000
0100
0001
0010
0001
1000
0000
,
0010
1000
0001
1000
0001
1000
0001
1000
,
0001
0000
1000
0100
0010
0000
0001
0000
0100
0000
0001
0000
0100
0000
0001
0000
,
0100
0101
0000
0001
1000
1001
0000
0000
,
0100
0110
0000
0100
0010
1001
0000
0001
,
1000
0000
0000
0000
0000
0000
0000
0000
0000
0000
0000
0000
1001
0000
0000
0000
0000
0000
1000
0000
0000
0001
0000
0000
1000
0000
0100
0000
0010
0000
0001
0000
0000
1000
0000
0000
0001
0000
0000
0000
0000
0000
1000
0000
0000
0000
0000
0000
,
1100
0000
0110
0000
0011
0001
2002
0000
,
0000
0000
3003
0000
0100
0001
0021
0000
,
0000
0130
2100
0000
3002
0003
0201
0000
,
0302
2003
0000
0000
0000
3000
0001
1000
,
0010
1000
1001
0000
0010
0100
0120
0000
,
0000
0000
0000
0030
1000
0010
1020
0000
,
0000
0130
0102
0000
2003
0000
3020
0000
,
0030
0100
0001
1000
0010
0200
0300
0100
,
1100
0000
1001
0000
0101
0100
0120
0000
,
0000
0000
0000
0000
1030
0100
0102
0000
,
0003
1000
2100
0000
3001
0000
1001
0000
,
0100
0120
0000
0000
0030
0000
1000
0100
,
0011
0001
1001
0000
1010
1000
1002
0000
,
0000
0000
0000
0003
0100
0001
0021
0000
,
0030
1000
2010
0000
3001
0000
0101
0000
,
0001
0000
1000
0000
0001
0000
0001
0000
0001
1000
0100
0010
0001
0010
0100
0000
,
1001
0011
1100
0220
,
0000
0330
0000
0000
0000
0000
0000
0000
;

//---------------dance-single - ----------------
#NOTES:
     dance-single:
     :
     Easy:
     3:
     0.232747,0.333861,0.063067,0.000000,0.073578,155.000000,149.000000,6.000000,0.000000,0.000000,0.000000,0.232747,0.333861,0.063067,0.000000,0.073578,155.000000,149.000000,6.000000,0.000000,0.000000,0.000000:
0000
0000
0000
0000
,
0000
0000
0000
0000
,
0000
0000
0000
0000
,
0000
0000
0000
0000
,
0000
0000
0000
0000
,
0000
0000
0000
0000
,
0000
0000
0000
0000
,
0000
0000
0000
0000
,
0000
0001
0000
0000
0000
1000
0000
0000
,
0000
0010
0000
0000
0000
0100
0000
0000
,
0000
0001
0000
0000
0000
0100
0000
0000
,
0000
0010
0000
0000
0000
1000
0000
0000
,
0000
0001
0000
0001
0000
0001
0000
0001
,
0000
0001
0000
1000
0000
0000
0000
0000
,
0000
1000
0000
1000
0000
1000
0000
1000
,
0000
0001
0000
0000
0000
0010
0000
0010
,
0000
0100
0000
0100
0000
0010
0000
0000
,
0000
1000
0000
1000
0000
0001
0000
0001
,
0000
1000
0000
0000
0000
0001
0000
0000
,
0000
1000
0000
0000
0000
0010
0000
0010
,
0000
1000
0000
1000
0000
1000
0000
1000
,
0000
0001
0000
0001
0000
0001
0000
0001
,
0000
1000
0000
1000
0000
1000
0000
1000
,
0000
0001
0000
0001
0000
0001
0000
0001
,
0000
0010
0000
0010
0000
0010
0000
0010
,
0000
0100
0000
0100
0000
0100
0000
0100
,
0000
1000
0000
0001
0000
1000
0000
0001
,
1000
0000
0001
0000
0000
1000
0001
0000
,
1000
0000
0000
0000
0000
0001
0000
0000
0000
1000
0000
0000
0000
0001
0000
0000
,
0000
1000
0000
0000
0000
0001
0000
0000
0000
1000
0000
0000
0000
0001
0000
0000
,
0000
0100
0000
0100
0000
0100
0000
0100
,
0000
0010
0000
0010
0000
0010
0000
0010
,
0000
1000
0000
0000
0000
0001
0000
0000
,
0000
0010
0000
0100
0000
0010
0001
0000
,
1000
0000
0000
0000
0000
0001
0000
0000
0000
1000
0000
0000
0000
0001
0000
0000
,
0000
0100
0000
0000
0000
0010
0000
0000
0000
1000
0000
0000
0000
0001
0000
0000
,
0000
1000
1000
1000
,
1000
0001
0001
0001
,
0001
0010
0000
0100
,
0000
1000
0000
0001
,
0000
0000
0100
0000
0000
0000
0000
0010
,
0000
1000
0000
0010
0000
1000
0000
0010
,
0000
0000
0000
0000
0000
0000
0000
0001
,
0000
0000
0000
0100
0000
0000
0000
0010
,
0000
0000
0000
0000
0000
0000
0000
1000
,
0000
0001
0000
0010
0000
0100
0000
0010
,
0000
0000
0000
0000
0000
0000
0000
0001
,
0000
0000
0000
0100
0000
0000
0000
0010
,
0000
0000
0000
1000
0000
0001
0000
1000
,
0000
0001
0000
1000
0000
0001
0000
1000
,
0000
0000
0000
0000
0000
0000
0000
0010
,
0000
0000
0000
1000
0000
0000
0000
0001
,
0000
0100
0000
0000
0000
0000
0000
0010
,
0000
1000
0000
0100
0000
0010
0000
0001
,
0000
0000
0000
1001
,
0000
1001
0000
1001
,
0000
0000
0000
1000
0000
0001
0000
1000
,
0000
1001
1001
1001
;

//---------------dance-single - ----------------
#NOTES:
     dance-single:
     :
     Medium:
     8:
     0.376900,0.549865,0.210223,0.273290,0.078834,251.000000,231.000000,20.000000,26.000000,0.000000,0.000000,0.376900,0.549865,0.210223,0.273290,0.078834,251.000000,231.000000,20.000000,26.000000,0.000000,0.000000:
0000
0000
0000
0000
,
0000
0000
0000
0000
,
0000
0000
0000
0000
,
0000
0000
0000
0000
,
0000
0000
0000
0000
,
0000
0001
1000
0001
1000
0000
0001
0000
,
0000
1000
0001
1000
0001
0000
1000
0000
,
0000
0010
0100
0010
0100
0000
0010
0000
,
0000
2000
0000
0000
0000
3002
0000
0000
,
0000
0023
0000
0000
0000
0230
0000
0000
,
0000
2300
0000
0000
0000
3002
0000
0000
,
0000
0203
0000
0000
0000
0320
0000
0000
,
0000
1030
0000
1000
0000
1000
0000
1000
,
0000
0010
1000
0010
0000
0000
0000
0000
,
0000
0001
0000
0001
0000
0001
0000
0001
,
0000
0010
0001
0010
0000
0000
0000
0000
,
0000
1000
0000
0001
0000
1000
0000
0000
,
0000
0001
0000
1000
0000
0001
0000
0100
,
0000
0010
0000
0010
0000
0010
0000
0000
,
0000
1000
0000
0000
0000
0001
0100
0001
,
0000
1000
0000
1000
0000
0001
0000
0001
,
0000
1000
0001
1000
0000
0000
0000
0001
,
0000
0001
0000
1000
0000
1000
0000
0100
,
0010
0100
0000
0000
0000
0010
0000
0010
,
0000
0001
0000
1000
0001
0000
0000
0010
,
0100
0010
0000
1000
0010
0000
1000
0001
,
1000
0000
0000
0000
0001
0010
0000
0100
,
0010
0000
0100
1000
0000
0001
1000
0000
,
0001
0000
0000
1000
0000
0001
1000
0000
0001
0000
0010
0100
0010
0000
0000
0000
,
0100
1000
0000
0001
0100
0000
0010
0100
0010
0000
0000
0000
0000
0000
1000
0001
,
1000
0000
0001
1000
0000
0000
0001
1000
,
0001
0000
1000
0001
0000
0000
0000
0010
,
0100
0010
0000
0100
0010
0000
0100
0000
,
0010
1000
0001
0100
0000
0010
1000
0000
,
0001
0000
0000
1000
0000
0100
1000
0000
0100
0000
1000
0100
1000
0000
0000
0000
,
0001
0010
0000
0001
0010
0000
0001
0010
0001
0000
0000
0000
0000
0000
1000
0000
,
0001
1000
0000
0000
0001
1000
0000
0001
,
1000
0001
0000
0000
1000
0001
0000
0001
,
0010
0100
0000
0100
0010
0001
0000
0000
,
0001
0100
0000
0010
0100
0010
0000
0100
,
0010
0000
0000
0000
1000
0000
0001
1000
0001
1000
0001
0000
0000
0000
1000
0000
,
1100
1001
0101
0220
,
0000
0000
0330
0000
0010
1000
0010
0000
,
0000
0100
0001
0000
0100
0000
0010
0000
,
1000
0200
0000
0000
0300
0000
0000
0001
,
0011
1100
1001
0220
,
0000
0000
0330
0000
0001
0100
0010
0000
,
0000
0010
0100
0000
0010
0000
0100
0000
,
0000
0010
1000
0100
0010
0001
0000
0001
,
0101
1010
0110
2002
,
0000
0000
3003
0000
0100
1000
0001
0000
,
0000
0100
0001
0000
1000
0000
0001
0000
,
1000
0002
0000
0000
0000
0003
0000
0001
,
1001
1010
0101
0220
,
0000
0000
0330
0000
0010
1000
0200
0000
,
0000
0310
0002
0000
0203
0000
0320
0000
,
2030
0002
0000
0000
0000
0000
3003
1000
,
1100
0011
0110
2002
,
0000
3003
0000
0000
0000
0000
0000
0000
;

//---------------dance-single - ----------------
#NOTES:
     dance-single:
     :
     Hard:
     10:
     0.542075,0.733153,0.241757,0.346868,0.147156,361.000000,338.000000,23.000000,33.000000,0.000000,0.000000,0.542075,0.733153,0.241757,0.346868,0.147156,361.000000,338.000000,23.000000,33.000000,0.000000,0.000000:
0000
0000
0000
0000
,
0000
0000
0000
0000
,
0000
0000
0000
0000
,
0000
0000
0000
0000
,
0000
0010
0100
0010
0100
0000
1000
0000
,
0001
1000
0001
1000
0001
0000
1000
0000
,
0001
1000
0001
1000
0001
0000
1000
0000
,
0001
1000
0001
1000
0001
0000
1000
0000
,
0001
2000
0000
3100
0000
0020
0000
0031
,
0000
0020
0000
0130
0000
2000
0000
3001
,
0000
0200
0000
0310
0000
2000
0000
3001
,
0000
0020
0000
0130
0000
2000
0000
3001
,
0000
0100
0010
0100
0001
0100
0010
0100
,
0001
0100
0010
0100
0000
0001
0000
1000
,
0100
0010
0100
1000
0100
0010
0100
1000
,
0100
0010
0000
0100
0000
1000
0001
1000
,
0000
0001
0100
0010
1000
0001
0000
1000
,
0010
1000
0000
0001
0100
0000
0001
0100
,
0010
1000
1000
1000
1000
0000
0001
0001
,
0001
0000
0000
0000
0000
0000
0010
0000
0001
0010
0001
0100
0001
0100
0001
1000
,
0001
1000
0010
0000
1000
0000
0010
0000
1000
0000
0010
0000
1000
0000
0010
0000
,
1000
0100
1000
0100
1000
0100
1000
0100
,
1000
0001
1000
0001
1000
0001
1000
0001
,
1000
0001
0100
0001
0100
0001
0100
0001
,
0100
0001
0010
0001
0010
0001
0010
0001
,
0010
0100
0010
0100
0010
0100
0010
0100
,
0010
0100
1000
0001
0100
0010
1000
0001
,
0011
0000
1100
1000
0000
0001
1001
0000
,
0110
0000
0000
1000
0000
0001
1000
0000
0001
0000
0010
0100
0010
0001
0000
0100
,
0000
0010
0000
1000
0010
0000
1000
0010
1000
0000
0001
0100
0010
1000
0010
1000
,
0100
1000
0100
1000
0100
1000
0100
1000
,
0100
0010
0100
0010
0100
0010
0100
0010
,
0100
0010
0000
0001
0010
0000
0001
0010
,
0001
1000
1000
1001
0000
0001
1001
0000
,
0110
0000
0000
1000
0000
0001
0100
0000
0010
0000
1000
0100
1000
0001
0000
0010
,
0000
0100
0000
0010
0001
0000
0100
0010
0100
0000
0010
1000
0100
1000
0001
0000
,
0100
0001
1000
0001
1000
0001
1000
0001
,
1000
0001
0010
0100
0010
0100
0010
0100
,
0010
0110
0000
1000
0001
1001
0000
0000
,
0010
0110
0000
0010
0100
1001
0000
1000
,
0001
0000
0000
0000
1001
0000
0001
1000
0001
1000
0001
0000
0000
0000
1000
0000
,
0100
1000
0002
0000
0013
0001
2000
0000
,
0000
0000
3000
0000
0010
1000
0200
0000
,
0000
0310
0002
0000
0203
0000
0320
0000
,
2030
3002
0000
0000
0000
0003
1000
0001
,
0100
0001
1001
0000
0100
0010
0210
0000
,
0000
0000
0000
0300
0010
0001
0200
0000
,
0000
0320
2030
0000
3002
0000
0203
0000
,
0300
0010
1000
0001
0100
0020
0030
0010
,
1000
0100
0020
0030
1001
0000
0210
0000
,
0000
0000
0000
0000
0301
0010
2000
0000
,
3000
1000
0020
0000
0031
0000
0100
0000
,
0010
0210
0000
0000
0300
0000
0001
1000
,
0100
1000
0001
0000
0100
0001
2000
0000
,
0000
0000
0000
3000
0010
1000
0200
0000
,
0300
0010
0012
0000
1003
0000
1010
0000
,
1000
0001
0000
1000
0000
0001
0000
1000
,
1001
1100
0011
0220
,
0000
0330
0000
0000
0000
0000
0000
0000
;
