#TITLE:Gurenge;
#SUBTITLE:Kimetsu No Yaiba Opening;
#ARTIST:LiSA;
#TITLETRANSLIT:;
#SUBTITLETRANSLIT:;
#ARTISTTRANSLIT:;
#GENRE:;
#CREDIT:Magna Trick;
#BANNER:GurengeBN.png;
#BACKGROUND:GurengeB.png;
#LYRICSPATH:;
#CDTITLE:Magna Trick title!.png;
#MUSIC:Gurenge.mp3;
#OFFSET:-0.224374;
#SAMPLESTART:62.000000;
#SAMPLELENGTH:11.000000;
#SELECTABLE:YES;
#BPMS:0.000000=67.474998
,12.500000=134.949997
,92.500000=67.474998
,100.250000=89.967003
,105.916664=101.211998
,108.916664=67.474998
,109.333336=134.949997
,112.500000=269.899994
,216.500000=134.949997
,219.500000=269.899994
,228.500000=134.949997
;
#STOPS:216.750000=0.440000
;
#BGCHANGES:0.063=Gurenge.avi=1.000=0=0=1=====,
227.000=GurengeB.png=1.000=0=0=1=====,
99999=-nosongbg-=1.000=0=0=0 // don't automatically add -songbackground-
;
#KEYSOUNDS:;
#ATTACKS:;

//---------------dance-single - ----------------
#NOTES:
     dance-single:
     :
     Hard:
     11:
     0.431491,0.571786,0.145429,0.357978,0.436286,270.000000,257.000000,13.000000,32.000000,0.000000,0.000000,0.431491,0.571786,0.145429,0.357978,0.436286,270.000000,257.000000,13.000000,32.000000,0.000000,0.000000:
0000
0000
0000
0000
0001
0000
0000
1000
0000
0000
0200
0000
0000
0000
0000
0000
0300
0000
0000
0000
1000
0000
0000
0001
0000
0000
0200
0000
0000
0000
0000
0000
,
0300
0000
0000
0000
0001
0000
0000
1000
0000
0000
0020
0000
0000
0000
0000
0000
0030
0000
0000
0000
1000
0000
0000
0001
0000
0000
0020
0000
0000
0000
0032
0000
,
0000
0000
2003
0000
3002
0000
0003
1000
0000
0000
0010
0000
0000
0000
2000
0000
0000
0000
3100
0000
0020
0000
0000
0000
0000
0000
0000
0000
0000
0030
0001
0000
,
0000
1000
0001
0000
0000
1000
0000
0000
0001
0000
0000
0100
0000
0000
0010
0000
,
1000
0000
0100
0000
0000
0010
0000
0000
0001
0000
0000
0100
0000
0000
0010
0000
,
1000
0000
0100
0000
0000
0010
0000
0000
0100
0000
0000
1000
0000
0000
0010
0000
,
0100
0000
0001
0000
0000
0100
0000
0000
0010
0000
0000
1000
0000
0000
0100
0000
,
0100
0000
0010
0000
0000
0001
0000
0000
1000
0000
0000
0001
0000
0000
1000
0000
,
0000
0020
0000
0000
0030
0000
0000
0000
0000
0000
0010
0000
1000
0000
0010
0000
,
0100
0001
0100
0010
0000
0000
0000
0000
,
0000
0000
0000
0000
0010
0000
1000
0010
0000
1000
0000
0000
0100
0000
0010
0000
,
0001
0000
0100
0000
0000
0100
0000
0000
0010
0000
0000
0010
0000
0000
1000
0000
,
0000
0001
0000
0000
0000
0000
0000
0000
0001
0000
1000
0100
1000
0001
0100
0000
,
0001
1000
0000
0000
0000
2000
0000
0000
0000
0000
3000
0000
0000
0000
0000
0000
,
0001
0000
1000
0000
0000
1000
0000
0000
0001
0000
0001
0000
0000
0000
0000
0000
,
0010
0000
0100
0000
0000
0010
0000
0000
0001
0000
0000
0100
0000
0000
0010
0000
,
0000
1000
0000
0000
0010
0000
1000
0000
0001
1000
0000
1000
0001
0000
1000
0000
,
0000
0000
0001
0000
0000
0010
0000
0000
0100
0000
0000
1000
0000
0000
2000
0000
,
0000
0000
3000
0000
0001
0000
0100
0000
0010
0100
0000
0100
0010
0000
1000
0000
,
0001
0000
1000
0000
0000
0001
0000
0000
1000
0000
0000
0100
0000
0000
0010
0000
,
0000
0001
0000
0000
0000
0000
0010
0000
0100
0000
1000
0000
0001
0000
0001
0000
,
0100
0000
0010
0000
0000
2000
0000
0000
0000
3000
0000
0000
0000
0000
0000
0000
,
0010
0000
1000
0000
0000
1000
0000
0000
1000
0000
0001
0000
0000
0000
0000
0000
,
0000
0000
0000
0000
0101
0000
0000
0010
0000
0000
1000
0000
0000
0000
0000
0000
0000
0000
0000
0000
1010
0000
0000
0001
0000
0000
0100
0000
0000
0000
0000
0000
,
0000
0000
0000
0000
0011
0000
0000
0100
0000
0000
1000
0000
0000
0000
0000
0000
0000
0000
0000
0000
1100
0000
0000
0010
0000
0000
0001
0000
0000
0000
1000
0000
,
0000
0000
0000
0001
0000
0000
0000
1000
0000
0000
0000
0000
0000
0000
0000
1000
0000
0000
0000
0000
0000
0000
0000
1000
0000
0000
0000
0000
0000
0000
0000
1000
0000
0000
0000
0000
0000
0000
0000
0001
0000
0000
0000
0000
0000
0000
0000
0001
,
0000
0000
0000
0000
0000
0000
0000
0000
0000
0000
0000
0000
0000
0000
0000
0000
0000
0000
0000
0000
0000
0000
0000
0000
0000
0000
0000
0000
0001
0000
0000
0000
0000
0000
0000
0000
0000
0000
0000
0000
0000
0000
0000
0000
0000
0000
0000
0000
0000
0000
0000
0000
0000
0000
0000
0000
0000
0000
0000
0000
0001
0000
0000
0000
0000
0000
0000
0000
0000
0000
0000
0000
0000
0000
0000
0000
0000
0000
0000
0000
0000
0000
0000
0000
0000
0000
0000
0000
0000
0000
0000
0000
0100
0000
0000
0000
0000
0000
0000
0000
0000
0000
0000
0000
0000
0000
0000
0000
0000
0000
0100
0000
0000
0000
0000
0000
0000
0000
0000
0000
0000
0000
0000
0000
0000
0000
0000
0000
0010
0000
0000
0000
0000
0000
0000
0000
0000
0000
0000
0000
0000
0000
0000
0000
0000
0000
0010
0000
0000
0000
0000
0000
0000
0000
0000
0000
0000
0000
0000
0000
0000
0000
0000
0000
1000
0000
0000
0000
0000
0000
0000
0000
0000
0000
0000
0000
0000
0000
0000
0000
0000
0000
1000
0000
0000
0000
0000
0000
0000
0000
0000
0000
,
0000
0000
0000
0000
0000
0000
0000
0000
0001
0000
0000
0000
0000
0000
0000
0000
0000
0000
0000
0000
0000
0000
0000
0000
0000
0000
0001
0000
0000
0000
0000
0000
0000
0000
0000
0000
0000
0000
0000
0000
0000
0000
0000
0000
1000
0000
0000
0000
0000
0000
0000
0000
0000
0000
0000
0000
0000
0000
0000
0000
0000
0000
0000
0000
0000
0000
0000
0000
0000
0000
0000
0000
1001
0000
0000
0000
0000
0000
0000
0000
0000
0000
0000
0000
0000
0000
0000
0000
0000
0000
0000
0000
0000
0000
0000
0000
0000
0000
0000
0000
0000
0000
0000
0000
0000
0000
0000
0000
0000
0000
0000
0000
0000
0000
0000
0000
0000
0000
0000
0000
0001
0000
0000
0000
0000
0000
0000
0000
0000
0000
0000
0000
0000
0000
0000
0000
0000
0000
0000
0000
0000
0000
0000
0000
0000
0000
0000
0000
0000
0000
0000
0000
0000
0000
0000
0000
0000
0000
0000
0000
0000
0000
0000
0000
0000
0000
0000
0000
1000
0000
0000
0000
0000
0000
0000
0000
0000
0000
0000
0000
0000
0000
0000
0000
0000
0000
0000
0000
0000
0000
0000
0000
,
0000
1001
0000
0001
0000
0010
0000
0100
,
0000
1000
0000
1000
0001
0000
0000
0001
,
0000
0100
0000
0010
0000
1000
0000
0100
,
0000
0010
0000
0010
0100
0000
0000
0100
,
0000
1000
0000
1000
0001
0000
0000
0001
,
0000
0001
0000
0100
0000
0100
0000
0010
,
0000
0020
0000
0000
0000
2030
0000
0000
,
0000
3002
0000
0000
0023
0000
0000
0230
,
0000
2300
0000
0000
3000
0000
0000
0001
,
0000
0000
0000
0100
0000
0010
0000
0100
,
0000
0001
0000
0000
0000
0010
0000
0100
,
0000
0000
0000
0010
0000
0001
0000
1000
,
0000
0010
0000
0000
1000
0000
0000
0001
,
0000
0000
0100
0000
0000
0010
0000
1000
,
0000
0100
0000
0000
0000
0020
0000
0000
,
0000
0032
0000
0000
0000
2003
0000
0000
,
0000
3001
0000
0100
0000
0001
0000
0010
,
0000
0001
0000
0100
0010
0000
0000
0100
,
0000
1000
0000
0010
0000
1000
0000
0100
,
0000
1000
0000
0010
0100
0000
0000
0100
,
0000
0020
0000
0000
0030
1000
0000
0002
,
0000
0000
0000
0013
0000
0100
0000
0020
,
0000
0000
0000
0000
0030
0002
0000
0000
,
0000
2003
0000
0000
0020
3000
0000
0130
,
0000
0002
0000
0000
0000
0003
0000
0020
,
0000
0000
0000
0130
0000
1000
0000
0001
,
0000
1001
0001
0100
0000
0010
0000
1010
,
0000
0000
0101
0000
0000
0011
0000
0000
,
1100
0000
0000
0000
0000
0000
0000
0000
0000
0110
0000
0000
0000
0000
0000
2002
0000
0000
0000
3003
0000
0000
0000
0000
;

//---------------dance-single - ----------------
#NOTES:
     dance-single:
     :
     Medium:
     7:
     0.357978,0.540218,0.078308,0.201363,0.251703,224.000000,217.000000,7.000000,18.000000,0.000000,0.000000,0.357978,0.540218,0.078308,0.201363,0.251703,224.000000,217.000000,7.000000,18.000000,0.000000,0.000000:
1000
0000
0000
0000
1000
0000
0000
0001
0000
0000
2000
0000
0000
0000
0000
0000
3000
0000
0000
0000
0001
0000
0000
1000
0000
0000
0002
0000
0000
0000
0000
0000
,
0003
0000
0000
0000
1000
0000
0000
0001
0000
0000
2000
0000
0000
0000
0000
0000
3000
0000
0000
0000
0001
0000
0000
1000
0000
0000
0002
0000
0000
0000
2003
0000
,
0000
0000
3002
0000
2003
0000
3000
0001
0000
0000
0100
0000
0000
0000
0010
0000
0000
0000
0001
0000
2000
0000
0000
0000
0000
0000
0000
0000
0000
0000
3001
0000
,
0000
1000
0001
0000
0000
0000
0001
0000
0000
0000
1000
0000
0000
0000
1000
0000
,
0010
1000
0000
0001
0000
0001
0000
0010
,
0001
0010
0000
0001
0000
0001
0000
1000
,
0010
1000
0000
0001
0000
0001
0000
1000
,
0001
1000
0000
1000
0000
0010
0000
0010
,
0000
0100
0000
0100
0000
0001
0000
0001
,
0000
1000
0000
1000
0000
0100
0000
0100
,
0000
0010
0001
0010
0100
1000
0100
0010
,
0001
0010
0000
0010
0000
0100
0000
0100
,
0000
1000
0000
1000
0000
0001
0100
0001
,
0000
0100
0000
0010
0000
1000
0000
0001
,
0000
1000
0000
1000
0000
0001
0000
0000
,
0000
0001
0000
1000
0000
0001
0000
1000
,
0000
0000
0000
0010
0100
0001
0000
1000
,
0000
0100
0000
0010
0000
0010
0000
0001
,
0000
0000
0000
0001
1000
0010
0000
0100
,
0000
0001
0000
0001
0000
1000
0000
1000
,
0000
0000
0000
0100
0000
0010
0000
0001
,
0000
0000
0010
0000
0000
0010
0000
0000
0000
0000
0000
0000
0000
0000
0100
0000
,
0000
0000
1000
0000
0000
1000
0000
0000
0001
0000
0100
0000
0000
0000
0010
0000
,
0000
0000
0000
0000
1000
0000
0000
0100
0000
0000
0010
0000
0000
0000
0000
0000
0000
0000
0000
0000
0001
0000
0000
1000
0000
0000
0010
0000
0000
0000
0000
0000
,
0000
0000
0000
0000
0100
0000
0000
0010
0000
0000
1000
0000
0000
0000
0000
0000
0000
0000
0000
0000
0001
0000
0000
0100
0000
0000
0010
0000
0000
0000
1000
0000
,
0000
0000
0000
1000
0000
0000
0000
0001
0000
0000
0000
0000
0000
0000
0000
0001
0000
0000
0000
0000
0000
0000
0000
0001
0000
0000
0000
0000
0000
0000
0000
0001
0000
0000
0000
0000
0000
0000
0000
1000
0000
0000
0000
0000
0000
0000
0000
1000
,
0000
0000
0000
0000
0000
0000
0000
0000
0000
0000
0000
0000
0000
0000
0000
0000
0000
0000
0000
0000
0000
0000
0000
0000
0000
0000
0000
0000
1000
0000
0000
0000
0000
0000
0000
0000
0000
0000
0000
0000
0000
0000
0000
0000
0000
0000
0000
0000
0000
0000
0000
0000
0000
0000
0000
0000
0000
0000
0000
0000
1000
0000
0000
0000
0000
0000
0000
0000
0000
0000
0000
0000
0000
0000
0000
0000
0000
0000
0000
0000
0000
0000
0000
0000
0000
0000
0000
0000
0000
0000
0000
0000
0010
0000
0000
0000
0000
0000
0000
0000
0000
0000
0000
0000
0000
0000
0000
0000
0000
0000
0010
0000
0000
0000
0000
0000
0000
0000
0000
0000
0000
0000
0000
0000
0000
0000
0000
0000
0100
0000
0000
0000
0000
0000
0000
0000
0000
0000
0000
0000
0000
0000
0000
0000
0000
0000
0100
0000
0000
0000
0000
0000
0000
0000
0000
0000
0000
0000
0000
0000
0000
0000
0000
0000
0001
0000
0000
0000
0000
0000
0000
0000
0000
0000
0000
0000
0000
0000
0000
0000
0000
0000
0001
0000
0000
0000
0000
0000
0000
0000
0000
0000
,
0000
0000
0000
0000
0000
0000
0000
0000
1000
0000
0000
0000
0000
0000
0000
0000
0000
0000
0000
0000
0000
0000
0000
0000
0000
0000
1000
0000
0000
0000
0000
0000
0000
0000
0000
0000
0000
0000
0000
0000
0000
0000
0000
0000
0001
0000
0000
0000
0000
0000
0000
0000
0000
0000
0000
0000
0000
0000
0000
0000
0000
0000
0000
0000
0000
0000
0000
0000
0000
0000
0000
0000
1001
0000
0000
0000
0000
0000
0000
0000
0000
0000
0000
0000
0000
0000
0000
0000
0000
0000
0000
0000
0000
0000
0000
0000
0000
0000
0000
0000
0000
0000
0000
0000
0000
0000
0000
0000
0000
0000
0000
0000
0000
0000
0000
0000
0000
0000
0000
0000
1000
0000
0000
0000
0000
0000
0000
0000
0000
0000
0000
0000
0000
0000
0000
0000
0000
0000
0000
0000
0000
0000
0000
0000
0000
0000
0000
0000
0000
0000
0000
0000
0000
0000
0000
0000
0000
0000
0000
0000
0000
0000
0000
0000
0000
0000
0000
0000
0001
0000
0000
0000
0000
0000
0000
0000
0000
0000
0000
0000
0000
0000
0000
0000
0000
0000
0000
0000
0000
0000
0000
0000
,
0000
0001
0000
0000
0000
1000
0000
0000
,
0000
0010
0000
0100
0010
0000
0000
0000
,
0000
1000
0000
0000
0000
0001
0000
0000
,
0000
0010
0000
0001
0010
0000
0000
0000
,
0000
0001
0000
0000
0000
0001
0000
0000
,
0000
1000
0000
0000
0000
1000
0000
0000
,
0000
0010
0000
0100
0000
0001
0000
0000
,
0000
1000
0000
0000
0000
1000
0000
0000
,
0000
0001
0000
0000
0000
0000
0000
0010
,
0000
0000
0000
0100
0000
0010
0000
0100
,
0000
0000
0000
0000
0000
0010
0000
0001
,
0000
0000
0000
1000
0000
0001
0000
1000
,
0000
0010
0000
0000
0000
0010
0000
0000
,
0000
1000
0000
0000
0000
1000
0000
0000
,
0000
0001
0000
0000
0000
0100
0000
0000
,
0000
0010
0000
0000
0000
1000
0000
0000
,
0000
0010
0000
1000
0000
0010
0000
0000
,
0000
1000
0000
0000
0000
1000
0000
0000
,
0000
0001
0000
0010
0000
0001
0000
0000
,
0000
1000
0000
0000
0000
1000
0000
0010
,
0000
0200
0000
0000
0300
0001
0000
2000
,
0000
0000
0000
3100
0000
0010
0000
0200
,
0000
0000
0000
0000
0300
2000
0000
0000
,
0000
3002
0000
0000
0200
0003
0000
0310
,
0000
2000
0000
0000
0000
3000
0000
0200
,
0000
0000
0000
0310
0000
0001
0000
1000
,
0000
0001
1000
0010
0000
0100
0000
1001
,
0000
0000
1001
0000
0000
0110
0000
0000
,
0110
0000
0000
0000
0000
0000
0000
0000
0000
0000
0000
0000
0000
0000
0000
0000
0000
0000
1100
0000
0000
0000
0000
0000
0000
0000
0000
0000
0000
0000
0022
0000
0000
0000
0000
0000
0000
0000
0003
0030
0000
0000
0000
0000
0000
0000
0000
0000
;

//---------------dance-single - ----------------
#NOTES:
     dance-single:
     :
     Easy:
     2:
     0.185381,0.410836,0.000000,0.000000,0.083901,116.000000,116.000000,0.000000,0.000000,0.000000,0.000000,0.185381,0.410836,0.000000,0.000000,0.083901,116.000000,116.000000,0.000000,0.000000,0.000000,0.000000:
0000
0000
0000
0000
,
0000
0000
0000
0000
,
0000
0000
0000
0000
,
0000
0000
0000
0000
,
0000
0000
0000
0000
,
0000
0000
0000
0000
,
0000
0000
0000
0000
,
0000
1000
0000
0000
0000
0001
0000
0000
,
0000
0100
0000
0000
0000
0010
0000
0000
,
0000
1000
0000
0000
0000
0010
0000
0000
,
0000
0100
0000
0000
0000
0001
0000
0000
,
0000
0010
0000
0000
0000
0100
0000
0000
,
0000
1000
0000
0000
0000
0001
0000
0001
,
0000
1000
0000
0000
0000
0010
0000
0000
,
0000
0100
0000
0100
0000
0010
0000
0000
,
0000
1000
0000
0000
0000
0001
0000
0000
,
0000
1000
0000
1000
0000
0010
0000
0010
,
0000
1000
0000
0000
0000
0001
0000
0000
,
0000
0010
0000
0001
0000
0001
0000
0010
,
0000
0001
0000
0000
0000
0100
0000
0000
,
0000
0001
0000
0000
0000
0100
0000
0010
,
0000
0100
0000
0010
0000
0000
0000
1000
,
0000
0001
0000
1000
0000
0001
0000
0000
,
0000
1000
0000
0000
0000
0001
0000
0000
,
0000
0000
0100
0000
0000
0000
0000
0000
0000
0000
0010
0000
0000
0000
0000
1000
,
0000
0000
0000
1000
0000
0000
0000
0001
0000
0000
0000
0000
0000
0000
0000
0001
0000
0000
0000
0000
0000
0000
0000
0001
0000
0000
0000
0000
0000
0000
0000
0001
0000
0000
0000
0000
0000
0000
0000
1000
0000
0000
0000
0000
0000
0000
0000
1000
,
0000
0000
0000
0000
0000
0000
0000
1000
0000
0000
0000
0000
0000
0000
0000
1000
0000
0000
0000
0000
0000
0000
0000
0010
0000
0000
0000
0000
0000
0000
0000
0000
0100
0000
0000
0000
0000
0000
0000
0000
0000
0001
0000
0000
0000
0000
0000
0000
,
0000
0000
1000
0000
0000
0000
0000
0000
0000
0000
0000
0001
0000
0000
0000
0000
0000
0000
1000
0000
0000
0000
0000
0000
0000
0000
0000
0000
0000
0000
0001
0000
0000
0000
0000
0000
0000
0000
0000
0000
0000
0000
1000
0000
0000
0000
0000
0000
,
0000
0001
0000
0000
0000
1000
0000
0000
,
0000
0010
0000
0000
0000
0100
0000
0000
,
0000
0010
0000
0000
0000
1000
0000
0000
,
0000
0001
0000
0000
0000
0010
0000
0000
,
0000
0100
0000
0000
0000
0100
0000
0000
,
0000
0010
0000
0000
0000
0010
0000
0000
,
0000
0001
0000
0000
0000
1000
0000
0000
,
0000
0001
0000
0000
0000
1000
0000
0000
,
0000
0001
0000
0000
0000
0000
0000
0000
,
0000
0100
0000
0000
0000
0010
0000
0000
,
0000
0100
0000
0000
0000
0000
0000
0000
,
0000
0010
0000
0000
0000
1000
0000
0000
,
0000
0001
0000
0000
0000
0001
0000
0000
,
0000
1000
0000
0000
0000
1000
0000
0000
,
0000
0010
0000
0000
0000
1000
0000
0000
,
0000
0100
0000
0000
0000
0010
0000
0000
,
0000
0100
0000
0000
0000
0100
0000
0000
,
0000
0010
0000
0000
0000
0010
0000
0000
,
0000
0001
0000
0000
0000
1000
0000
0000
,
0000
0001
0000
0000
0000
1000
0000
0000
,
0000
0010
0000
0000
0000
0010
0000
0000
,
0000
0100
0000
0000
0000
0100
0000
0000
,
0000
0010
0000
0000
0000
1000
0000
0000
,
0000
0001
0000
0000
0000
1000
0000
0000
,
0000
0001
0000
0000
0000
0000
0000
0000
,
0000
1000
0000
0000
0000
0001
0000
0000
,
0000
1000
0000
0000
0000
0000
0000
0001
,
0000
0000
0000
0000
,
0000
1000
0001
0000
;

//---------------dance-single - ----------------
#NOTES:
     dance-single:
     :
     Challenge:
     13:
     0.565733,1.080040,0.290857,0.369165,0.620868,354.000000,328.000000,26.000000,33.000000,0.000000,0.000000,0.565733,1.080040,0.290857,0.369165,0.620868,354.000000,328.000000,26.000000,33.000000,0.000000,0.000000:
// measure 0
0000
0000
0000
0000
1000
0000
0000
0001
0000
0000
0020
0000
0000
0000
0000
0000
0030
0000
0000
0000
0001
0000
0000
1000
0000
0000
0020
0000
0000
0000
0000
0000
,  // measure 1
0030
0000
0000
0000
1000
0000
0000
0001
0000
0000
0200
0000
0000
0000
0000
0000
0300
0000
0000
0000
0001
0000
0000
1000
0000
0000
0200
0000
0000
0000
2300
0000
,  // measure 2
0000
0000
3002
0000
2003
0000
3000
0001
0000
0000
0100
0000
0000
0000
0002
0000
0000
0000
0013
0000
0200
0000
0000
0000
0000
0000
0000
0000
0000
0300
1000
0000
,  // measure 3
0000
0001
1000
0000
0000
0001
0000
0000
1000
0000
0000
0010
0000
0000
0100
0001
,  // measure 4
0100
0001
0010
0000
0000
0100
0000
0000
1000
0000
0000
0010
0000
0000
0100
0001
,  // measure 5
0100
0001
0010
0000
0000
0100
0000
0000
0010
0000
0000
0001
0000
0000
0100
0010
,  // measure 6
0100
0010
1000
0000
1000
0100
0000
0100
0010
0000
0010
0001
0000
0001
0010
0100
,  // measure 7
0010
0100
1000
0000
0000
1000
0000
0000
0001
0000
0000
1000
0000
0000
0001
0000
,  // measure 8
0000
0200
0000
0000
0300
0000
0000
0000
0000
0000
0100
0001
0100
0010
1000
0000
,  // measure 9
0010
1000
0000
0010
2000
0000
0000
0000
3000
0000
0000
0000
0000
0000
0000
0000
,  // measure 10
0000
0000
0000
0000
0100
0000
0001
0100
0000
0001
0000
0000
0010
0000
0100
0000
,  // measure 11
1000
0000
0100
0000
1000
0000
0100
0000
0000
0000
0000
0000
0000
0000
0000
0010
0000
0000
0000
0000
0000
0000
0000
0000
0001
0000
0000
0000
0000
0000
0000
0000
0000
0100
0000
0000
0000
0000
0000
0000
0000
0000
0001
0000
0000
0000
0000
0000
,  // measure 12
0000
1000
0000
0000
0000
0000
0000
0000
1000
0000
0001
0010
0001
1000
0010
0000
,  // measure 13
1000
0001
0000
1000
0002
0000
0000
0000
0000
0000
0003
0000
0000
0000
0000
0000
,  // measure 14
1000
0000
0000
0000
0000
0000
0001
0000
0000
0000
0000
0000
0000
0000
0000
0001
0000
0000
0000
0000
0000
0000
0000
0000
1000
0000
0000
0000
0000
0000
1000
0000
0100
0000
1000
0000
0100
0000
0000
0000
0000
0000
0010
0000
0000
0000
0000
0000
,  // measure 15
0001
0000
0010
0000
0001
0000
0010
0000
0000
0000
0000
0000
0000
0000
0000
0100
0000
0000
0000
0000
0000
0000
0000
0000
1000
0000
0000
0000
0000
0000
0000
0000
0000
0010
0000
0000
0000
0000
0000
0000
0000
0000
0100
0000
0000
0000
0000
0000
,  // measure 16
0000
0001
0000
0000
0100
0000
0001
0000
1000
0001
0000
0001
1000
0000
0001
0000
,  // measure 17
0000
0000
1000
0000
0000
0100
0000
0000
0010
0000
0000
0001
0000
0000
0002
0000
,  // measure 18
0000
0000
0000
0003
0000
0000
1000
0000
0000
0010
0000
0000
0100
0000
0000
0010
0100
0010
0100
0000
0000
0001
0000
0000
,  // measure 19
1000
0000
0001
0000
1000
0000
0001
0000
0000
0000
0000
0000
0000
0000
0000
1000
0000
0000
0000
0000
0000
0000
0000
0000
0001
0000
0000
0000
0000
0000
0000
0000
0000
0010
0000
0000
0000
0000
0000
0000
0000
0000
0100
0000
0000
0000
0000
0000
,  // measure 20
0000
1000
0000
0000
0000
0000
0100
0000
0010
0000
0001
0000
1000
0000
1000
0000
,  // measure 21
0010
0000
0100
0000
0000
0002
0000
0000
0000
0003
0000
0000
0000
0000
0000
0000
,  // measure 22
0100
0000
0001
0000
0010
0001
0000
0100
0001
0000
1000
0100
1000
0001
0100
0000
,  // measure 23
0001
0000
0000
0000
0000
0000
0000
0000
0100
0000
0000
0000
0000
0000
0000
0000
0001
0000
0000
0000
0000
0000
0000
0000
1010
0000
0000
0000
0000
0000
0000
0000
0000
0000
0000
0000
0000
0000
0000
0000
0000
0000
0100
0000
0000
0000
0000
0000
0000
0000
0000
0000
0000
0000
0000
0000
0000
0000
0000
0000
0001
0000
0000
0000
0000
0000
0000
0000
0000
0000
0000
0000
0000
0000
0000
0000
0000
0000
0000
0000
0000
0000
0000
0000
0000
0000
0000
0000
0000
0000
0000
0000
0000
0000
0000
0000
0000
0000
0000
0000
0000
0000
0000
0000
0000
0000
0000
0000
0000
0000
0000
0000
0000
0000
0000
0000
0000
0000
0000
0000
0101
0000
0000
0000
0000
0000
0000
0000
0000
0000
0000
0000
0000
0000
0000
0000
0000
0000
1000
0000
0000
0000
0000
0000
0000
0000
0000
0000
0000
0000
0000
0000
0000
0000
0000
0000
0010
0000
0000
0000
0000
0000
0000
0000
0000
0000
0000
0000
0000
0000
0000
0000
0000
0000
0000
0000
0000
0000
0000
0000
0000
0000
0000
0000
0000
0000
0000
0000
0000
0000
0000
0000
,  // measure 24
0000
0000
0000
0000
1100
0000
0000
0010
0000
0000
0001
0000
0000
0000
0000
0000
0000
0000
0000
0000
0011
0000
0000
0100
0000
0000
1000
0000
0000
0000
0001
0000
,  // measure 25
0000
0000
0000
1000
0000
0000
0000
0011
0000
0000
0000
0000
0000
0000
0000
0011
0000
0000
0000
0000
0000
0000
0000
0011
0000
0000
0000
0000
0000
0000
0000
0011
0000
0000
0000
0000
0000
0000
0000
1100
0000
0000
0000
0000
0000
0000
0000
1100
,  // measure 26
0000
0000
0000
0000
0000
0000
0000
0000
0000
0000
0000
0000
0000
0000
0000
0000
0000
0000
0000
0000
0000
0000
0000
0000
0000
0000
0000
0000
1100
0000
0000
0000
0000
0000
0000
0000
0000
0000
0000
0000
0000
0000
0000
0000
0000
0000
0000
0000
0000
0000
0000
0000
0000
0000
0000
0000
0000
0000
0000
0000
1100
0000
0000
0000
0000
0000
0000
0000
0000
0000
0000
0000
0000
0000
0000
0000
0000
0000
0000
0000
0000
0000
0000
0000
0000
0000
0000
0000
0000
0000
0000
0000
0110
0000
0000
0000
0000
0000
0000
0000
0000
0000
0000
0000
0000
0000
0000
0000
0000
0000
0110
0000
0000
0000
0000
0000
0000
0000
0000
0000
0000
0000
0000
0000
0000
0000
0000
0000
0101
0000
0000
0000
0000
0000
0000
0000
0000
0000
0000
0000
0000
0000
0000
0000
0000
0000
0101
0000
0000
0000
0000
0000
0000
0000
0000
0000
0000
0000
0000
0000
0000
0000
0000
0000
0011
0000
0000
0000
0000
0000
0000
0000
0000
0000
0000
0000
0000
0000
0000
0000
0000
0000
0011
0000
0000
0000
0000
0000
0000
0000
0000
0000
,  // measure 27
0000
0000
0000
0000
0000
0000
0000
0000
1100
0000
0000
0000
0000
0000
0000
0000
0000
0000
0000
0000
0000
0000
0000
0000
0000
0100
1000
0000
0000
0000
0000
0000
0000
0000
0000
0000
0000
0000
0000
0000
0000
0000
0000
0000
1000
0000
0000
0000
0000
0000
0000
0100
0000
0000
0000
0000
0000
0000
0010
0000
0000
0000
0000
0000
0000
0001
0000
0000
0000
0000
0000
0000
1001
0000
0000
0000
0000
0000
0000
0000
0000
0000
0000
0000
0000
0000
0000
0000
0000
0000
0000
0000
0000
0000
0000
0000
0000
0000
0000
0000
0000
0000
0000
0000
0000
0000
0000
0000
0000
0000
0000
0000
0000
0000
0000
0000
0000
0000
0000
0000
1000
0000
0000
0000
0000
0000
0000
0000
0000
0000
0000
0000
0000
0000
0000
0000
0000
0000
0000
0000
0000
0000
0000
0000
0000
0000
0000
0000
0000
0000
0000
0000
0000
0000
0000
0000
0000
0000
0000
0000
0000
0000
0000
0000
0000
0000
0000
0000
0001
0000
0000
0000
0000
0000
0000
0000
0000
0000
0000
0000
0000
0000
0000
0000
0000
0000
0000
0000
0000
0000
0000
0000
,  // measure 28
0000
1001
0000
1000
0000
0100
0000
0010
,  // measure 29
0000
0001
0010
0001
1000
0000
0000
1000
,  // measure 30
0000
0010
0000
0100
0000
0001
0000
0010
,  // measure 31
0000
0100
1000
0100
0010
0000
0000
0010
,  // measure 32
0000
0001
0000
0001
1000
0000
0000
1000
,  // measure 33
0000
1000
0000
0010
0000
0010
0000
0100
,  // measure 34
0000
0200
0000
0000
0000
0302
0000
0000
,  // measure 35
0000
2003
0000
0000
3200
0000
0000
0320
,  // measure 36
0000
0032
0000
0000
0003
0000
0000
1000
,  // measure 37
0000
0000
0000
0010
0000
0100
0000
0010
,  // measure 38
0000
1000
0000
0000
0000
0100
0000
0010
,  // measure 39
0000
0000
0000
0100
0000
1000
0000
0001
,  // measure 40
0000
0100
0001
0100
0001
1000
0010
1000
,  // measure 41
0010
0100
0001
1000
0010
1000
0100
0010
,  // measure 42
0001
0010
0000
0001
1000
0002
1003
0001
,  // measure 43
1000
0200
0310
0100
0010
0200
0310
0100
,  // measure 44
0010
0001
0000
0001
0000
1000
0000
1000
,  // measure 45
0000
0010
0000
0010
0100
0000
0000
0010
,  // measure 46
1000
0001
0000
0100
0000
0001
0000
0010
,  // measure 47
0000
0001
0000
0100
0010
0000
0000
0010
,  // measure 48
0000
0200
0000
0000
0300
0001
0000
2000
,  // measure 49
0000
0000
0000
3100
0000
0010
0000
0200
,  // measure 50
0000
0000
0000
0000
0300
2000
0000
0000
,  // measure 51
0000
3002
0000
0000
0200
0003
0000
0310
,  // measure 52
0000
2000
0000
0000
0000
3000
0000
0200
,  // measure 53
0010
0301
1000
0100
0010
0001
1000
1000
,  // measure 54
0001
1001
1000
0010
0000
0100
0000
0101
,  // measure 55
0000
0000
1010
0000
0000
1100
0000
0000
,  // measure 56
0011
0000
0000
0000
0000
0000
0000
0000
0000
0100
0010
0000
0000
0000
0002
2000
0000
0000
0000
3003
0000
0000
0000
0000
;
