#TITLE:Guren no Yumiya;
#SUBTITLE:Shingeki No Kyojin Opening 1;
#ARTIST:Revo w/Linked Horizon;
#TITLETRANSLIT:;
#SUBTITLETRANSLIT:;
#ARTISTTRANSLIT:;
#GENRE:;
#CREDIT:Magna Trick;
#BANNER:GNYBN.png;
#BACKGROUND:GNYB.png;
#LYRICSPATH:;
#CDTITLE:Magna Trick title!.png;
#MUSIC:Guren no Yumiya.mp3;
#OFFSET:-0.028946;
#SAMPLESTART:0.039159;
#SAMPLELENGTH:11.000000;
#SELECTABLE:YES;
#BPMS:0.000000=90.370003
,5.000000=180.740005
,267.000000=90.370003
;
#STOPS:193.000000=0.330000
;
#BGCHANGES:0.083=Guren no Yumiya.avi=1.000=0=0=1=====,
264.500=GNYB.png=1.000=0=0=1=====,
99999=-nosongbg-=1.000=0=0=0 // don't automatically add -songbackground-
;
#KEYSOUNDS:;
#ATTACKS:;

//---------------dance-single - ----------------
#NOTES:
     dance-single:
     :
     Hard:
     12:
     0.643749,0.639726,0.246771,0.225312,0.080469,420.000000,397.000000,23.000000,21.000000,0.000000,0.000000,0.643749,0.639726,0.246771,0.225312,0.080469,420.000000,397.000000,23.000000,21.000000,0.000000,0.000000:
0000
0000
0000
0000
0001
0010
0100
1000
0000
0001
1000
0001
0000
1000
0001
1000
,
0000
0001
0000
0000
1001
0000
0000
0000
0001
0000
1000
0000
0000
0000
1000
0000
,
0001
1000
0000
1000
0001
1000
0000
1000
,
0001
0000
0001
0000
0010
0100
0000
0100
,
0010
0200
0000
0320
0000
0032
0000
2003
,
0000
3000
0001
0000
0100
0010
0000
0010
,
0100
0010
0000
0010
0100
0010
0000
0010
,
1000
0000
0001
0000
1000
0001
0000
0001
,
1000
0002
0000
0023
0000
0230
0000
2300
,
0000
3000
0010
0100
0001
0100
0010
1000
,
0100
0010
0001
0000
0001
0000
0001
0000
,
0001
1000
0001
0000
0001
0000
0001
0000
,
0001
0110
0100
0100
,
0100
0100
0100
0000
0100
0000
0100
0000
,
0100
1010
1000
1000
,
1000
0001
1000
0000
1000
0000
1000
0000
,
1000
0011
0010
0010
,
0010
0010
0010
0000
0010
0000
0010
0000
,
0010
0000
1001
0001
0100
0010
1000
0001
,
0100
0010
1000
0001
0100
0010
1000
0001
,
0100
0000
0001
0010
0100
1000
0001
0010
,
0100
1000
0001
0010
0100
1000
0001
0010
,
0100
0000
1000
0010
0100
0001
1000
0010
,
0100
0001
1000
0010
0100
0001
1000
0010
,
0100
0000
0001
1000
0001
1000
0100
0010
,
0100
0010
1000
0001
1000
0001
0100
0010
,
0001
0000
1001
0000
0001
0100
0010
0000
,
1000
0010
1000
0010
1000
0000
0001
0000
,
1000
0000
0000
0100
2000
0000
3000
0000
0001
0000
0000
0100
0002
0000
0003
0000
,
1000
0000
0000
0010
2000
0000
3000
0000
0001
0000
0000
0010
0002
0000
0003
0000
,
0000
2000
0000
3000
0001
1000
0010
0100
,
0001
0000
0100
0010
1000
1100
0000
1100
,
0000
0011
0000
0001
0000
0010
0100
0000
,
1000
0002
1000
2003
,
0001
0000
3010
0100
0001
0100
0010
0100
,
0001
0100
0010
0100
0001
0100
0010
0100
,
0001
0000
1000
0100
0001
0100
1000
0100
,
0001
0100
0000
1000
0100
1100
0000
0011
,
0000
0000
1000
0010
0001
0010
1000
0010
,
0001
0010
1000
0010
0001
0010
1000
0010
,
0001
0000
0010
1000
0100
1000
0010
1000
,
0100
2000
0000
3020
0000
0000
0230
0000
,
0301
0000
1000
0100
1000
0001
0100
0001
,
1000
0010
1000
0001
0010
0001
1000
0010
,
0100
0000
0001
0100
0010
1000
0100
1000
,
0010
0100
0000
0100
0010
1010
0000
0101
,
0000
0000
0001
0010
1000
0001
0100
1000
,
0100
0010
0001
1000
0001
0100
0010
1000
,
0100
0000
0110
0020
0000
0031
1000
0001
,
1000
0000
0001
1000
0000
1000
0001
1000
,
0000
1000
0001
1000
0000
1000
0001
0000
,
0001
0000
0100
0010
0000
0010
0100
0110
,
0000
0110
0000
1001
0000
1001
0000
0000
,
0001
0000
0100
0001
0000
0001
0100
0010
,
0000
0010
1000
0100
0000
0100
0010
0000
,
0010
0000
0100
0010
0000
0010
0100
1100
,
0000
1100
0000
0011
0000
0011
0000
0000
,
0001
0100
0010
1000
0001
0100
0010
1000
,
0001
0100
0010
1000
0001
0100
0010
0000
,
0001
0010
0100
1000
0001
0010
0100
1000
,
0001
0010
0100
1000
0001
0010
0100
0000
,
1000
0010
0100
0001
1000
0010
0100
0001
,
1000
0010
0100
0001
1000
0010
0100
0000
,
1001
0000
0100
0010
0000
0010
0100
0000
,
0001
1000
0001
1000
0001
1000
0001
1000
0002
0000
0000
0000
0000
0000
0000
0000
,
0000
0000
0000
0000
0000
0000
0000
2000
,
0003
3000
0000
0000
;

//---------------dance-single - ----------------
#NOTES:
     dance-single:
     :
     Medium:
     9:
     0.567112,0.604185,0.171666,0.278958,0.059010,370.000000,354.000000,16.000000,26.000000,0.000000,0.000000,0.567112,0.604185,0.171666,0.278958,0.059010,370.000000,354.000000,16.000000,26.000000,0.000000,0.000000:
0000
0000
0000
0000
1000
0001
1000
0001
0000
1000
0001
1000
0000
0001
1000
0001
,
0000
1000
0000
0000
1001
0000
0000
0000
1000
0000
0100
0000
0000
0000
1000
0000
,
0000
1000
0000
0001
0000
0001
0000
0010
,
0000
0000
0001
0000
0010
0100
0000
1000
,
0001
2000
0000
3200
0000
0320
0000
0032
,
0000
0003
1000
0000
0100
1000
0000
0010
,
0000
0010
0000
1000
0000
1000
0000
0100
,
0000
0000
0010
0000
0001
1000
0000
1000
,
0001
2000
0000
3200
0000
0320
0000
0032
,
0000
0003
0001
1000
0001
1000
0100
0010
,
0100
0010
0001
0000
0001
0000
0001
0000
,
0001
0001
0001
0001
,
0001
1001
1000
1000
,
1000
1000
1000
1000
,
1000
1010
0010
0010
,
0010
0010
0010
0010
,
0010
0110
0100
0100
,
0100
0100
0100
0100
,
0100
0000
0001
1000
0001
1000
0001
1000
,
0001
1000
0001
1000
0001
1000
0001
1000
,
0001
0000
1000
0100
1000
0100
1000
0100
,
1000
0100
1000
0100
1000
0100
1000
0100
,
1000
0000
0001
0100
0001
0100
0001
0100
,
0001
0100
0001
0100
0001
0100
0001
0100
,
0001
0000
1000
0001
1000
0001
0010
0100
,
0010
0100
1000
0001
1000
0001
0010
0100
,
1000
0000
1001
0000
1000
1000
1000
0000
,
0001
0100
0001
0100
0001
0000
1000
0000
,
0001
0000
0000
0010
0001
0000
0000
0000
1000
0000
0000
0010
1000
0000
0000
0000
,
0001
0000
0000
0100
0001
0000
0000
0000
1000
0000
0000
0100
1000
0000
0000
0000
,
0000
0002
0000
0003
1000
1000
0001
0001
,
1000
0000
1000
1000
0001
0002
0000
0023
,
0000
0230
0000
2300
0000
3100
0010
0000
,
0001
1000
0001
0001
,
1000
0000
0100
0010
0100
0010
0100
0010
,
0100
0010
0100
0010
0100
0010
0100
0010
,
0100
0000
0010
0001
0010
0001
0010
0001
,
0010
0001
0000
0001
0001
0001
0000
1000
,
0000
0000
1000
0001
1000
0001
1000
0001
,
1000
0001
1000
0001
1000
0001
1000
0001
,
1000
0000
0001
0010
0001
0010
0001
0010
,
0001
0010
0000
0200
0000
0000
2300
0000
,
3100
0000
0001
1000
0001
0100
0010
0100
,
0001
1000
0001
0100
0010
0100
0010
0100
,
0010
0000
0100
0010
0100
0001
1000
0001
,
0100
0010
0000
0010
0100
0100
0000
1001
,
0000
0000
1000
0100
1000
0100
0010
0001
,
0010
0001
1000
0100
1000
0100
0010
0001
,
0010
0001
0001
0020
0000
0130
1000
1000
,
0001
0000
1000
0001
0000
0001
1000
0001
,
0000
0001
0000
0010
0000
0010
0000
0000
,
0010
0000
0010
0100
0000
0100
0010
0200
,
0000
0320
0000
0032
0000
2003
0000
0000
,
3001
0000
0001
1000
0000
1000
0010
0100
,
0000
0100
0000
0001
0000
0001
0000
0000
,
1000
0000
0100
0010
0000
0010
0000
0002
,
0000
0023
0000
0230
0000
2300
0000
3000
,
0001
1001
1000
1001
,
0001
1001
1000
1001
,
0010
0000
0110
0000
0010
0000
0100
0010
,
0000
1000
0000
0001
0000
0100
0000
0000
,
0001
1001
1000
1001
,
0001
1001
1000
1001
,
0001
0000
1000
0001
0000
1000
0001
0000
,
0000
0000
2001
0000
,
0000
0000
0000
0000
0000
0000
0000
0002
,
3000
0003
0000
0000
;

//---------------dance-single - ----------------
#NOTES:
     dance-single:
     :
     Easy:
     5:
     0.309613,0.387993,0.150208,0.021458,0.000000,202.000000,188.000000,14.000000,2.000000,0.000000,0.000000,0.309613,0.387993,0.150208,0.021458,0.000000,202.000000,188.000000,14.000000,2.000000,0.000000,0.000000:
0000
0000
0000
0000
,
0000
0001
1000
0000
,
0010
0000
0100
0000
,
0001
0000
1000
0000
,
0000
0000
0000
0000
,
0000
0000
0001
0000
,
1000
0000
0001
0000
,
1000
0000
0000
0000
,
0000
0010
0000
1000
0000
0010
0000
1000
,
0000
0001
0001
1000
,
1000
0001
0001
0001
,
0001
0001
0001
0001
,
0001
1000
1000
1000
,
1000
1000
1000
1000
,
1000
0010
0010
0010
,
0010
0010
0010
0010
,
0010
0100
0100
0100
,
0100
0100
0100
0100
,
0100
0001
0000
1000
,
0000
0100
0000
0010
,
0000
0001
0000
1000
,
0000
0010
0000
0100
,
0000
0001
0000
1000
,
0000
0001
0000
1000
,
0000
0100
0100
0010
,
0010
0001
0001
1000
,
1000
0010
0000
0100
,
0000
0010
1000
0000
,
0000
0101
0000
1010
,
0000
1001
0000
0110
,
0000
0000
0000
0000
,
0000
0000
0000
0000
0000
0001
0000
1000
,
0000
0000
0000
0000
,
0000
1000
0000
0001
,
0000
0010
0100
0010
,
0100
1000
0100
1000
,
0100
0010
0001
0010
,
0001
1000
0000
0010
,
0000
0100
0010
0100
,
0010
1000
0001
1000
,
0001
0010
0100
1000
,
0001
0100
0000
0010
,
0000
1000
1000
0001
,
0001
0010
0010
0100
,
0100
1000
0001
0100
,
0010
1000
0000
0001
,
0000
0010
0100
0010
,
0001
1000
0010
0100
,
0001
1001
0000
0000
,
0001
0000
1000
0001
0000
1000
0000
1000
,
0000
0010
0000
0010
0000
0010
0000
0000
,
0100
0000
0001
1000
0000
1000
0000
0100
,
0000
0100
0000
0100
0000
0100
0000
0000
,
0010
0000
0001
1000
0000
1000
0000
0001
,
0000
0001
0000
1000
0000
1000
0000
0000
,
0001
0000
0100
0001
0000
1000
0000
0100
,
1000
0010
0100
0001
,
1000
1001
0000
0110
,
0000
1001
0000
0110
,
0000
0010
0000
1000
,
0001
0100
0010
1000
,
0001
1001
0000
0110
,
0000
1001
0000
0110
,
0010
0000
1000
0001
0000
1000
0001
0000
,
0000
0000
2002
0000
,
0000
0000
0000
3003
;

//---------------dance-single - ----------------
#NOTES:
     dance-single:
     :
     Challenge:
     15:
     0.786294,0.924048,0.407708,0.236041,0.257500,513.000000,475.000000,38.000000,22.000000,0.000000,0.000000,0.786294,0.924048,0.407708,0.236041,0.257500,513.000000,475.000000,38.000000,22.000000,0.000000,0.000000:
0000
0000
0000
0000
1000
0100
0001
1000
0000
1000
0010
0001
0000
0001
1000
0010
,
0000
0100
0000
0000
1001
0000
0000
0000
1000
0000
0001
0000
0000
0000
0001
0000
,
0010
0100
0000
0100
1000
0010
0000
0010
,
1000
0000
1000
0000
0100
0010
0000
0001
,
1000
0020
0000
0230
0000
2300
0000
3002
,
0000
0003
1000
0000
0001
0010
0000
0010
,
1000
0100
0000
0100
0010
0001
0000
0001
,
0100
0000
0010
0000
1000
0001
0000
0001
,
0100
2000
0000
3200
0000
0320
0000
0032
,
0000
0003
1000
0100
0001
0010
0100
0001
,
0100
1000
0010
0100
0010
0001
0010
0100
,
0010
0000
0001
0010
1000
0000
0100
0000
1000
0000
0001
0000
1000
0000
0100
0000
,
1000
0001
0110
1000
0010
0100
0010
1000
,
0010
0000
0100
0010
1000
0000
0001
0000
1000
0000
0010
0000
1000
0000
0001
0000
,
1000
0010
1000
0001
0110
0000
1000
0000
0001
0000
0010
0000
0001
0000
1000
0000
,
0001
0000
0010
0001
0100
0000
0001
0000
0100
0000
0010
0000
0100
0000
0001
0000
,
0100
0010
1001
0010
0100
1000
0100
0010
,
0100
0000
1000
0001
0010
0000
0100
0000
0010
0000
1000
0000
0010
0000
0100
0000
,
0010
1000
0001
0100
0010
0000
1000
0000
0010
0000
0100
0000
0001
0000
1000
0000
,
0010
0000
0100
0001
1000
0000
0010
0000
0100
0000
0001
1000
0010
0000
0100
0001
,
1000
0000
1000
0001
1000
0000
0100
0000
0010
0000
0001
0000
1000
0000
0100
0000
,
0010
0000
0001
1000
0100
0000
0010
0000
0001
0000
1000
0100
0010
0000
0001
1000
,
0100
0010
0001
1000
0001
0000
0100
0000
0010
0000
1000
0000
0001
0000
0100
0000
,
0010
0000
1000
0001
0100
0000
0010
0000
1000
0000
0001
0100
0010
0000
1000
0001
,
0100
0000
0100
0010
1000
0000
1000
0000
1000
0000
1000
0000
0001
0000
0001
0000
,
0001
0001
0100
0100
0100
0020
2030
3002
,
0203
0300
1001
0000
1000
0010
0100
0000
,
0001
0100
0010
0100
0001
0000
1000
0000
,
0001
0000
0000
0010
0012
0000
0003
0000
1000
0000
0000
0010
2010
0000
3000
0000
,
0001
0000
0000
0100
0102
0000
0003
0000
1000
0000
0000
0100
2100
0000
3000
0000
,
0000
0002
0000
0003
1000
0001
0100
0010
,
1000
0000
0010
0100
0001
0011
0000
0011
,
0000
1100
0000
1000
0000
0100
0010
0000
,
0001
0000
0000
0000
1000
0000
0001
0000
0100
0000
0010
0000
0100
0010
1000
0001
,
1000
0010
0100
0001
1000
0000
0010
0000
1000
0000
0010
0000
0100
0000
0010
0000
,
1000
0010
0100
0010
1000
0010
0100
0010
,
1000
0000
0001
0010
1000
0010
0001
0010
,
1000
1001
0000
0001
0010
0011
0000
1100
,
0000
0000
0001
0100
1000
0100
0001
0100
,
1000
0100
0001
0100
1000
0100
0001
0100
,
1000
0000
0100
0001
0010
0001
0100
0001
,
0010
0002
0000
2003
0000
0000
3001
0000
,
0001
1000
0001
1000
0001
0000
0010
0000
0001
0000
1000
0000
0010
0000
1000
0000
,
0001
0100
0001
1000
0100
1000
0001
0100
,
0010
0000
1000
0010
0100
0001
0010
0001
,
0100
0110
0000
0010
0100
0101
0000
1010
,
0000
0000
1000
0100
0001
1000
0010
0001
,
0010
0100
1000
0001
1000
0010
0100
0001
,
0010
0000
0001
1000
0110
0000
0200
0000
0000
0000
1300
0000
0001
0000
1000
0000
,
0001
0000
1000
0001
0000
0001
0010
0100
,
0000
0100
1000
0001
0000
0001
1000
0000
,
1000
0000
0010
0100
0000
0100
0010
0110
,
0100
0101
0001
1001
1000
1100
0000
0000
,
1000
0000
0010
1000
0000
1000
0010
0100
,
0000
0100
0001
0010
0000
0010
0100
0000
,
0100
0000
0010
0001
0000
0010
0001
0011
,
0010
0000
0110
0000
0100
0000
1000
0001
1000
0001
1000
0010
0100
0001
1000
0001
,
1000
0010
1100
0001
1000
0010
1100
0001
,
1000
0010
1100
0001
1000
0010
1100
0000
,
1000
0100
1010
0001
1000
0100
1010
0001
,
1000
0100
0010
0001
1000
0100
0010
0000
,
0001
0100
0011
1000
0001
0100
0011
1000
,
0001
0100
0011
1000
0001
0100
0011
0000
,
1001
0000
0010
0110
0000
0100
0110
0000
,
1000
0100
1000
0100
0010
0001
0010
0001
2000
0000
0000
0000
0000
0000
0000
0000
,
0000
0000
0000
0000
0000
0000
0000
0002
,
3000
0003
0000
0000
;
