#TITLE:Good Morning World!;
#SUBTITLE:Dr. Stone Opening 1;
#ARTIST:Burnout Syndromes;
#TITLETRANSLIT:;
#SUBTITLETRANSLIT:;
#ARTISTTRANSLIT:;
#GENRE:;
#CREDIT:Magna Trick;
#BANNER:GMWBN.jpg;
#BACKGROUND:GMWBG.jpg;
#LYRICSPATH:;
#CDTITLE:Magna Trick title!.png;
#MUSIC:Good Morning World.mp3;
#OFFSET:-0.140802;
#SAMPLESTART:59.000000;
#SAMPLELENGTH:13.000000;
#SELECTABLE:YES;
#BPMS:0.000000=190.940002
,115.000000=95.470001
,131.000000=143.205002
,159.500000=190.940002
;
#STOPS:
;
#BGCHANGES:0.063=Good Morning World.avi=1.000=0=0=1=====,
258.500=GMWBG.jpg=1.000=0=0=1=====,
99999=-nosongbg-=1.000=0=0=0 // don't automatically add -songbackground-
;
#KEYSOUNDS:;
#ATTACKS:;

//---------------dance-single - ----------------
#NOTES:
     dance-single:
     :
     Hard:
     12:
     0.606589,0.752287,0.332594,0.232816,0.227273,383.000000,353.000000,30.000000,21.000000,0.000000,0.000000,0.606589,0.752287,0.332594,0.232816,0.227273,383.000000,353.000000,30.000000,21.000000,0.000000,0.000000:
0000
0000
0000
0000
,
0000
0000
0000
0000
,
0000
0000
0000
0000
,
0000
0000
0000
0000
,
0000
0000
1001
0000
0000
0010
0000
0001
,
1000
0100
1000
0001
0100
0001
1000
0010
,
1000
0001
0010
0100
0000
1000
0000
0001
,
0100
1000
0100
0001
0010
1000
0010
0001
,
0100
0010
0001
1000
0000
0100
0000
0010
,
1000
0100
0010
1000
0010
0100
0001
0100
,
0010
1000
0001
0100
1000
0010
0000
0001
,
0010
1000
0010
0100
0010
0001
1000
0100
,
0001
0010
0100
1000
0001
1001
0000
0000
,
0010
0100
0010
0000
0000
1000
0001
1000
,
0000
0001
0000
0010
0000
0110
0000
0000
,
0100
1000
0001
0000
0000
0100
0001
1000
,
0000
0010
0000
0100
0000
0110
0000
0000
,
0010
1000
0001
0100
,
0010
0000
1000
0100
1000
0100
0010
0000
,
0001
0010
0100
1000
,
0001
0000
1000
0000
0001
1001
0000
0000
,
1000
0010
0100
0000
0000
0100
0001
0010
,
0000
0001
0000
1000
0000
1001
0000
0000
,
1000
0001
1000
0000
0000
0100
0010
0100
,
0000
1000
0000
0001
0000
0200
0000
0000
,
0010
0320
1000
2030
,
0001
3000
0010
0100
1000
0000
0010
0000
,
0100
0000
1000
0100
0001
0000
0100
0000
,
0010
0000
0000
0000
1000
0000
0001
0000
1000
0000
0001
0000
2002
0000
0000
3003
,
0000
0000
0001
1000
0001
1000
0001
1000
0000
2000
0000
3000
2002
0000
0000
3003
,
0000
0000
0000
0000
0001
0000
0010
0000
0100
0000
1000
0000
0100
0000
1000
0000
0000
0000
0200
0000
0000
0000
0000
0300
2002
0000
0000
0000
0000
0000
3003
0000
,
0000
0000
0000
0000
1000
0000
0000
0000
0010
0000
0100
0000
0001
0000
1000
0000
0000
0000
0020
0000
0000
0000
0000
0030
2002
0000
0000
0000
0000
0000
3003
0000
,
0000
0000
0001
0000
0010
0000
0100
2000
0000
3002
0000
0003
1001
0000
0000
0000
,
0000
1001
0000
0000
0000
0000
0000
0000
0000
0000
1001
0000
0000
0000
0000
0000
0010
0000
0000
0000
0000
0000
0100
0000
0000
0001
0000
0000
0000
0000
0000
1000
,
0000
0000
0000
0000
0000
0100
0000
0000
0110
0000
0000
0000
0000
0000
0000
0000
0000
0110
0000
0000
0000
0000
0000
0000
0000
0000
0110
0000
0000
0000
0000
0000
,
0000
0000
0000
0110
0000
0000
0000
0000
0000
0000
0000
0000
0110
0000
0000
0000
0000
0000
0001
0000
0000
0000
0000
0000
1000
0000
0000
0000
0000
0000
0001
0000
,
0000
1000
0000
0000
0000
0000
0000
0001
0000
0000
1000
0000
0000
0100
0000
0000
0000
0000
0000
1000
0000
0000
0001
0000
0000
0000
0000
0000
1000
0000
0000
0000
,
0000
0000
0001
0000
0000
0010
0000
0000
0000
0000
0000
0100
0000
0000
0000
0000
0000
1000
0000
0000
0001
0000
0000
0000
0000
0000
0100
0000
0000
0010
0000
0000
,
0000
0000
0000
1000
0000
0000
0000
0000
0000
0001
0000
0000
1000
0000
0000
0000
0000
0000
0001
0000
0000
0000
0000
0000
2001
0000
0000
0000
0000
0000
0000
0000
,
0000
3200
0000
0000
0000
0000
0000
0000
0000
0000
0320
0000
0000
0000
0000
0000
0000
0000
0000
0000
0000
0000
0000
0000
0000
0000
0000
0000
0031
0000
0000
0000
,
0000
1000
0000
0001
0000
0010
0100
1000
,
0000
1000
0100
0010
0001
1000
0100
0010
,
0001
1000
0000
0001
0010
0100
1000
0001
,
0010
0100
0000
1000
0010
0100
0001
1000
,
0010
0100
0001
1000
0000
0001
1000
0001
,
0000
1000
0001
1000
0000
0100
0000
0010
,
0000
0100
0000
1000
0000
0001
0000
0100
,
0000
0010
0000
1000
0000
0001
1000
0000
,
0001
0000
0010
0100
0000
0010
0001
0100
,
0000
1000
0100
0001
0000
0010
0100
1000
,
0000
1000
0000
0010
0000
0100
0001
1000
,
0000
1000
0000
0100
0000
0010
0000
0100
,
0010
0001
1000
0010
0100
0000
0001
0000
,
1000
0010
0100
0001
1000
0000
0100
0000
,
0010
0001
0000
0100
0010
0000
1000
0001
,
0000
0010
0100
1100
0000
0001
0101
0000
,
0110
0000
1001
1000
0001
1000
0001
1000
,
0001
1000
0001
1000
0001
1000
0001
1000
,
0001
1000
1001
0000
0010
1000
0001
0100
,
0001
1000
0010
1000
0001
0010
0001
1000
,
0010
1000
0001
0100
0001
1000
0100
1000
,
0001
0010
0100
1000
0010
0100
0001
0010
,
0100
1000
1001
0000
0001
1000
1001
0000
,
0001
1001
0010
0100
1010
0001
1000
0011
,
0100
0010
2002
0000
0000
3003
0000
0000
;

//---------------dance-single - ----------------
#NOTES:
     dance-single:
     :
     Challenge:
     14:
     0.753880,1.146342,0.399113,0.188470,0.515521,476.000000,440.000000,36.000000,17.000000,0.000000,0.000000,0.753880,1.146342,0.399113,0.188470,0.515521,476.000000,440.000000,36.000000,17.000000,0.000000,0.000000:
// measure 0
0000
0001
1000
0001
,  // measure 1
0000
0100
0010
0000
0000
1000
0001
0000
,  // measure 2
0100
0010
0200
0000
,  // measure 3
0000
0000
0000
0000
,  // measure 4
0000
0300
2002
0000
3003
0100
0000
1000
,  // measure 5
0001
0010
0001
1000
0010
1000
0001
0100
,  // measure 6
0001
0000
1000
0000
0100
0010
0001
0000
0000
0000
2000
0000
0000
0000
3010
0001
,  // measure 7
0010
0001
0010
1000
0100
0001
0100
1000
,  // measure 8
0010
0000
0100
0000
1000
0000
1000
0000
0001
0000
0011
0000
0000
0000
1000
0100
,  // measure 9
0010
0000
0001
0000
0100
0000
0001
0000
0100
0000
0010
0000
1000
0000
0010
0100
,  // measure 10
0001
0000
1000
0000
0100
0000
0010
0000
0001
0000
0101
0000
0000
0000
1000
0100
,  // measure 11
0001
0000
0100
0000
1000
0000
0010
0100
0001
0000
1000
0000
0100
0000
0010
0001
,  // measure 12
1000
0000
0100
0000
0010
0001
1000
0001
1000
0100
0010
0000
0000
0000
0000
0000
,  // measure 13
0100
0010
0100
0000
0000
1000
0001
1000
,  // measure 14
0000
0001
0000
0100
0000
0110
0000
0000
,  // measure 15
0010
0001
1000
0000
0000
0010
1000
0001
,  // measure 16
0000
0100
1100
1000
0000
0002
0000
0000
,  // measure 17
0103
0000
0001
1000
1000
0000
0010
0100
,  // measure 18
0100
0000
0001
0010
0001
0010
0100
0000
,  // measure 19
1000
0000
0100
0010
0001
0010
0100
0000
,  // measure 20
1000
0000
0001
1000
0001
1001
0000
0000
,  // measure 21
0001
0100
0010
0000
0000
0010
1000
0100
,  // measure 22
0000
1000
0000
0001
0000
1001
0000
0000
,  // measure 23
0001
1000
0001
0000
0000
0010
0100
0010
,  // measure 24
0000
0001
1001
1000
0000
0020
0000
0000
,  // measure 25
0100
0230
0001
0302
,  // measure 26
1000
0003
0100
0010
0001
0000
0100
0000
,  // measure 27
0010
0000
0001
0010
1000
0000
0010
0000
,  // measure 28
0100
0000
0001
1000
0001
0000
1000
0000
0001
0000
1000
0000
1001
0000
0000
1100
,  // measure 29
0000
0010
0100
1000
0010
1000
0100
0010
0000
0001
0000
0000
1001
0000
0000
0101
,  // measure 30
0000
0000
0001
1000
0010
1000
0100
0010
0000
0001
0000
0000
0110
0000
0000
1100
,  // measure 31
0000
0000
0001
0100
1000
0001
0010
1000
0000
0100
0000
0000
0220
0330
0000
0000
,  // measure 32
0000
0000
0001
0000
0100
0000
0010
0002
0000
2003
0000
3000
1001
0000
0000
0000
,  // measure 33
0000
1100
0000
0000
0000
0000
0000
0000
0000
0000
0011
0000
0000
0000
0000
0000
0000
0000
0000
0101
0000
0000
0000
0000
0000
0000
0000
0000
1100
0000
0000
0010
,  // measure 34
0000
1000
0000
0000
0000
0001
0000
0000
0110
0000
0000
0000
0000
0000
0000
0000
0000
1100
0000
0000
0000
0000
0000
0000
0000
0000
0101
0000
0000
0000
0000
0000
,  // measure 35
0000
0000
0000
0011
0000
0000
0000
0000
0000
0000
0000
0000
1010
0000
0000
0000
0000
0000
1000
0000
0000
0000
0000
0000
0010
0000
0000
0000
0000
0000
0001
0000
,  // measure 36
0000
1000
0000
0000
0000
0000
0000
0001
0000
0000
0010
0000
0000
0100
0000
0000
0000
0000
0000
0001
0000
0000
1000
0000
0000
0000
0000
0000
0001
0000
0000
0000
,  // measure 37
0000
0000
1000
0000
0000
0100
0000
0000
0000
0000
0000
0010
0000
0000
0000
0000
0000
0001
0000
0000
1000
0000
0000
0000
0000
0000
0010
0000
0000
0100
0000
0000
,  // measure 38
0000
0000
0000
0001
0000
0000
0000
0000
0000
1000
0000
0000
0001
0000
0000
0000
0000
0000
1000
0000
0000
0000
0000
0000
1002
0000
0000
0000
0000
0000
0000
0000
,  // measure 39
0000
0023
0000
0000
0000
0000
0000
0000
0000
0000
0230
0000
0000
0000
0000
0000
0000
0000
0000
0000
0000
0000
0000
0000
0000
0000
0000
0000
1300
0000
0000
0000
,  // measure 40
0000
0000
0001
1000
0001
1000
0100
0000
0000
0000
0100
0000
0010
0000
0001
0000
,  // measure 41
0000
0001
0010
0100
1000
0001
0010
0100
,  // measure 42
1000
0000
0001
0000
1000
0001
1000
0000
0100
0000
0010
0000
0001
0000
1000
0000
,  // measure 43
0100
0010
0000
0001
0100
0010
1000
0001
,  // measure 44
0100
0000
0010
0000
1000
0010
0001
0000
0000
0000
1000
0000
0100
0000
0001
0000
,  // measure 45
0000
0001
0010
1000
0010
0001
0100
0001
,  // measure 46
0010
0000
0001
0000
1000
0000
0010
0000
0100
0010
1000
0100
0010
0000
0010
0001
,  // measure 47
1000
0000
0000
1000
0000
0001
1001
0000
,  // measure 48
1000
0100
1000
0100
0010
0001
1000
0000
0000
0000
0100
0000
1000
0000
0010
0000
,  // measure 49
0000
0001
0010
1000
0000
0100
0010
0001
,  // measure 50
1000
0001
0010
0100
0000
0010
1000
0001
,  // measure 51
0100
0000
0010
0000
0100
0000
1000
0000
0100
0010
0100
0000
0010
0000
0001
0000
,  // measure 52
0100
0010
0100
0010
1000
0100
0010
0000
0001
0000
0000
0000
1000
0000
0000
0000
,  // measure 53
0001
0100
0010
1000
0001
0000
0010
0000
,  // measure 54
0100
1000
0000
0010
0110
0000
0001
1001
,  // measure 55
0000
0100
0010
0011
0000
1000
1010
0000
,  // measure 56
0110
0000
1001
0001
1000
0001
1000
0001
,  // measure 57
1000
0001
1000
0001
1000
0001
1000
0001
,  // measure 58
1000
0001
1001
0000
0100
0001
1000
0010
,  // measure 59
1000
0000
0001
0000
0100
0000
0001
0000
1000
0000
0100
0000
1000
0001
1000
0000
,  // measure 60
0100
0000
0010
0000
0001
0000
0010
0000
0001
0100
0001
0000
1000
0100
1000
0000
,  // measure 61
0001
0010
0001
0000
1000
0010
1000
0000
0100
0010
0001
0000
1000
0100
0010
0000
,  // measure 62
0001
1000
0001
0000
1001
0000
0000
0000
1000
0001
1000
0001
1000
0100
0010
0001
,  // measure 63
1000
0001
1000
0100
0010
0100
0010
0001
0100
0001
0100
0010
1000
0010
1000
0001
,  // measure 64
0100
0010
1000
0100
2002
0000
0000
0000
0000
0000
3003
0000
0000
0000
0000
0000
;

//---------------dance-single - ----------------
#NOTES:
     dance-single:
     :
     Medium:
     8:
     0.494140,0.716463,0.232816,0.288248,0.205100,312.000000,291.000000,21.000000,26.000000,0.000000,0.000000,0.494140,0.716463,0.232816,0.288248,0.205100,312.000000,291.000000,21.000000,26.000000,0.000000,0.000000:
0000
0000
0000
0000
,
0000
0000
0000
0000
,
0000
0000
0000
0000
,
0000
0000
0000
0000
,
0000
0000
0002
0000
0000
1003
0000
0000
,
0001
1000
0001
1000
,
0001
0000
0010
0100
0010
0100
0000
0000
,
0010
0100
0010
0100
,
0010
0000
0001
1000
0001
1000
0000
0000
,
0010
0100
0010
1000
,
0001
0100
0001
0010
,
0100
0010
0001
1000
,
0100
0000
1000
0100
1000
0100
0000
0000
,
1000
0001
1000
0000
0000
0001
1000
0001
,
0000
1000
0000
0010
0000
0110
0000
0000
,
0010
0100
0010
0000
0000
0100
0010
0100
,
0000
0001
0000
1000
0000
0002
0000
0000
,
0000
2003
0000
3200
,
0000
0000
0310
0100
0010
0000
0100
0000
,
0100
1000
1000
0001
,
0001
0100
0020
0030
,
0010
1000
0001
0000
0000
0010
0001
1000
,
0000
0100
0000
0010
0000
0011
0000
0000
,
0001
0010
0100
0000
0000
1000
0100
0010
,
0000
0001
0000
1000
0000
0002
0000
0000
,
0000
2003
0000
3020
,
0000
0030
0100
0001
1000
0000
0100
0000
,
1000
0001
0100
0001
,
1000
0000
0000
0000
0100
0000
0000
0000
1000
0000
0000
0000
2002
0000
0000
3003
,
0000
0000
0001
1000
0001
1000
0001
1000
0000
2000
0000
3000
2002
0000
0000
3003
,
0000
0000
0000
0000
1000
0000
0001
0000
1000
0000
0001
0000
1000
0000
0001
0000
0000
0000
0200
0000
0000
0000
0000
0300
2002
0000
0000
0000
0000
0000
3003
0000
,
0000
0000
0000
0000
1000
0000
0000
0000
0001
0000
1000
0000
0001
0000
1000
0000
0000
0000
0020
0000
0000
0000
0000
0030
2002
0000
0000
0000
0000
0000
3003
0000
,
0000
0000
0001
0000
0010
0000
0100
2000
0000
3002
0000
0003
1001
0000
0000
0000
,
0000
1001
0000
0000
0000
0000
0000
0000
0000
0000
1001
0000
0000
0000
0000
0000
0000
0000
0000
0000
0000
0000
0000
0000
0000
0000
0000
0000
0000
0000
0000
0000
,
0000
0000
0000
0000
0000
0000
0000
0000
0110
0000
0000
0000
0000
0000
0000
0000
0000
0110
0000
0000
0000
0000
0000
0000
0000
0000
0110
0000
0000
0000
0000
0000
,
0000
0000
0000
0110
0000
0000
0000
0000
0000
0000
0000
0000
0110
0000
0000
0000
0000
0000
0001
0000
0000
0000
0000
0000
1000
0000
0000
0000
0000
0000
0001
0000
,
0000
1000
0000
0000
0000
0000
0000
0001
0000
0000
1000
0000
0000
0001
0000
0000
0000
0000
0000
1000
0000
0000
0001
0000
0000
0000
0000
0000
1000
0000
0000
0000
,
0000
0000
0001
0000
0000
0010
0000
0000
0000
0000
0000
0100
0000
0000
0000
0000
0000
1000
0000
0000
0001
0000
0000
0000
0000
0000
0100
0000
0000
0010
0000
0000
,
0000
0000
0000
1000
0000
0000
0000
0000
0000
0001
0000
0000
1000
0000
0000
0000
0000
0000
0001
0000
0000
0000
0000
0000
2001
0000
0000
0000
0000
0000
0000
0000
,
0000
3200
0000
0000
0000
0000
0000
0000
0000
0000
0320
0000
0000
0000
0000
0000
0000
0000
0000
0000
0000
0000
0000
0000
0000
0000
0000
0000
0031
0000
0000
0000
,
0000
1000
0000
0001
0000
1000
0001
1000
,
0000
0001
1000
0001
0000
1000
0000
0010
,
0000
0100
0010
0100
0000
0010
0000
1000
,
0000
0001
0000
1000
0000
0001
0000
0010
,
0001
0010
0000
0001
0000
1000
0100
1000
,
0000
0001
0100
0001
0000
1000
0000
0001
,
0000
1000
0000
0001
0000
0010
0000
0100
,
0000
1000
0000
0001
0000
0100
0010
0000
,
0100
0000
0000
0010
0000
0010
0000
1000
,
0000
1000
0000
0001
0000
0001
0010
0100
,
0000
0010
0000
0001
0000
0100
0010
0100
,
0000
0010
0000
1000
0000
0001
0000
1000
,
0100
1000
0000
0001
0100
0001
0000
1000
,
0000
0100
0000
1000
0100
1000
0000
0001
,
0000
0100
0000
0001
0100
0001
0000
1000
,
0000
0001
1000
0010
0000
0100
0001
0000
,
1000
0000
0100
0010
0100
0010
0100
0010
,
0100
0010
0100
0010
0100
0010
0100
0010
,
0100
0010
0001
0000
1000
0010
0100
0010
,
0100
0010
0100
0010
0100
0010
0100
0010
,
0100
0010
0001
0000
0001
1000
0010
1000
,
0010
1000
0010
1000
0010
1000
0010
1000
,
0010
1000
1001
0000
0000
0000
0101
0000
,
0000
1100
0000
0000
1010
0000
0000
0011
,
0000
0000
2002
0000
0000
3003
0000
0000
;

//---------------dance-single - ----------------
#NOTES:
     dance-single:
     :
     Easy:
     4:
     0.369021,0.573171,0.121951,0.310421,0.094235,233.000000,222.000000,11.000000,28.000000,0.000000,0.000000,0.369021,0.573171,0.121951,0.310421,0.094235,233.000000,222.000000,11.000000,28.000000,0.000000,0.000000:
0000
0000
0000
0000
,
0000
0000
0000
0000
,
0000
0000
0000
0000
,
0000
0000
0000
0000
,
0000
0000
2000
0000
0000
3001
0000
0000
,
1000
1000
1000
1000
,
1000
0000
0001
1000
0001
0000
1000
0000
,
1000
1000
1000
1000
,
1000
0000
0010
1000
0010
0000
1000
0000
,
1000
1000
1000
0001
,
0001
0001
0001
0100
,
0100
0010
0010
1000
,
1000
0000
0001
0000
0001
0010
0000
0000
,
0100
0000
1000
0000
,
0001
0000
0000
0000
0100
0010
0000
0000
,
1000
0000
0100
0000
,
0010
0000
0001
0010
0000
0001
0000
0000
,
0100
0100
1000
1000
,
0001
0001
0100
0010
,
1000
0010
0100
0001
,
1000
0100
0010
0000
,
0001
0000
1000
0000
,
0001
0000
0000
0000
0010
0100
0000
0000
,
1000
0000
0001
0000
,
1000
0000
0010
1000
0000
0100
0000
0000
,
0001
1000
0001
1000
,
0001
0000
0010
0100
0010
0000
0100
0000
,
0010
0000
0100
0010
0100
0000
1000
0000
,
0001
0000
0000
0000
1000
0000
0000
0000
0001
0000
0000
0000
2002
0000
0000
3003
,
0000
0000
1000
0000
0100
0000
1000
0000
0100
0000
1000
0000
2002
0000
0000
3003
,
0000
0000
0001
0000
0100
0000
0001
0000
0100
0000
0010
0000
2002
0000
0000
3003
,
0000
0000
0001
0000
1000
0000
0001
0000
1000
0000
0001
0000
2002
0000
0000
3003
,
0000
1000
0100
0010
0001
1000
0001
0000
,
0000
1000
0000
0000
0000
0000
0000
0000
0000
0000
0001
0000
0000
0000
0000
0000
0000
0000
0000
0000
0000
0000
0000
0000
0000
0000
0000
0000
0000
0000
0000
0000
,
0000
0000
0000
0000
0000
0000
0000
0000
0010
0000
0000
0000
0000
0000
0000
0000
0000
0100
0000
0000
0000
0000
0000
0000
0000
0000
0010
0000
0000
0000
0000
0000
,
0000
0000
0000
0100
0000
0000
0000
0000
0000
0000
0000
0000
0010
0000
0000
0000
0000
0000
1000
0000
0000
0000
0000
0000
0001
0000
0000
0000
0000
0000
1000
0000
,
0000
0000
0000
0000
0000
0000
0000
0000
0000
0000
0000
0000
0000
1000
0000
0000
0000
0000
0000
0001
0000
0000
1000
0000
0000
0000
0000
0000
0001
0000
0000
0000
,
0000
1000
0000
0000
0100
0000
0000
0010
0000
0000
0001
0000
0000
0010
0000
0000
,
0100
0000
0000
1000
0000
0000
0001
0000
0000
1000
0000
0000
1002
0000
0000
0000
,
0000
0023
0000
0000
0000
0000
0000
0000
0000
0000
0230
0000
0000
0000
0000
0000
0000
0000
0000
0000
0000
0000
0000
0000
0000
0000
0000
0000
1300
0000
0000
0000
,
0000
0001
0000
1000
0000
0001
1000
0001
,
0000
1000
0001
1000
0000
0001
0000
0100
,
0000
0020
0000
2030
0000
3200
0000
2300
,
0000
3002
0000
0000
0000
0000
0000
0103
,
0000
0001
0000
2000
0000
3000
0100
2000
,
0000
3000
0001
0200
0000
0302
0000
2003
,
0000
3200
0000
0000
0000
0000
0000
0300
,
0000
0010
0000
0100
0000
0010
0100
0000
,
0020
0000
0030
0001
0000
0001
0000
1000
,
0000
1000
0000
0010
0000
0100
0010
0100
,
0000
0010
0000
1000
0000
0100
0010
0100
,
0000
0010
0000
0001
0000
1000
0000
0001
,
0000
1000
0000
0001
1000
0000
0010
0000
,
0000
0100
0000
0010
0100
0000
0001
0000
,
0000
1000
0000
0001
1000
0000
0001
0000
,
0000
1000
0000
0100
0000
0010
0001
0000
,
0010
0200
0000
0000
,
0000
0000
0000
0000
,
0000
0000
1300
0000
0000
0001
0000
0100
,
0000
0001
0000
1000
0000
0100
0010
0000
,
0001
2000
0000
0000
0000
0000
0000
0000
,
0000
0000
0000
0000
,
3000
1001
0000
1001
,
0000
1001
0000
0000
1001
0000
0000
1001
,
0000
0000
2002
0000
0000
3003
0000
0000
;
