#TITLE:GO!;
#SUBTITLE:Naruto Opening 4;
#ARTIST:FLOW;
#TITLETRANSLIT:;
#SUBTITLETRANSLIT:;
#ARTISTTRANSLIT:;
#GENRE:;
#CREDIT:;
#BANNER:GOBN.jpg;
#BACKGROUND:GOBG.jpg;
#LYRICSPATH:;
#CDTITLE:Magna Trick title!.png;
#MUSIC:GO.ogg;
#OFFSET:0.038837;
#SAMPLESTART:56.799999;
#SAMPLELENGTH:14.000000;
#SELECTABLE:YES;
#BPMS:0.000000=133.869995
;
#STOPS:127.000000=0.230000,
127.500000=0.220000
;
#BGCHANGES:0.063=GO.avi=1.000=0=0=1=====,
197.250=Go-bg.png=1.000=0=0=1=====,
99999=-nosongbg-=1.000=0=0=0 // don't automatically add -songbackground-
;
#KEYSOUNDS:;
#ATTACKS:;

//---------------dance-single - ----------------
#NOTES:
     dance-single:
     :
     Challenge:
     16:
     0.789292,0.801696,0.775444,0.344642,0.511578,513.000000,441.000000,72.000000,32.000000,0.000000,0.000000,0.789292,0.801696,0.775444,0.344642,0.511578,513.000000,441.000000,72.000000,32.000000,0.000000,0.000000:
1001
0000
0010
1000
0002
0000
0000
0000
1003
0000
0001
1000
0100
0010
0001
0000
,
0010
0000
0001
0010
0200
0000
0000
0000
1300
0000
0001
1000
0010
0100
0001
0000
,
1000
0000
0100
1000
0002
0000
0000
0000
0013
0000
0001
1000
0010
0100
0001
0000
,
2000
0000
3100
0000
0010
0000
0010
0000
0010
0000
0010
0000
0200
0000
0000
0300
,
2000
0000
3000
0000
1010
0000
1000
0000
1100
0000
0100
0010
0000
0010
0100
0000
,
1000
0000
0002
0000
0103
0000
0020
0000
0130
0000
0001
0010
0000
0010
0001
0000
,
1000
0000
0010
0000
0110
0000
0100
0000
1100
0000
1000
0100
0000
0100
0001
0000
,
1000
0000
0001
0000
1000
0010
0100
0001
0100
0001
1000
0100
0000
0100
0010
0000
,
0010
0000
0100
0000
1001
0000
0001
0000
0011
0000
0100
1000
0000
1000
0100
0000
,
1000
0000
1001
0000
0010
0000
1000
0000
0001
0000
0010
0100
0000
0100
1000
0000
,
0001
0000
0002
0000
2003
0000
3100
0000
0020
0000
0230
0000
1300
0000
0002
0003
,
0002
0023
0130
1001
1001
1001
1001
1001
,
0110
0000
1001
0010
0000
1001
0100
0000
,
1001
0000
0000
0000
0100
1000
0001
0000
0001
0100
0000
0100
0001
0000
1000
0100
,
1000
0000
0001
0010
0100
0000
1000
0000
0000
0000
0001
0000
1000
0001
1000
0001
,
0010
0100
0010
0100
2000
0000
3001
0000
0001
0000
0100
0000
0020
0000
0000
2030
,
0000
3100
0010
0001
1000
1000
0100
0010
,
0010
0000
0002
0000
0203
0000
0310
0000
1000
0000
0001
1000
0000
1000
0001
0000
,
0100
0200
0320
1030
1000
0100
0100
0010
,
0010
0000
1001
0000
1001
0000
0010
0000
0100
0000
0001
0020
0000
0000
0000
0000
,
0000
0030
1001
0000
1010
0000
0001
0100
,
0101
0000
0020
0000
0032
0000
0013
0000
0100
0000
0010
0001
0000
0001
0100
0000
,
0100
0020
2030
3100
0010
0001
0001
1000
,
1000
0000
0010
0000
0110
0000
0010
0000
0001
0000
0010
0100
0010
0000
1000
0000
,
1000
0000
0010
1000
0010
0000
1000
0000
1100
0000
1000
0000
1010
0000
0010
1000
,
0000
1000
0100
0000
0011
0000
0001
0000
0101
0000
0100
0000
0001
0010
0000
0010
,
0000
0100
1100
1000
1010
1000
1100
0100
,
0110
0000
0010
0000
0011
0000
0011
0000
0001
0000
0010
0000
0100
0010
0100
0000
,
0010
0100
0010
0000
0110
0000
0100
0000
0101
0000
0100
0000
0110
0000
0001
0010
,
0000
0010
1000
0000
1010
0000
0010
0000
0110
0000
0010
0000
0001
0010
0000
0010
,
0000
0001
1001
0100
0010
0100
1001
0001
,
0010
0000
0100
0000
1000
0001
0010
0100
1000
0100
0010
0001
2000
0000
3200
0000
,
0310
0000
0001
0000
0100
0000
0010
0100
0000
0100
0010
0000
1000
0000
1100
0000
,
1000
0000
1010
0000
0010
0000
0100
0001
0000
0001
0100
0000
0001
0000
0010
0000
,
0011
0000
0001
0000
0101
0000
0100
0010
0000
0010
1000
0000
0100
0000
1100
0000
,
0001
0000
0010
0100
1000
0010
0100
0001
0000
0001
1000
0000
1000
0000
0100
0000
,
0110
0000
0010
0000
0011
0000
0001
0100
0000
0100
0001
0000
1000
0000
1010
0000
,
1000
0000
1100
0000
1000
0000
0001
0010
0000
0010
0001
0000
0100
0000
0001
0000
,
0101
0100
0110
0101
0010
1010
1100
1001
,
0001
0010
0100
1000
0001
0100
0010
1000
0100
0010
0001
0100
0110
0000
0000
0000
,
1001
1001
0000
0110
0110
0000
1010
0000
,
0001
0000
0010
0000
0100
0010
0000
0010
0100
0000
1000
0010
1000
0000
0010
1000
,
0010
1000
0100
1001
1001
0100
1001
0010
,
0100
0000
1000
0010
0000
0010
1000
0001
1000
0000
0010
1000
0001
0000
1000
0100
,
1000
0001
0010
0110
0011
0001
0101
0100
,
0010
0000
1000
0100
0001
0100
0010
1000
0010
0000
0100
1000
0010
0000
0010
0100
,
0001
0100
0010
1100
1001
0001
0011
0010
,
0100
0000
1000
0010
0000
0010
0100
1000
0001
0000
0010
0000
1000
0000
0100
0000
,
0011
0000
0100
0000
1000
0000
0001
0000
0200
0000
0000
0310
1000
0100
0010
0001
,
2002
0000
0000
0000
0000
3003
0000
0000
;

//---------------dance-single - ----------------
#NOTES:
     dance-single:
     :
     Hard:
     10:
     0.543119,0.562601,0.193861,0.021540,0.177706,353.000000,335.000000,18.000000,2.000000,0.000000,0.000000,0.543119,0.562601,0.193861,0.021540,0.177706,353.000000,335.000000,18.000000,2.000000,0.000000,0.000000:
0000
0000
0001
1000
0001
0000
0000
0000
1000
0000
0000
0000
0001
1000
0001
0000
,
1000
0000
0001
1000
0001
0000
0000
0000
1000
0000
0000
0000
0001
1000
0001
0000
,
1000
0000
0001
1000
0001
0000
0000
0000
1000
0000
0000
0000
0001
1000
0001
0000
,
2000
0000
3001
0001
0001
0001
1001
0000
,
0010
0000
1000
0100
1000
0000
0010
0000
,
1000
0000
0001
0010
0001
0100
0001
0100
,
0010
1000
0010
0000
1000
0000
0100
1000
,
0001
0000
0010
0001
0010
0001
1000
0010
,
1000
0010
1000
0000
0001
0000
0100
0010
,
1000
0000
0000
0000
0100
0000
0100
0000
1000
0000
0001
1000
0000
0001
1000
0000
,
0001
0100
0010
0000
1000
0100
0000
0010
,
0100
1000
0001
0100
0100
0100
0100
0010
,
1000
0000
0001
1000
0000
0001
0010
0000
,
1001
0000
0000
0000
0010
0000
1000
0000
0100
0010
0000
0010
0100
0000
1000
0000
,
0001
0100
0010
0010
0000
0100
0100
0000
,
1001
0000
0000
0000
0001
0000
1000
0000
0100
0000
0010
0000
1000
0000
0000
0010
,
0000
0100
1000
0000
0001
0100
0000
0010
,
0010
0000
1000
0000
1000
0000
0001
0000
0010
0000
0100
1000
0000
1000
0001
0000
,
0100
0010
0000
0010
0010
0100
0100
0001
,
0001
0000
1000
0000
0100
0000
0010
0000
1000
0000
0001
0100
0000
0000
0000
0000
,
0000
0000
0010
0000
0001
0000
0100
0100
,
0010
0000
0000
0000
1000
0000
0001
0000
1000
0000
0010
0100
0000
0000
0100
0000
,
0001
1000
0000
0100
1000
0000
0010
0000
,
0100
0001
0100
1000
0100
0001
0010
1000
,
0010
0100
1000
1000
0001
0001
0100
1000
,
0100
0001
0010
0010
0001
0001
1000
0010
,
0001
0010
1000
1000
0001
0001
0010
1000
,
0001
0100
0010
0010
0000
0100
0000
1000
,
0000
0001
0100
0100
1000
1000
0001
0010
,
1000
0100
0010
0010
0100
0100
1000
0010
,
0001
0010
0010
0000
1000
0000
0100
0000
,
0010
0000
0001
0001
0001
0001
1001
0010
,
1000
0000
0001
0000
0100
0000
0010
1000
0000
1000
0010
0000
0000
0000
1000
0000
,
0000
0000
0001
0000
0010
0000
0001
0100
0000
0100
0001
0000
1000
0000
0010
0000
,
1000
0000
0000
0000
0001
0000
0000
0010
0000
0000
0100
0000
0000
0000
1000
0000
,
0000
0000
0001
0000
0100
0000
0010
0100
0000
0100
0010
0000
1000
0000
0100
0000
,
0010
0000
0000
0000
0100
0000
0000
1000
0000
0000
0001
0000
0000
0000
0100
0000
,
0000
0000
0010
0000
1000
0000
0100
0010
0000
0010
0100
0000
1000
0000
0001
0000
,
0100
0000
0001
0100
0000
0010
0010
1000
,
0100
1000
1000
1000
1000
0001
1000
0000
,
0110
1001
0000
0100
1000
0000
1001
0000
,
0001
0000
0100
0000
0010
1000
0000
1000
0100
0000
0010
0000
0100
0000
1000
0000
,
1001
0110
0000
1000
0001
0000
0110
0000
,
1000
0100
1000
0010
0100
0001
1000
0001
,
0110
1001
0000
0010
1000
0000
1001
0000
,
0001
0000
1000
0000
0100
0010
0000
0010
0100
0000
1000
0000
0001
0000
0100
0000
,
0110
1001
0000
1001
0110
0000
1001
0000
,
0010
0000
1000
0100
0000
0100
0000
0010
0001
0000
1000
0000
0010
0000
0100
0000
,
0001
0000
1000
0000
0100
0000
0010
0000
0100
0000
0000
1000
0000
0000
0001
0000
,
0200
0000
0000
0300
;

//---------------dance-single - ----------------
#NOTES:
     dance-single:
     :
     Medium:
     8:
     0.407724,0.453150,0.118471,0.021540,0.005385,265.000000,254.000000,11.000000,2.000000,0.000000,0.000000,0.407724,0.453150,0.118471,0.021540,0.005385,265.000000,254.000000,11.000000,2.000000,0.000000,0.000000:
0000
0000
0000
0000
,
0000
0000
0000
0000
,
0000
0000
0000
0000
,
0000
1001
0000
0010
,
0100
0010
1000
0100
,
0010
0000
0001
0001
1000
1000
0010
0010
,
0100
0100
0001
0000
1000
0000
0100
0100
,
0000
0000
1000
0000
0001
0000
0100
0100
,
0010
0010
1000
0000
0001
0000
0010
0010
,
0000
0000
0001
0000
1000
0000
0100
0100
,
1000
1000
0001
0000
0100
0000
0010
0000
,
0100
0000
0001
1000
0001
1000
0001
0000
,
1000
0110
0010
1000
,
1001
0001
0010
0100
,
1000
1001
0010
0100
,
1001
0000
0000
0000
0100
0000
1000
0000
0001
0000
0100
0000
0010
0000
0000
1000
,
0000
0001
0001
0000
1000
0000
0100
0100
,
1000
0000
0001
0000
0010
0000
0001
0001
,
1000
0000
0010
0000
0100
0000
1000
0001
,
0010
0100
1000
0001
,
0000
0000
0100
0000
0100
0000
0010
0010
,
0010
0000
1000
0100
1000
0010
0100
0001
,
0010
0001
0000
1000
1000
0000
0001
0000
,
0100
0100
0010
0010
1000
1000
0001
0001
,
1000
0010
0100
0100
0001
0001
1000
1000
,
0001
1000
0001
0001
1000
1000
0010
0100
,
0001
1000
0001
0001
1000
1000
0100
0100
,
0010
0010
0100
1000
0000
0001
0000
1000
,
0000
0000
0010
0010
0100
0100
0001
0001
,
1000
1000
0100
0010
0100
1000
0001
0100
,
0010
0100
0100
0001
0001
1000
1000
0100
,
0100
0010
0001
1000
0001
1000
0001
1000
,
0010
0100
0001
0000
1000
0100
0010
0000
,
0001
1000
0001
1000
0001
0000
0100
0000
,
0010
1000
0100
0000
0010
0001
0100
0000
,
0001
0000
1000
0000
0001
1000
0010
0100
,
0001
0000
1000
0000
0100
1000
0001
0000
,
0100
0000
0010
0000
1000
0100
1000
0000
,
0010
0000
1000
0100
0000
1000
0001
0000
,
0100
0010
1000
0001
,
1001
0010
0100
1010
,
0001
1000
0001
0010
,
0100
1000
0001
0110
,
0010
0000
1000
0000
0001
0010
0001
1000
,
0010
1000
0001
0110
,
0010
0000
1000
0000
0001
0010
0001
1000
,
0010
1000
0001
0110
,
1000
0100
0001
0010
1000
0010
0001
1000
,
0001
1000
0010
0100
,
2002
0000
3003
0000
;

//---------------dance-single - ----------------
#NOTES:
     dance-single:
     :
     Easy:
     4:
     0.281560,0.320679,0.010770,0.010770,0.000000,183.000000,182.000000,1.000000,1.000000,0.000000,0.000000,0.281560,0.320679,0.010770,0.010770,0.000000,183.000000,182.000000,1.000000,1.000000,0.000000,0.000000:
// measure 0
0000
0000
0000
0000
,  // measure 1
0000
0000
0000
0000
,  // measure 2
0000
0000
0000
0000
,  // measure 3
1001
0000
0001
1000
0001
1000
0001
0000
,  // measure 4
1000
0001
0001
1000
,  // measure 5
1000
0010
0100
0001
,  // measure 6
1000
0100
0100
0010
,  // measure 7
0010
0001
1000
0001
,  // measure 8
1000
0010
0010
0100
,  // measure 9
0100
0001
0010
0001
,  // measure 10
0010
0100
0100
1000
,  // measure 11
1000
0001
1000
0010
,  // measure 12
0100
0001
0000
1000
,  // measure 13
0000
0001
0001
1000
,  // measure 14
1000
0010
0000
0100
,  // measure 15
0000
0001
0010
0001
,  // measure 16
0010
0100
0100
1000
,  // measure 17
1000
0001
1000
0010
,  // measure 18
0100
0000
0010
0100
,  // measure 19
0001
1000
0100
0010
,  // measure 20
0000
0000
0100
0000
0100
0000
1000
0001
,  // measure 21
1000
0000
0001
0000
0100
0000
0010
0100
,  // measure 22
0010
0100
0001
1000
,  // measure 23
0001
1000
1000
0001
,  // measure 24
0001
0000
0010
0001
0010
0000
0001
0000
,  // measure 25
1000
0000
0100
1000
0100
0000
1000
0000
,  // measure 26
0010
1000
0001
0100
,  // measure 27
0010
0000
1000
0000
0000
0001
0000
0001
,  // measure 28
0000
0010
0100
1000
,  // measure 29
0010
0100
0001
1000
,  // measure 30
0100
0010
0010
0001
,  // measure 31
0001
0000
1000
0000
0001
0000
1000
0001
,  // measure 32
1000
1000
0001
0001
,  // measure 33
0100
0010
0100
0000
0001
0000
1000
0000
,  // measure 34
0100
0100
0010
0010
,  // measure 35
0001
0000
1000
0000
0001
1000
0001
0000
,  // measure 36
0100
0100
0010
0010
,  // measure 37
1000
0000
0001
0000
1000
0001
1000
0000
,  // measure 38
0001
0001
0010
0010
,  // measure 39
0100
1000
0100
1000
,  // measure 40
0010
0000
0100
0000
,  // measure 41
0001
0001
1000
1000
,  // measure 42
0100
0000
0010
0000
,  // measure 43
0001
0001
1000
1000
,  // measure 44
0010
0000
0100
0000
,  // measure 45
0001
0001
1000
1000
,  // measure 46
0100
0000
0010
0000
,  // measure 47
0001
0001
1000
1000
,  // measure 48
0010
0100
0010
0100
0010
0000
0100
0000
,  // measure 49
0002
0000
0000
0000
0000
0003
0000
0000
;
