#TITLE:Fuuma & Kamui (Dialogue Mix);
#SUBTITLE:Chobits Dark Chi Theme;
#ARTIST:X;
#TITLETRANSLIT:;
#SUBTITLETRANSLIT:;
#ARTISTTRANSLIT:;
#GENRE:;
#CREDIT:Magna Trick;
#BANNER:FKDMBN.jpg;
#BACKGROUND:FKDMBG.jpg;
#LYRICSPATH:;
#CDTITLE:Magna Trick title!.png;
#MUSIC:Fuuma & Kamui (Dialogue Mix).mp3;
#OFFSET:-0.800134;
#SAMPLESTART:103.000000;
#SAMPLELENGTH:14.000000;
#SELECTABLE:YES;
#DISPLAYBPM:140.000000;
#BPMS:0.000000=140.000000
;
#STOPS:212.000000=0.200000
;
#BGCHANGES:0.063=Fuuma & Kamui (Dialogue Mix).avi=1.000=0=0=1=====,
417.000=FKDMBG.jpg=1.000=0=0=1=====,
99999=-nosongbg-=1.000=0=0=0 // don't automatically add -songbackground-
;
#KEYSOUNDS:;
#ATTACKS:;

//---------------dance-single - ----------------
#NOTES:
     dance-single:
     :
     Challenge:
     18:
     0.877436,0.986152,0.490717,0.447577,0.949079,1139.000000,1048.000000,91.000000,83.000000,0.000000,3.000000,0.877436,0.986152,0.490717,0.447577,0.949079,1139.000000,1048.000000,91.000000,83.000000,0.000000,3.000000:
// measure 0
1001
0000
0100
1000
0000
1000
0001
0000
0001
0100
0000
0100
0010
0000
1000
0000
,  // measure 1
1010
0000
0100
1000
0000
1000
0100
0000
0100
0010
0000
0010
0001
0000
0010
0000
,  // measure 2
0011
0000
0001
0100
0000
0100
0010
0000
0010
1000
0000
1000
0100
0000
1000
0000
,  // measure 3
1001
0000
0001
0100
0000
0100
0010
0000
0010
1000
0000
1000
0100
0000
0010
0000
,  // measure 4
0110
0000
0010
0001
0000
0001
1000
0000
1000
0010
0000
0010
0100
0000
0010
0000
,  // measure 5
0110
0000
0100
0001
0000
0001
0010
0000
0010
0100
0000
0100
1000
0000
0001
0000
,  // measure 6
1001
0000
0001
0100
0000
0100
0010
0000
0010
1000
0000
1000
0100
0000
0010
0000
,  // measure 7
0110
0000
0010
0001
0000
0001
0010
0000
0010
0100
0000
0100
1000
0000
0010
0000
,  // measure 8
1010
0000
0010
1000
0000
1000
0001
0000
0001
0010
0000
0010
0001
0000
0010
0000
,  // measure 9
0011
0000
0001
0100
0000
0100
0010
0000
0010
1000
0000
1000
0001
0000
1000
0000
,  // measure 10
1001
0000
0010
0100
0000
0100
0001
0000
0001
1000
0000
1000
0010
0000
1000
0001
,  // measure 11
1000
0000
1000
0001
0000
0001
0010
0000
0010
0100
0000
0100
1000
0000
0001
0000
,  // measure 12
0001
0010
0100
1000
0010
1000
0001
0010
0100
1000
0010
1000
0001
0010
0100
1000
0010
1000
0001
1000
0001
1000
0001
1000
,  // measure 13
0020
0000
1000
0030
1100
0000
0001
0000
0100
0000
0101
0000
0001
0000
0010
0000
,  // measure 14
2000
0000
0010
3000
0011
0000
0001
0000
0100
0000
0110
0000
0020
0000
1000
0030
,  // measure 15
0200
0000
1000
0300
1001
0000
0001
0000
0010
0000
0110
0000
0100
0000
2000
3002
,  // measure 16
0203
0000
0010
0300
1010
0000
0010
0000
1000
0000
1100
0000
0200
0000
0010
0300
,  // measure 17
0002
0000
0010
0003
0011
0000
0001
0000
1000
0000
1001
0000
0010
0000
0100
0000
,  // measure 18
0002
0000
1000
0003
1010
0000
0010
0000
0002
0000
0010
0203
1000
0000
0320
0000
,  // measure 19
0032
0000
0010
0003
0110
0000
0100
0000
0001
0000
1010
0000
0010
0000
0200
0302
,  // measure 20
2003
0000
0100
3000
0011
0000
0100
0000
1000
0000
1010
0000
0020
0000
0100
0030
,  // measure 21
0002
0000
1000
0003
1100
0000
0001
0000
0010
0000
0110
0000
0100
0000
1000
0000
,  // measure 22
0020
0000
0100
0030
1001
0000
0100
0000
0010
0000
0011
0000
0200
0000
1000
0300
,  // measure 23
0002
0000
0100
0003
1010
0000
0200
0302
0023
0000
1031
0000
0100
0000
1000
0000
,  // measure 24
0001
0100
2002
0000
0000
0000
3003
0000
,  // measure 25
1001
0000
0100
1000
0000
1000
0001
0000
0001
0100
0000
0100
0010
0000
1000
0000
,  // measure 26
1010
0000
1000
0100
0000
0100
0010
0000
0010
0001
0000
0001
0100
0000
0001
0000
,  // measure 27
0101
0000
0010
1000
0000
1000
0100
0000
0100
0010
0000
0010
0001
0000
1000
0000
,  // measure 28
1001
0000
0001
0100
0000
0100
1000
0000
1000
0001
0000
0001
0010
0000
1000
0000
,  // measure 29
1010
0000
1000
0100
0000
0100
0001
0000
0001
1000
0000
1000
0010
0000
0001
0000
,  // measure 30
0011
0000
0010
0100
0000
0100
1000
0000
1000
0010
0000
0010
0001
0000
1000
0000
,  // measure 31
1001
0000
0010
1000
0000
1000
0100
0000
0100
1000
0000
1000
0001
0000
1000
0000
,  // measure 32
1001
0000
0010
1000
0000
1000
0010
0000
1001
0100
0000
0100
0001
0000
1000
0000
,  // measure 33
1001
0000
0010
1000
0000
1000
0001
0000
0001
0100
0000
0100
0001
0000
1000
0000
,  // measure 34
1001
0000
0001
0010
0000
0010
1000
0000
1000
0010
0000
0010
1010
0000
0110
0000
,  // measure 35
1100
0000
1000
0100
0000
0100
0010
0000
0010
0001
0000
0001
1000
0000
0010
0000
,  // measure 36
1010
0000
0001
0010
0000
0010
0100
0000
1010
0100
0000
0100
0010
0000
1000
0000
,  // measure 37
2010
0000
0000
0100
0000
0000
0100
0000
0000
0100
0000
0000
0100
0000
0001
0000
,  // measure 38
3002
0000
0000
0010
0000
0000
0010
0000
0000
0010
0000
0000
1000
0000
1000
0000
,  // measure 39
2003
0000
0000
0000
,  // measure 40
3200
0000
0000
0000
0000
0000
0000
0000
0000
0000
0000
0000
0000
0000
0000
0000
0000
0000
1300
0001
1000
0001
1000
0001
,  // measure 41
0010
0000
0001
1000
0001
0000
1000
0000
0010
0000
1000
0100
1000
0000
0100
0000
,  // measure 42
0002
0000
0100
0013
0100
0000
1000
0000
0010
0000
1000
0001
2000
0000
0001
3000
,  // measure 43
0020
0000
0001
0130
1000
0000
0100
0000
0001
0000
0010
0100
1000
0000
0002
2003
,  // measure 44
3020
0000
0100
1030
0100
0000
0001
0000
0010
0000
0100
0010
0200
0000
1000
0300
,  // measure 45
0002
0000
0100
0013
1000
0000
0100
0000
0010
0000
0001
0010
0100
0000
1000
0000
,  // measure 46
1001
0000
0001
0010
1000
0000
0001
0000
0100
0000
1000
0002
0010
0000
0203
0000
,  // measure 47
2300
0000
0100
3001
0100
0000
0010
0000
0001
0000
1000
0100
1000
0000
0020
2030
,  // measure 48
3002
0000
0010
0103
1000
0000
0010
0000
0001
0000
0010
1000
0200
0000
0010
0300
,  // measure 49
2000
0000
0001
3100
1000
0000
0010
0000
0100
0000
0010
0001
1000
0000
0001
0000
,  // measure 50
0020
0000
1000
0130
0010
0000
0010
0000
0100
0000
1000
0001
2000
0000
0001
3000
,  // measure 51
0002
0000
0100
0013
1000
0000
0020
2030
3200
0000
1000
0310
0100
0000
0001
0000
,  // measure 52
0010
0000
0100
1000
0001
0000
1000
0000
0010
1000
0100
1000
0001
0100
0001
0010
,  // measure 53
0100
0000
0001
1000
0010
1000
0001
0010
1000
0010
0001
1000
0010
0100
0001
0000
,  // measure 54
0000
0000
1000
0001
0100
0001
1000
0100
0001
0100
1000
0001
0100
0010
1000
0000
,  // measure 55
0000
0000
0010
0100
1000
0100
0010
1000
0001
1000
0010
0100
1000
0001
0010
0000
,  // measure 56
0000
0000
1000
0010
0001
0010
0100
0001
0010
0001
0100
0010
0001
1000
0100
0000
,  // measure 57
0000
0000
0001
0100
1000
0100
0010
1000
0100
1000
0001
0100
0010
1000
0001
0000
,  // measure 58
0000
0000
0100
0001
0010
0001
1000
0010
0001
0010
0100
0001
0100
0010
1000
0000
,  // measure 59
0000
0000
0001
0010
0100
1000
0100
0010
0001
0100
0010
1000
0100
0010
0001
0000
,  // measure 60
0000
0000
0010
1000
0001
1000
0010
0001
1000
0001
0010
1000
0001
0100
0010
0000
,  // measure 61
1000
0000
0001
0010
0100
0010
0001
0100
0010
0100
0001
0010
0100
1000
0001
0000
,  // measure 62
0100
0000
0010
0001
1000
0001
0010
1000
0001
1000
0010
0001
1000
0100
0010
0000
,  // measure 63
0001
0000
0010
1000
0010
1000
0100
0010
1000
0010
0100
1000
0010
0001
1000
0000
,  // measure 64
0100
0000
1000
0100
0001
0100
0010
1000
0100
0001
1000
0010
0001
0010
1000
0000
,  // measure 65
0001
0000
0100
1000
0010
0100
0010
1000
0100
1000
0010
0100
1000
0001
0010
0000
,  // measure 66
1000
0000
0100
0010
0001
0010
0100
0001
1000
0001
0100
0010
0001
1000
0100
0000
,  // measure 67
0010
0001
1000
0001
0010
0100
1000
0100
1000
0001
0100
0001
1000
0100
0020
0000
,  // measure 68
0000
0000
0000
0000
0000
0000
0030
0000
0000
0010
0001
1000
0100
0000
0000
0010
0001
1000
0100
0010
0001
2000
0000
0000
,  // measure 69
3010
0100
0001
0000
0100
0000
0010
0000
1000
0001
0100
0000
0010
0000
2000
0000
,  // measure 70
3001
1000
0100
0000
0010
0000
0001
0000
1000
0010
0002
0000
0010
0003
2000
0000
,  // measure 71
0010
3100
0001
0000
0010
0000
0001
0000
1000
0100
0010
0000
0002
0200
2303
0000
,  // measure 72
3001
0010
1000
0000
0001
0000
0010
0000
0100
1000
0002
0000
1000
0003
0200
0000
,  // measure 73
0010
0301
0100
0000
0010
0000
1000
0000
0100
1000
0010
0000
1000
0000
0200
0000
,  // measure 74
0010
0301
1000
0000
0001
0000
0200
0000
1000
0320
1000
0000
0032
0000
0203
0000
,  // measure 75
0001
0310
1000
0000
0010
0000
0001
0000
0010
0100
1000
0000
0100
0010
0002
0000
,  // measure 76
1000
0013
0100
0000
0001
0000
1000
0000
0100
1000
0002
0000
1000
0003
0200
0000
,  // measure 77
0010
0301
1000
0000
0100
0000
0001
0000
0100
1000
0001
0000
0010
0000
0002
0000
,  // measure 78
0100
1003
0001
0000
1000
0000
0100
0000
0001
0010
2000
0000
0010
3000
0200
0000
,  // measure 79
0010
0301
1000
0000
0200
0020
0302
0030
1000
0013
0100
0000
0010
0000
1000
0000
,  // measure 80
0100
0000
0000
0010
0000
0000
0001
0000
0000
0000
0000
0000
0100
0000
0000
0000
0000
0000
1000
0000
0000
0100
0000
0000
0001
0000
0000
0010
0000
0000
0100
0000
0010
0000
0100
0000
0010
0000
0100
0000
0010
0000
0100
0000
0000
0000
0000
0000
,  // measure 81
1000
0000
0100
0000
0010
0000
0001
0000
0010
0000
0100
1000
0010
0100
0001
0000
,  // measure 82
1001
0000
1100
0000
0011
0000
0001
0000
1100
0000
0010
0000
0100
0001
1000
0000
,  // measure 83
0100
0000
0011
0000
0100
1000
0001
0100
0001
1000
0010
0100
0001
1000
0110
0000
,  // measure 84
0011
0000
1001
0000
1010
0000
0001
0000
1000
0010
1000
0000
0100
0000
0010
0000
,  // measure 85
0001
0010
1100
0000
0000
0000
0011
0000
0000
1001
0000
0000
0100
0000
1000
0000
,  // measure 86
0001
0000
0100
0000
1001
0000
0020
0000
0130
0002
1000
0003
0200
0000
0320
0000
,  // measure 87
0130
1000
0011
0000
0000
0000
1001
0000
0000
1010
0000
0000
1100
0000
0011
0000
,  // measure 88
0000
0110
0000
0001
1000
0010
0100
0001
1000
0100
0010
0001
0010
0100
1000
0000
,  // measure 89
0001
0000
1000
0000
0010
0000
0100
0000
0000
0000
0000
0000
0000
0000
0000
0000
0000
0000
0101
0000
0000
0000
0000
0000
0000
0000
0000
0011
0000
0000
0000
0000
0000
0000
0000
0000
0110
0000
0000
0000
0000
0000
1100
0000
0000
0000
0000
0000
,  // measure 90
0010
0000
1000
0000
0001
0000
0101
0000
0000
0011
0000
0000
1100
0000
1010
0000
,  // measure 91
0001
0000
0100
0000
1000
0100
0011
0000
0001
0000
1000
0000
0010
0000
0100
0001
,  // measure 92
0100
0000
0000
0001
0000
0000
0100
0000
0000
0001
0000
0000
0100
0000
0000
0001
0000
0000
0100
0000
0010
0000
0100
0000
0010
0000
0100
0000
0010
0000
0100
0000
0010
0000
0100
0000
0010
0000
0000
0000
0000
0000
1001
0000
0000
0000
0000
0000
,  // measure 93
0100
1000
0000
1000
0001
0000
0001
0100
0000
0100
0010
0000
1000
0000
1010
0000
,  // measure 94
0100
1000
0000
1000
0100
0000
0100
0010
0000
0010
0100
0000
1000
0000
1100
0000
,  // measure 95
0001
0100
0000
0100
0010
0000
0010
1000
0000
1000
0010
0000
0100
0000
0110
0000
,  // measure 96
0001
0100
0000
0100
0010
0000
0010
1000
0000
1000
0001
0000
1000
0000
1001
0000
,  // measure 97
0010
0001
0000
0001
1000
0000
1000
0010
0000
0010
1000
0000
0001
0000
1001
0000
,  // measure 98
0100
0001
0000
0001
0010
0000
0010
0100
0000
0100
1000
0000
1001
0000
0110
0000
,  // measure 99
0001
0100
0000
0100
0010
0000
0010
1000
0000
1000
0100
0000
0010
0000
0110
0000
,  // measure 100
0001
1000
0000
1000
0001
0000
1001
0010
0000
0100
1000
0000
0110
0000
2002
0000
,  // measure 101
0000
0000
0000
0000
,  // measure 102
0000
0000
0000
0000
,  // measure 103
0000
0000
0000
0000
,  // measure 104
0000
0000
3003
0000
;

//---------------dance-single - ----------------
#NOTES:
     dance-single:
     :
     Hard:
     16:
     0.819659,0.845273,0.156382,0.593174,0.916724,1064.000000,1035.000000,29.000000,110.000000,0.000000,1.000000,0.819659,0.845273,0.156382,0.593174,0.916724,1064.000000,1035.000000,29.000000,110.000000,0.000000,1.000000:
1001
0000
0010
0001
0000
0001
1000
0000
1000
0010
0000
0010
0100
0000
0001
0000
,
0001
0000
0010
0001
0000
0001
0010
0000
0010
0100
0000
0100
1000
0000
0100
0000
,
0100
0000
1000
0010
0000
0010
0100
0000
0100
0001
0000
0001
0010
0000
0001
0000
,
0001
0000
1000
0010
0000
0010
0100
0000
0100
0001
0000
0001
0010
0000
0100
0000
,
0100
0000
1000
0010
0000
0010
0100
0000
0100
0001
0000
0001
0010
0000
1000
0000
,
1000
0000
0010
0001
0000
0001
0100
0000
0100
0010
0000
0010
1000
0000
0001
0000
,
0001
0000
1000
0010
0000
0010
0100
0000
0100
0001
0000
0001
0010
0000
0100
0000
,
0100
0000
1000
0010
0000
0010
0001
0000
0001
1000
0000
1000
0100
0000
0001
0000
,
0001
0000
1000
0100
0000
0100
0010
0000
0010
0001
0000
0001
1000
0000
0100
0000
,
0100
0000
0010
1000
0000
1000
0010
0000
0010
0001
0000
0001
1000
0000
0100
0000
,
0100
0000
0010
0001
0000
0001
0010
0000
0010
1000
0000
1000
0001
0000
0100
1000
,
0100
0000
0001
1000
0000
1000
0100
0000
0100
0010
0000
0010
0001
0000
1000
0000
,
1000
0000
0000
0100
0000
0000
0010
0000
0000
0100
0000
0000
1000
0000
0000
0100
0000
0000
0010
0000
0000
0100
0000
0000
1000
0000
0000
0100
0000
0000
0010
0000
0001
0000
1000
0000
0001
0000
1000
0000
0001
0000
1000
0000
0001
0000
1000
0000
,
0200
0000
0010
0300
0011
0000
1000
0000
0010
0000
1010
0000
1000
0000
0100
0000
,
0002
0000
0100
0003
1100
0000
1000
0000
0010
0000
0110
0000
0200
0000
0001
0300
,
0020
0000
0001
0030
1001
0000
1000
0000
0100
0000
0110
0000
0010
0000
0002
2003
,
3020
0000
0100
0030
0101
0000
0100
0000
0001
0000
0011
0000
0020
0000
0100
0030
,
2000
0000
0100
3000
1100
0000
1000
0000
0001
0000
1001
0000
0100
0000
0010
0000
,
2000
0000
0001
3000
0101
0000
0100
0000
2000
0000
0100
3020
1000
0000
0230
0000
,
2300
0000
0001
3000
0110
0000
0010
0000
1000
0000
0101
0000
0100
0000
0020
2030
,
3002
0000
0010
0003
1100
0000
0010
0000
0001
0000
0101
0000
0200
0000
0010
0300
,
2000
0000
0001
3000
0011
0000
0100
0000
1000
0000
0110
0000
0010
0000
1000
0000
,
0200
0000
0010
0300
1001
0000
0010
0000
0100
0000
1100
0000
0020
0000
0001
0030
,
2000
0000
0010
3000
0101
0000
0020
2030
3200
0000
1301
0000
0010
0000
0001
0000
,
1000
0010
2002
0000
0000
0000
3003
0000
,
1001
0000
0010
0001
0000
0001
1000
0000
1000
0010
0000
0010
0100
0000
0001
0000
,
0001
0000
0010
0100
0000
0100
1000
0000
1000
0010
0000
0010
0100
0000
1000
0000
,
1000
0000
0100
0001
0000
0001
0010
0000
0010
0100
0000
0100
1000
0000
0001
0000
,
0001
0000
1000
0010
0000
0010
0001
0000
0001
1000
0000
1000
0100
0000
0001
0000
,
0001
0000
0010
0100
0000
0100
1000
0000
1000
0001
0000
0001
0100
0000
1000
0000
,
1000
0000
0100
0010
0000
0010
1000
0000
1000
0100
0000
0100
1000
0000
0001
0000
,
0001
0000
0100
0001
0000
0001
0010
0000
0010
0001
0000
0001
1000
0000
0100
0000
,
0100
0000
0010
0001
0000
0001
0100
0000
0010
1000
0000
1000
0100
0000
0010
0000
,
0010
0000
0100
1000
0000
1000
0001
0000
0001
0010
0000
0010
0100
0000
1000
0000
,
1000
0000
0100
0010
0000
0010
0001
0000
0001
0100
0000
0100
0001
0000
1000
0000
,
1000
0000
0001
0010
0000
0010
0100
0000
0100
1000
0000
1000
0001
0000
0100
0000
,
0100
0000
1000
0100
0000
0100
0010
0000
0100
0010
0000
0010
0001
0000
1000
0000
,
1002
0000
0000
0010
0000
0000
0010
0000
0000
0010
0000
0000
0010
0000
1000
0000
,
2003
0000
0000
0100
0000
0000
0100
0000
0000
0100
0000
0000
0001
0000
0001
0000
,
3002
0000
0000
0000
,
0023
0000
0000
0000
0000
0000
0000
0000
0000
0000
0000
0000
0031
1000
0001
1000
,
0100
0000
1000
0001
1000
0000
0001
0000
0100
0000
0001
0010
0001
0000
0010
0000
,
2000
0000
0010
3100
0010
0000
0001
0000
0100
0000
0001
1000
0002
0000
1000
0003
,
0200
0000
1000
0310
1000
0000
0010
0000
1000
0000
0100
0010
0100
0000
2000
3002
,
2003
0000
3010
0001
0010
0000
1000
0000
0100
0000
0010
0100
0020
0000
0001
0030
,
2000
0000
0010
3100
0010
0000
1000
0000
0100
0000
1000
0100
1000
0000
0001
0000
,
1001
0000
0100
1000
0100
0000
1000
0000
0010
0000
1000
0200
1000
0300
0020
0000
,
0230
0000
0310
0100
0010
0000
0100
0000
0001
0000
0010
0001
0010
0000
0200
2300
,
0200
3000
1300
0001
1000
0000
0100
0000
1000
0000
0100
0010
0200
0000
0010
0300
,
0002
0000
1000
0013
1000
0000
0100
0000
0010
0000
0100
1000
0100
0000
1000
0000
,
0200
0000
1000
0301
1000
0000
0100
0000
0010
0000
0001
1000
0002
0000
1000
0003
,
0010
0000
0100
0010
0100
0000
0002
0023
0032
0003
1000
0100
1000
0000
0010
0000
,
0100
0000
0010
0100
0010
0000
1000
0000
0001
1000
0001
1000
0001
1000
0100
0010
,
0001
0000
1000
0100
0010
0001
1000
0100
0010
0001
1000
0100
0010
0001
1000
0000
,
0000
0000
0001
1000
0010
0100
0001
1000
0010
0100
0001
1000
0010
0100
0001
0000
,
0000
0000
1000
0010
0100
0001
1000
0010
0100
0001
1000
0010
0100
0001
1000
0000
,
0000
0000
0001
0010
0100
1000
0001
0010
0100
1000
0001
0010
0100
1000
0001
0000
,
0000
0000
1000
0100
1000
0100
0010
0001
0010
0001
1000
0100
1000
0100
0010
0000
,
0000
0000
0001
0100
0001
0100
0010
1000
0010
1000
0001
0100
0001
0100
0010
0000
,
0000
0000
1000
0001
1000
0001
0010
0100
0010
0100
1000
0001
1000
0001
0100
0000
,
0000
0000
0100
0010
1000
0001
0100
0010
1000
0001
0100
0010
1000
0001
0100
0000
,
0001
0000
1000
0100
0010
0001
1000
0100
0010
0001
1000
0100
0010
0001
1000
0000
,
0001
0000
0010
0100
1000
0001
0010
0100
1000
0001
0010
0100
1000
0001
0010
0000
,
0100
0000
1000
0100
0010
0001
0100
0001
1000
0100
0010
0001
0100
0001
1000
0000
,
0001
0000
1000
0010
1000
0001
0100
0010
1000
0001
1000
0010
0100
0001
1000
0000
,
0001
0000
0100
0010
1000
0001
0100
0010
0100
0001
1000
0100
0010
0001
1000
0000
,
0001
0000
0010
0100
1000
0100
0010
0001
0010
0100
1000
0100
0010
0001
0010
0000
,
0100
1000
0001
1000
0100
0010
0001
0010
0001
1000
0010
1000
0001
0010
0200
0000
,
0000
0000
0000
0000
0000
0000
0300
0000
0000
0100
1000
0001
0010
0000
0000
0100
1000
0001
0010
0100
1000
0002
0000
0000
,
0103
0010
0100
0000
0010
0000
0100
0000
0001
1000
0001
0000
0100
0000
0002
0000
,
1003
0001
1000
0000
0100
0000
1000
0000
0001
0100
0002
0000
0103
0000
0002
0000
,
0103
0010
0100
0000
0010
0000
1000
0000
0001
0010
0001
0000
2000
3020
2030
0000
,
3100
0010
0100
0000
1000
0000
0100
0000
0010
0001
0020
0000
0031
0000
0020
0000
,
0100
1030
0100
0000
0010
0000
0001
0000
1000
0001
1000
0000
0001
0000
0020
0000
,
0100
1030
0100
0000
1000
0000
0002
0000
1003
0020
1030
0000
0200
0000
0320
0000
,
0031
0100
0001
0000
0100
0000
1000
0000
0100
0010
0100
0000
0010
0100
0020
0000
,
1030
0100
2000
0000
3100
0000
0010
0000
0001
0010
0002
0000
0013
0000
0200
0000
,
1300
0100
1000
0000
0001
0000
1000
0000
0010
0100
0010
0000
0100
0000
0002
0000
,
0010
1003
0010
0000
0001
0000
0010
0000
0100
0010
0200
0000
1300
0000
0020
0000
,
0100
1030
0100
0000
0020
0032
0023
0000
1030
0001
1000
0000
0100
0000
0010
0000
,
0001
0000
0000
1000
0000
0000
0001
0000
0000
0000
0000
0000
1000
0000
0000
0000
0000
0000
0001
0000
0000
1000
0000
0000
0001
0000
0000
0100
0000
0000
0010
0000
0100
0000
0010
0000
0100
0000
0010
0000
0100
0000
0010
0000
0000
0000
0000
0000
,
1000
0000
0010
0000
0100
0000
0001
0000
1000
0000
0100
0010
0001
1000
0100
0000
,
0020
0000
0032
0000
2003
0000
3100
0000
0010
0000
0100
0000
0010
0001
1000
0000
,
0010
0000
0100
0000
0010
1000
0001
0100
0010
1000
0001
0100
0010
1000
0002
0000
,
2003
3020
0230
0301
1000
0001
0010
0100
,
1000
0100
0020
0000
0000
0000
0032
0000
0003
0002
0000
0000
0023
0000
0032
0000
,
2003
0000
3020
0000
2030
0000
3200
0000
0310
0001
0010
0000
0200
0000
2300
0000
,
3010
1000
0001
0000
0000
0000
2000
0000
0000
3002
0000
0000
0023
0000
0230
0000
,
0000
2300
0000
3001
0010
0100
1000
0001
0010
0100
1000
0100
0010
0001
1000
0000
,
0100
0010
0001
0000
0000
0000
2000
0000
0000
3200
0000
0000
0320
0000
0032
0000
,
0103
0000
0001
0000
1000
0000
0020
0000
0000
0230
0000
0000
0302
0000
2003
0000
,
3000
0000
0010
0000
1000
0010
0100
0000
0001
0000
1000
0000
0100
0000
0010
0001
,
0010
0001
0010
0001
0010
0001
0010
0100
1000
0010
0100
0001
1000
0000
1001
0000
,
0010
0001
0000
0001
1000
0000
1000
0010
0000
0010
0100
0000
0001
0000
0001
0000
,
0010
0001
0000
0001
0010
0000
0010
0100
0000
0100
0010
0000
0001
0000
0001
0000
,
1000
0010
0000
0010
0100
0000
0100
0001
0000
0001
0100
0000
0010
0000
0010
0000
,
1000
0010
0000
0010
0100
0000
0100
0001
0000
0001
1000
0000
0001
0000
0001
0000
,
0100
1000
0000
1000
0001
0000
0001
0010
0000
0010
1000
0000
0001
0000
0001
0000
,
0010
0001
0000
0001
0100
0000
0100
0010
0000
0010
1000
0000
0001
0000
0001
0000
,
1000
0010
0000
0010
0100
0000
0100
0001
0000
0001
0010
0000
0100
0000
0100
0000
,
1000
0001
0000
0001
1000
0000
1000
0100
0000
0010
0001
0000
0110
0000
2002
0000
,
0000
0000
0000
0000
,
0000
0000
0000
0000
,
0000
0000
0000
0000
,
0000
0000
3003
0000
;

//---------------dance-single - ----------------
#NOTES:
     dance-single:
     :
     Medium:
     12:
     0.436022,0.451891,0.010785,0.280410,0.204915,566.000000,564.000000,2.000000,52.000000,0.000000,0.000000,0.436022,0.451891,0.010785,0.280410,0.204915,566.000000,564.000000,2.000000,52.000000,0.000000,0.000000:
0001
0000
0000
1000
0000
0000
0001
0000
0000
1000
0000
0000
0001
0000
0010
0000
,
0100
0000
0000
1000
0000
0000
0001
0000
0000
1000
0000
0000
0001
0000
0100
0000
,
0010
0000
0000
1000
0000
0000
0001
0000
0000
1000
0000
0000
0001
0000
0010
0000
,
0100
0000
0000
1000
0000
0000
0001
0000
0000
1000
0000
0000
0001
0000
0100
0000
,
0010
0000
0000
1000
0000
0000
0001
0000
0000
1000
0000
0000
0001
0000
0010
0000
,
0100
0000
0000
1000
0000
0000
0001
0000
0000
1000
0000
0000
0001
0000
1000
0000
,
0100
0000
0000
0010
0000
0000
0001
0000
0000
1000
0000
0000
0010
0000
0100
0000
,
0001
0000
0000
1000
0000
0000
0100
0000
0000
0010
0000
0000
0001
0000
1000
0000
,
0010
0000
0000
0100
0000
0000
0001
0000
0000
1000
0000
0000
0100
0000
0010
0000
,
0001
0000
0000
1000
0000
0000
0010
0000
0000
0100
0000
0000
0001
0000
1000
0000
,
0100
0000
0000
0010
0000
0000
0001
0000
0000
1000
0000
0000
0010
0000
0100
0000
,
0001
0000
0000
1000
0000
0000
0100
0000
0000
0010
0000
0000
0001
0000
0100
0000
,
0020
0000
0000
0000
0000
0000
0000
0030
,
1000
0000
0001
0000
1000
0001
1000
0000
,
0002
0000
0013
0000
0100
0010
0200
0000
,
2300
0000
3001
0000
0100
0001
0100
0000
,
0020
0000
1030
0000
0001
1000
0002
0000
,
0023
0000
0130
0000
1000
0100
1000
0000
,
0002
0000
0000
0000
0013
0000
0000
0000
0100
0000
0000
1000
0000
0000
0001
0000
,
0200
0000
0310
0000
0100
0001
1000
0000
,
0200
0000
0310
0000
0100
1000
0020
0000
,
0230
0000
0301
0000
1000
0001
1000
0000
,
0002
0000
0013
0000
0100
1000
0002
0000
,
0203
0000
0310
1000
2000
0010
0000
3000
,
0100
1000
0001
0100
0010
1000
0001
0100
,
0010
0000
0000
1000
0000
0000
0001
0000
0000
0010
0000
0000
0100
0000
1000
0000
,
0010
0000
0000
0100
0000
0000
1000
0000
0000
0100
0000
0000
0001
0000
0010
0000
,
0100
0000
0000
0010
0000
0000
1000
0000
0000
0010
0000
0000
0100
0000
0010
0000
,
0001
0000
0000
0100
0000
0000
0010
0000
0000
1000
0000
0000
0001
0000
1000
0000
,
0100
0000
0000
0001
0000
0000
0100
0000
0000
0010
0000
0000
0100
0000
1000
0000
,
0010
0000
0000
0100
0000
0000
1000
0000
0000
0100
0000
0010
0000
0000
1000
0000
,
0100
0000
0000
1000
0000
0000
0001
0000
0000
1000
0000
0010
0000
0000
1000
0000
,
0001
0000
0000
0010
0000
0000
0001
0000
0000
1000
0000
0000
0001
0000
0100
0000
,
0010
0000
0000
1000
0000
0000
0001
0000
0000
0010
0000
0000
0100
0000
1000
0000
,
0010
0000
0000
0100
0000
0000
0001
0000
0000
1000
0000
0000
0100
0000
0010
0000
,
0001
0000
0000
0010
0000
0000
0100
0000
0000
1000
0000
0000
0001
0000
0100
0000
,
0010
0000
0000
1000
0000
0000
0100
0000
0000
0010
0000
0000
0001
0000
0010
0000
,
0200
0000
0000
0000
0000
0000
0000
0000
0000
0000
0000
0000
0000
0000
0000
0300
,
2000
0000
0000
0000
,
3002
0000
0000
0000
,
0203
0000
0000
0000
,
0310
0000
1000
0000
0001
0100
0001
0000
,
2000
0000
3100
0000
0010
0100
0020
0000
,
0230
0000
1300
0000
0001
0100
0001
0000
,
2000
0000
3100
0000
0010
0100
0020
0000
,
0230
0000
1300
0000
0010
1000
0010
0000
,
2000
0000
3001
0000
0100
0001
0100
0000
,
0002
0000
0013
0000
0001
0010
0001
0000
,
2000
0000
3010
0000
1000
0010
2000
0000
,
3002
0000
0013
0000
0100
0010
0100
0000
,
2000
0000
3100
0000
0001
0100
0002
0000
,
0203
0000
1300
0000
0010
1000
0010
0000
,
0100
0000
0001
0000
1000
0001
1000
0001
,
1000
0000
1000
0001
1000
0001
1000
0001
,
0000
0100
0010
0100
0010
0100
0010
0100
,
0000
0010
1000
0010
1000
0010
1000
0010
,
0000
0001
0100
0001
0100
0001
0100
0001
,
0000
1000
0100
0010
0001
1000
0100
0010
,
0000
0001
0010
0100
1000
0001
0010
0100
,
0000
1000
0001
0100
0010
1000
0001
0100
,
0000
0010
1000
0001
0100
0010
1000
0001
,
0000
0001
0010
0100
1000
0001
0010
0100
,
0000
1000
0010
0100
0001
1000
0010
0100
,
0000
0100
1000
0001
0010
0100
1000
0001
,
0000
0010
1000
0001
0010
0100
1000
0001
,
0000
1000
0010
0100
0001
0010
0100
1000
,
0000
1000
0100
0010
0001
0100
0010
1000
,
0000
0001
1000
0100
0010
0001
1000
0010
,
0100
0001
1000
0001
1000
0001
1000
0002
,
0000
1003
0000
0001
1000
0001
0000
2000
,
0000
3100
0000
0010
0100
0020
0000
0032
,
0000
1003
0000
0010
1000
0010
0000
0200
,
0000
0301
0000
1000
0001
2000
0000
3200
,
0000
0310
0000
0001
0010
0001
0000
2000
,
0000
0000
3100
0000
0000
0000
0010
0000
0000
0001
0000
0000
1000
0000
0020
0000
,
0000
0130
0000
0010
1000
0001
0000
0020
,
0000
0130
0000
0010
0001
0200
0000
0320
,
0000
1030
0000
0001
1000
0001
0000
2000
,
0000
3100
0000
0010
0001
2000
0000
3020
,
0000
0130
0001
0002
0100
0000
0003
0010
,
0001
1000
0010
0100
0001
1000
0010
0010
,
0000
0100
0000
0001
0100
0001
0100
1000
,
0100
0000
0010
0000
0100
0000
0000
0000
0000
0000
0000
0000
0100
0010
0100
0000
,
0000
0000
0000
0001
1000
0100
0010
0001
,
0001
0010
0010
0000
0000
0000
0000
0000
,
0000
0000
1000
0000
0000
0000
1000
0000
0000
1000
0000
0000
0010
0000
0100
0000
,
0001
1000
0100
0000
0000
0000
0000
0000
,
0010
0100
0010
0000
0000
0000
0100
0000
0000
1000
0000
0000
0001
0000
0010
0000
,
0000
0100
0000
0000
1000
0000
0010
0000
0100
0000
0001
0000
1000
0000
0010
0000
,
0000
0000
0100
0000
0000
0000
0001
0000
0000
0001
0000
0000
1000
0000
1000
0000
,
0000
0000
0001
0000
0000
0000
0010
0000
0000
0010
0000
0000
0100
0000
1000
0000
,
0000
0000
0001
0000
0100
0010
0100
0000
0000
0000
0010
0000
0000
0000
1000
0000
,
0001
1000
0001
1000
0001
1000
0001
1001
,
0000
0001
0000
0000
1000
0000
0000
0001
0000
0000
1000
0000
0100
0000
0010
0000
,
0000
0001
0000
0000
0010
0000
0000
0100
0000
0000
1000
0000
0010
0000
0100
0000
,
0000
0010
0000
0000
0100
0000
0000
0001
0000
0000
1000
0000
0100
0000
0010
0000
,
0000
0100
0000
0000
0010
0000
0000
0100
0000
0000
1000
0000
0001
0000
0100
0000
,
0000
0010
0000
0000
1000
0000
0000
0001
0000
0000
0100
0000
0010
0000
1000
0000
,
0000
0100
0000
0000
0010
0000
0000
0001
0000
0000
0010
0000
0100
0000
1000
0000
,
0000
0001
0000
0000
1000
0000
0000
0001
0000
0000
1000
0000
0010
0000
0100
0000
,
0000
0001
0000
0000
1000
0000
0100
0010
0000
0000
0001
0000
0010
0000
2002
0000
,
0000
0000
0000
0000
,
0000
0000
0000
0000
,
0000
0000
0000
0000
,
0000
0000
0000
3003
;

//---------------dance-single - ----------------
#NOTES:
     dance-single:
     :
     Easy:
     3:
     0.182574,0.310675,0.194130,0.312765,0.000000,237.000000,201.000000,36.000000,58.000000,0.000000,0.000000,0.182574,0.310675,0.194130,0.312765,0.000000,237.000000,201.000000,36.000000,58.000000,0.000000,0.000000:
1100
0000
0000
0000
,
0101
0000
0000
0000
,
1001
0000
0000
0000
,
0011
0000
0000
0000
,
1010
0000
0000
0000
,
0110
0000
0000
0000
,
1100
0000
0000
0000
,
0101
0000
1001
0000
,
1000
0001
1000
0001
,
0100
0010
0100
0010
,
1000
0001
1000
0001
,
0010
0100
0010
0100
,
0200
0000
0000
0000
0000
0000
0000
0300
,
2000
0000
0000
0000
0000
0000
0000
3000
,
0200
0000
0000
0000
0000
0300
0020
0000
,
0032
0000
0000
0000
,
2003
0000
0000
3020
,
0230
0000
0000
0000
,
0302
0000
0023
0000
,
0230
0000
0000
0000
0000
0000
0000
0300
,
2000
0000
0000
3002
,
0203
0000
0000
0000
,
0320
0000
0000
2030
,
3002
0000
0023
0000
,
0000
0000
0000
0000
0000
0000
0000
0030
,
1100
0000
0000
0000
,
0101
0000
0000
0000
,
1001
0000
0000
0000
,
1010
0000
0000
0000
,
0011
0000
0000
0000
,
0110
0000
0000
0000
,
1100
0000
0000
0000
,
0101
0000
1001
0000
,
1001
0000
0000
0000
,
1010
0000
0000
0011
,
1100
0000
0000
0000
,
1010
0000
0101
0000
,
2001
0000
0000
0000
,
3002
0000
0000
0000
,
2003
0000
0000
0000
,
3020
0000
0000
0000
,
0230
0000
0000
0000
,
2300
0000
0000
3002
,
0203
0000
0000
0000
,
0320
0000
0000
2030
,
3002
0000
0000
0000
,
2003
0000
3200
0000
,
0320
0000
0000
0000
,
0032
0000
0000
2003
,
3020
0000
0000
0000
,
0230
0000
0000
0302
,
2003
0000
3200
0000
,
0000
0000
0000
0000
0000
0000
0000
0300
,
0000
0001
0000
1000
0000
0001
0000
1000
,
0000
0010
0000
0100
0000
0010
0000
0100
,
0000
0001
0000
0010
0000
0001
0000
0010
,
0000
0100
0000
1000
0000
0100
0000
1000
,
0000
0010
0000
1000
0000
0010
0000
1000
,
0000
0100
0000
0001
0000
0100
0000
0001
,
0000
0010
0000
0100
0000
0010
0000
0100
,
0000
1000
0000
0001
0000
1000
0000
0001
,
0000
0100
0000
0010
0000
0100
0000
0010
,
0000
1000
0000
0001
0000
1000
0000
0001
,
0000
0010
0000
0100
0000
0010
0000
0100
,
0000
1000
0000
0001
0000
1000
0000
0001
,
0000
0100
0000
0010
0000
0100
0000
0010
,
0000
1000
0000
0010
0000
1000
0000
0010
,
0000
0100
0000
0001
0000
0100
0000
0001
,
0000
1000
0000
0001
1000
0001
1000
0002
,
0000
0000
0000
0000
0000
0000
0000
2003
,
0000
0000
0000
0000
0000
3020
0000
0230
,
0000
0000
0000
0000
0000
0000
0000
0302
,
0000
0000
0000
0000
0000
2003
0000
3002
,
0000
0000
0000
0000
0000
0000
0000
0023
,
0000
0000
0000
0230
0000
0000
0000
2300
,
0000
0000
0000
0000
0000
0000
0000
3002
,
0000
0000
0000
0000
0000
2003
0000
3020
,
0000
0000
0000
0000
0000
0000
0030
0200
,
0000
0000
0000
0000
0000
0302
0000
2003
,
0000
0000
0000
3200
0000
0000
0000
0000
,
0000
0000
0000
0000
0000
0000
0300
1001
,
0000
0000
0000
0000
0000
0000
0000
1000
,
0000
0001
0000
1000
0000
0000
0000
0010
,
0000
0000
0000
0000
0000
0000
0000
0100
,
0000
0001
0000
1000
0000
0000
0000
0000
,
0000
0100
0000
0000
0000
0000
0000
0010
,
0000
0001
0000
1000
0000
0000
0000
0000
,
0000
0100
0000
0010
0000
1000
0000
0010
,
0000
0100
0000
0001
0000
1000
0000
0001
,
0000
0010
0000
0000
0000
0000
0000
0100
,
0000
0000
0000
1000
0000
0001
0000
1000
,
0000
0000
0000
0001
0000
0000
0000
1000
,
0000
0001
0000
1000
0000
0001
0000
0110
,
0000
0000
0000
0000
0000
0000
0000
1010
,
0000
0000
0000
0000
0000
0000
0000
0011
,
0000
0000
0000
0000
0000
0000
0000
1100
,
0000
0000
0000
0000
0000
0000
0000
0101
,
0000
0000
0000
0000
0000
0000
0000
1001
,
0000
0000
0000
0000
0000
0000
0000
1010
,
0000
0000
0000
0000
0000
0000
0000
0011
,
0000
0000
0000
0110
0000
0000
0000
2002
,
0000
0000
0000
0000
,
0000
0000
0000
0000
,
0000
0000
0000
0000
,
0000
0000
0000
3003
;
