#TITLE:Fukai Mori;
#SUBTITLE:Inuyasha Ending 2;
#ARTIST:Do As Infinity;
#TITLETRANSLIT:;
#SUBTITLETRANSLIT:;
#ARTISTTRANSLIT:;
#GENRE:;
#CREDIT:;
#BANNER:FMBN.jpg;
#BACKGROUND:FMBG.jpg;
#LYRICSPATH:;
#CDTITLE:;
#MUSIC:InuYasha Ending 2.ogg;
#OFFSET:-0.100000;
#SAMPLESTART:2.982392;
#SAMPLELENGTH:29.629627;
#SELECTABLE:YES;
#BPMS:0.000000=81.000000
;
#STOPS:
;
#BGCHANGES:0.063=1.avi=1.000=0=0=1=====,
127.000=FMBG.jpg=1.000=0=0=1=====,
99999=-nosongbg-=1.000=0=0=0 // don't automatically add -songbackground-
;
#KEYSOUNDS:;
#ATTACKS:;

//---------------dance-single - ----------------
#NOTES:
     dance-single:
     :
     Hard:
     8:
     0.307324,0.327451,0.092638,0.452899,0.329381,209.000000,200.000000,9.000000,44.000000,0.000000,0.000000,0.307324,0.327451,0.092638,0.452899,0.329381,209.000000,200.000000,9.000000,44.000000,0.000000,0.000000:
0000
0000
0000
0000
,
1000
0000
0100
0010
0000
0001
0200
0000
0300
0000
0000
0000
0010
0000
1000
0000
,
1001
0000
0000
0000
0120
0000
0000
0030
0001
0000
0000
0010
0100
0000
0000
0000
,
1000
0000
0010
0100
0000
0001
0020
0000
0000
0000
0002
0000
0000
0033
0000
0000
,
2000
0000
0000
3000
0020
0000
0000
0030
0100
0000
0001
1000
0000
0100
1000
0010
,
0100
0000
0001
0100
0000
0001
0020
0000
0000
0000
0000
0030
0001
0000
1000
0000
,
0200
0000
0300
0000
0020
0000
0030
0000
0002
0000
0003
1000
0200
0000
0300
0000
,
1000
0000
0010
0100
0000
0001
0200
0000
0000
0000
0020
0000
0000
0330
0000
0000
,
1000
0000
0100
1000
0000
0000
0010
0200
0000
0000
0000
0000
0000
0000
0300
0000
,
0001
0000
0000
0000
1000
0000
0010
1000
0000
0000
0010
0100
0000
0000
0100
0000
,
0001
0000
1000
0000
0010
0000
2002
0000
3003
0000
0001
1000
0100
1000
0010
0100
,
0000
0000
0000
0000
0000
0000
0000
0000
1000
0000
0000
0000
0100
0000
0000
0000
0000
0000
0000
0000
0000
1000
0000
0000
0000
0100
0000
0000
0000
0010
0000
0000
0000
0000
0000
0000
0000
0000
0000
0000
0001
0000
0000
0000
1000
0000
0000
0000
0000
0000
0000
0000
0000
0000
0000
0000
0000
0000
0000
0000
0000
1000
0000
0000
,
0000
0100
0000
0000
0000
0000
0000
0000
0000
0000
0000
0000
0000
0010
0000
0000
0000
0000
0000
0000
0000
1000
0000
0000
0000
0000
0000
0000
0000
0010
0000
0000
0000
0000
0000
0000
0000
0000
0000
0000
0000
0000
0000
0000
0000
0000
0000
0000
1000
0000
0000
0000
0000
0000
0000
0000
0100
0000
0000
0000
0000
0000
0000
0000
,
1000
0000
0010
0100
0000
0000
0001
1000
0100
0000
1000
0200
0000
0000
0300
0000
,
1000
0000
0000
0010
0000
0010
0100
0000
0000
0000
0100
0000
0001
1000
0100
0000
,
2000
0000
0000
0000
0000
3000
0010
0200
0000
0000
0000
0300
0001
0000
0010
0000
,
0100
0000
1000
0100
0000
0010
0002
0000
0000
0000
0003
0000
1000
0000
0100
0000
,
0001
0000
0100
1000
0000
0001
0200
0000
0000
0000
0300
0000
2000
0000
3200
0000
,
0000
0000
0000
0000
0000
0000
0000
0300
0000
0000
0000
0000
0000
0000
0000
0000
,
2002
0000
0000
0000
0000
0000
0000
3003
1001
0000
1000
0010
0100
0001
0010
0000
,
0100
0000
1000
0001
0000
0001
2000
0000
0000
0000
0000
3000
0010
0000
0100
0000
,
0202
0000
0303
0000
2002
0000
3003
0000
0100
0000
0000
1000
0200
0000
0300
0000
,
1000
0000
0010
0100
0000
0001
0020
0000
0000
0030
0002
0000
0003
0000
0000
0000
,
1001
0000
0000
0000
1100
0000
0000
0000
0010
0000
0100
0020
1030
0100
0010
0001
,
1000
0000
0100
0010
0000
0010
0002
0000
0000
0000
0000
0003
0000
0000
0001
0000
,
2000
0000
0000
0000
3020
0000
0000
0030
0100
0000
0000
0001
0200
0000
0000
0300
,
0001
0000
1000
0010
0000
0100
0020
0000
0000
0030
0200
0000
0000
0300
0000
0000
,
0001
0000
1000
0100
0000
0000
0010
0002
0000
0003
0000
0000
0000
0000
0000
0000
,
2000
0000
0000
3000
0000
0000
0010
0200
0000
0300
0010
0100
0000
0000
0010
0000
,
1000
0000
0010
0000
1000
0000
0001
0100
0000
0010
0100
0001
1000
0100
1000
0000
,
0100
1000
0010
0100
0001
1000
0100
0010
,
0001
0000
1000
0000
0010
0000
0200
0000
0000
0000
0000
0000
0000
0300
0000
0000
;

//---------------dance-single - ----------------
#NOTES:
     dance-single:
     :
     Challenge:
     11:
     0.476426,0.506552,0.308794,0.226449,0.607296,324.000000,294.000000,30.000000,22.000000,0.000000,0.000000,0.476426,0.506552,0.308794,0.226449,0.607296,324.000000,294.000000,30.000000,22.000000,0.000000,0.000000:
// measure 0
0000
0000
0000
0000
0000
0000
0000
0000
1001
0000
0001
0000
0010
0100
1001
0000
,  // measure 1
1000
0000
0100
0010
0000
0001
0100
0000
0010
1000
0100
0000
1001
0000
0100
0000
,  // measure 2
1001
0000
0000
0000
0120
0000
0000
0030
0001
0000
0000
0010
0100
0000
0000
0000
,  // measure 3
1000
0000
0010
0100
0000
0001
0020
0000
0000
0030
0001
0000
1001
0000
0000
0000
,  // measure 4
2000
0000
0000
0000
0000
0000
0000
0000
0000
0000
0000
0000
3000
0000
0000
0000
0020
0000
0000
0000
0000
0000
0000
0000
0000
0000
0000
0000
0030
0000
0000
0000
0100
0000
0000
0000
0000
0000
0000
0001
0000
0000
0000
1000
0000
0000
0000
0100
0000
0000
0000
0010
0000
0000
0000
0001
0000
0000
0000
0010
0000
0000
0000
0100
,  // measure 5
0000
0000
0000
0000
0000
0000
0000
1000
0000
0000
0000
0000
0001
0000
0000
0000
0000
0000
0000
0000
0001
0000
0000
0000
0020
0000
0000
0000
0030
0000
0000
0000
0000
0000
0000
0000
0000
0000
0000
0000
0100
0000
0000
0000
1000
0000
0000
0000
0001
0000
0000
0000
0000
0000
0000
0000
1000
0000
0000
0000
0000
0000
0000
0000
,  // measure 6
0200
0000
0300
0000
0020
0000
0030
0000
0002
0000
0003
1000
0200
0000
0300
0000
,  // measure 7
1000
0000
0010
0100
0000
0001
0200
0000
0000
0010
0010
0000
0010
0300
0000
0000
,  // measure 8
1000
0000
0100
1000
0000
0000
0010
0100
0001
1000
0010
0100
0001
0010
0100
0000
,  // measure 9
1001
0000
0000
0000
1000
0000
0010
1000
0000
0000
0010
0100
0000
0010
0100
0001
,  // measure 10
1100
0000
0000
0000
0110
0000
0000
0000
1100
0000
0000
0000
2002
0000
3003
0000
0001
1000
0001
1000
0100
0000
0010
0000
0001
0000
0100
0000
0010
0000
1000
0000
,  // measure 11
0000
0000
0000
0000
0000
0000
0000
0000
1000
0000
0000
0000
0100
0000
0000
0000
0000
0000
0000
0000
0000
1000
0000
0000
0000
0100
0000
0000
0000
0010
0000
0000
0000
0000
0000
0000
0000
0000
0000
0000
0001
0000
0000
0000
1000
0000
0000
0000
0000
0000
0000
0000
0000
0000
0000
0000
0000
0000
0000
0000
0000
1000
0000
0000
,  // measure 12
0000
0100
0000
0000
0000
0000
0000
0000
0000
0000
0000
0000
0000
0010
0000
0000
0000
0000
0000
0000
0000
1000
0000
0000
0000
0000
0000
0000
0000
0010
0000
0000
0000
0000
0000
0000
0000
0000
0000
0000
0000
0000
0000
0000
0000
0000
0000
0000
1000
0000
0000
0000
0000
0000
0000
0000
0100
0000
0000
0000
0000
0000
0000
0000
,  // measure 13
1000
0000
0010
0100
0000
0000
0001
1000
0100
0000
1000
0200
0000
0300
0000
1000
,  // measure 14
1000
0000
0000
0001
0000
0010
0100
0000
0000
0000
0101
0000
0001
1000
0100
0000
,  // measure 15
0020
0030
0000
0001
0010
0000
0010
0200
0000
0300
1000
0000
0001
0000
0010
0000
,  // measure 16
0100
0000
1000
0100
0000
0010
0002
0000
0000
0000
0003
0000
1000
0000
0100
0000
,  // measure 17
0001
0000
0100
1000
0000
0001
0200
0000
0000
0000
0300
0000
2000
0000
3200
0300
,  // measure 18
0010
0000
0001
0000
1000
0000
0001
1000
0000
1000
0001
0000
1000
0100
0010
0001
,  // measure 19
2002
0000
0000
0000
0000
0000
0000
3003
1001
0000
0010
0100
0001
0100
0001
0000
,  // measure 20
1001
0000
0010
1000
0000
0010
0200
0300
0000
0100
0001
0000
1000
0000
0010
1000
,  // measure 21
1010
0000
0000
0010
0101
0000
0001
0000
1000
0000
0000
0100
1000
0010
0100
0001
,  // measure 22
1000
0000
0100
1000
0000
0010
1000
0000
0000
0010
0101
0000
1000
0000
0100
1000
,  // measure 23
1100
0000
0000
0000
0000
0000
0000
0000
0110
0000
0000
0000
0000
0000
0000
0000
1001
0000
0000
0000
0001
0000
1000
0000
0001
0000
1000
0000
0001
0010
0100
1000
,  // measure 24
0001
0000
1000
0100
0000
1000
0010
0000
0100
0100
0000
0000
1001
0000
0001
1000
,  // measure 25
0100
0000
0000
0000
0011
0000
0001
1000
0010
0000
0000
0100
0001
0000
0000
0000
,  // measure 26
1100
0000
0100
1000
0000
0010
0100
0000
0001
1000
0100
1000
0010
0000
0100
0001
,  // measure 27
1000
0000
0000
0000
0100
0000
1000
0000
0000
0000
0000
0000
0100
0000
1000
0000
0010
0100
0001
1000
0001
0000
1000
0000
0010
0100
0001
0010
0100
0000
1000
0000
,  // measure 28
0001
0000
1000
0100
1000
0010
0100
0001
0000
0000
1000
0100
0000
0000
1000
0010
,  // measure 29
1000
0000
0101
0000
1100
0000
0100
1000
0010
0100
0001
0000
1100
0000
0100
1000
,  // measure 30
0010
0000
0100
0000
1001
0000
1000
0100
0100
0001
1000
0000
1100
0000
0001
0100
,  // measure 31
0100
1000
0001
0000
1001
0000
1000
0100
0100
0001
1000
0000
0001
0000
0000
0000
;

//---------------dance-single - ----------------
#NOTES:
     dance-single:
     :
     Medium:
     5:
     0.210274,0.213261,0.010293,0.349967,0.174984,143.000000,142.000000,1.000000,34.000000,0.000000,0.000000,0.210274,0.213261,0.010293,0.349967,0.174984,143.000000,142.000000,1.000000,34.000000,0.000000,0.000000:
0000
0000
0000
0000
,
1000
0000
0100
0010
0000
0001
2000
0000
0000
0000
0000
3000
0000
0000
0001
0000
,
1000
0000
0010
0000
0100
0000
0020
0030
,
1000
0000
0001
0010
0000
0100
2000
0000
0000
0000
0000
0000
3000
0000
0000
0000
,
0010
0000
0000
0000
1000
0000
0000
0000
0010
0000
0000
0020
0000
0030
0000
0000
,
1000
0000
0100
0010
0000
0001
0020
0000
0000
0000
0000
0030
0000
0000
0001
0000
,
0100
0000
0000
0000
0010
0000
0000
0000
1000
0000
0000
0010
0010
0000
0000
0000
,
0100
0000
0010
0010
0000
0000
2000
0000
0000
0000
0010
0000
3000
0000
0000
0000
,
0001
0000
0000
0100
0000
0000
0020
0000
0000
0000
0000
0000
0000
0030
0000
0000
,
1000
0010
0100
0010
,
1000
0010
0100
0002
0000
0003
0000
1000
,
0000
0000
0010
0000
0000
0100
0000
0100
0000
0000
0000
0010
0000
0000
0000
0000
,
1000
0000
0000
0010
0000
0100
0000
0002
0000
0000
0003
0000
1000
0000
0100
0000
,
0010
0000
0000
0001
0000
0000
1000
0000
0010
0000
0000
0100
0000
0000
0000
0000
,
0010
0000
0000
1000
0000
0000
0002
0000
0000
0000
0000
0003
0000
0000
0000
0000
,
2000
0000
3000
0020
0000
0030
0100
0010
,
1000
0000
0000
1000
0000
0000
2000
0000
0000
0000
3000
0000
0001
0000
0100
0000
,
0010
0000
0000
0010
0000
0000
0020
0000
0000
0000
0030
0000
2000
0000
0200
0000
,
0000
0000
0000
0000
0000
0000
0000
0000
0000
0000
0000
3300
0000
0000
0000
0000
,
2002
0000
0000
0000
0000
0000
0000
0000
0003
3000
0000
0000
0000
0000
0000
0000
,
0010
0000
0100
0010
0000
0100
0020
0000
0000
0000
0000
0030
0000
0000
1000
0000
,
0002
0000
0003
0000
0100
0000
0000
0000
0010
0000
0000
1000
0001
0000
0000
0000
,
0100
0000
0010
0100
0000
0001
0200
0000
0000
0000
0002
0000
0303
0000
0000
0000
,
1000
0000
0000
0000
0010
0000
0000
0000
1000
0000
0001
2000
0000
0000
3000
0000
,
0010
0000
0100
0010
0000
0100
0020
0000
0000
0000
0000
0000
0030
0000
1000
0000
,
0200
0000
0000
0300
0020
0000
0030
0000
0001
0000
0000
0001
1000
0000
0000
0000
,
0100
0000
1000
0010
0000
0100
0002
0000
0000
0000
1000
0000
0000
0003
0000
0000
,
0010
0000
0000
0200
0000
0000
0000
0020
0000
0000
0000
0000
0330
0000
0000
0000
,
2000
0000
0000
0000
3020
0000
0000
0030
0100
0000
0000
0000
0001
0000
1000
0000
,
0100
0000
0010
0000
0001
0000
0200
0000
0000
0000
0000
0300
0010
0000
0000
0000
,
2000
0000
0000
3000
0001
0000
0000
0000
0100
0000
0010
0000
0100
0000
0001
0000
,
1000
0100
1000
0002
0000
0000
0000
0003
;

//---------------dance-single - ----------------
#NOTES:
     dance-single:
     :
     Easy:
     2:
     0.098520,0.130208,0.010293,0.247036,0.056612,67.000000,66.000000,1.000000,24.000000,0.000000,0.000000,0.098520,0.130208,0.010293,0.247036,0.056612,67.000000,66.000000,1.000000,24.000000,0.000000,0.000000:
0000
0000
0000
0000
,
2000
0000
0000
0000
0000
0000
0000
0000
0000
3000
0000
0000
0000
0000
0000
0000
,
0020
0000
0000
0000
0000
0000
0000
0000
0000
0000
0000
0030
0000
0000
0000
0000
,
0200
0000
0000
0000
0000
0000
0000
0000
0000
0000
0000
0300
0000
0000
0000
0000
,
0020
0000
0000
0000
0000
0030
0000
0000
,
2000
0000
0000
0000
0000
0000
0000
0000
0000
0000
0000
3000
0000
0000
0000
0000
,
0002
0000
0000
0003
,
0200
0000
0000
0000
0000
0000
0000
0000
0000
0000
0000
0300
0000
0000
0000
0000
,
0010
0000
0000
0010
0000
0000
0000
0020
0000
0000
0000
0000
0030
0000
0000
0000
,
2000
0000
0000
0000
0000
0000
0000
0000
0000
0000
0000
0000
0000
3000
0000
0000
,
0002
0000
0000
0000
0000
0000
0000
0000
0000
0003
0000
0000
0000
0000
0000
0000
,
1000
0000
0010
0000
,
1000
0000
0000
0000
0000
0000
0000
0020
0000
0030
0000
0000
0000
0000
0000
0000
,
0010
0000
0010
0000
,
1000
0000
0000
1000
0000
0000
2000
0000
0000
3000
0000
0000
0000
0000
0000
0000
,
0020
0000
0000
0000
0030
0000
0020
0000
0000
0000
0000
0030
0000
0000
0000
0000
,
1000
0000
0000
0000
0000
0000
2000
0000
0000
3000
0000
0000
0000
0000
0000
0000
,
0001
0000
0000
0002
0003
0000
0002
0000
,
0000
0000
0000
0000
0000
0000
0000
0003
0000
0000
0000
0000
0000
0000
0000
0000
,
1001
0000
0000
0000
,
1000
0000
0000
1000
0000
0000
2000
0000
0000
0000
3000
0000
0000
0000
0000
0000
,
0010
0010
0010
0010
,
1000
0000
0000
1000
0000
0000
2000
0000
0000
0000
0000
0000
3000
0000
0000
0000
,
0001
0000
0000
0000
0001
0000
0000
0000
0001
0000
0000
0002
0000
0003
0000
0000
,
0100
0000
0000
0100
0000
0000
0200
0000
0000
0000
0000
0300
0000
0000
0000
0000
,
0010
0010
0010
0010
,
1000
0000
0000
1000
0000
0000
2000
0000
0000
0000
0000
0000
3000
0000
0000
0000
,
0010
0000
0000
0100
0000
0000
0000
0020
0000
0000
0000
0000
0030
0000
0000
0000
,
1000
0000
0010
0000
,
0100
0000
0010
0010
,
1000
0000
0000
0000
0000
0001
0000
1000
,
0000
0010
0000
0020
0000
0030
0000
0000
;
