#TITLE:El Gran Soñador;
#SUBTITLE:Digimon Tamers Opening Latino;
#ARTIST:Adrian Barba;
#TITLETRANSLIT:;
#SUBTITLETRANSLIT:;
#ARTISTTRANSLIT:;
#GENRE:;
#CREDIT:Magna Trick;
#BANNER:EGSBN.jpg;
#BACKGROUND:EGSBG.jpg;
#LYRICSPATH:;
#CDTITLE:Magna Trick title!.png;
#MUSIC:El gran soñador.mp3;
#OFFSET:-0.041472;
#SAMPLESTART:3.000000;
#SAMPLELENGTH:20.000000;
#SELECTABLE:YES;
#BPMS:0.000000=66.974998
,14.500000=89.300003
,17.500000=133.949997
;
#STOPS:
;
#BGCHANGES:0.229=El gran soñador.avi=1.000=0=0=1=====,
182.000=ElgransonadorB.png=1.000=0=0=1=====,
99999=-nosongbg-=1.000=0=0=0 // don't automatically add -songbackground-
;
#KEYSOUNDS:;
#ATTACKS:;

//---------------dance-single - ----------------
#NOTES:
     dance-single:
     :
     Hard:
     11:
     0.458241,0.531725,0.188688,0.166489,0.460620,289.000000,272.000000,17.000000,15.000000,0.000000,0.000000,0.458241,0.531725,0.188688,0.166489,0.460620,289.000000,272.000000,17.000000,15.000000,0.000000,0.000000:
0000
0000
0000
0000
,
0000
0000
0000
0000
,
0000
0000
0000
0000
,
0000
0000
0000
0000
,
0000
0000
0000
0000
0000
0000
1001
0000
0000
0000
1001
0000
0000
0001
1000
0000
,
0001
0000
1000
0000
0000
0000
0001
1000
0000
0001
0000
0101
0000
1010
0000
0000
,
1000
0000
0010
0000
0100
0000
1001
0000
0000
0000
0110
0000
0000
1000
0001
0000
,
0001
0000
1000
0000
0000
0000
0001
0010
0000
0011
0000
1100
0000
1000
0000
0000
,
0001
0000
0100
0000
0010
0000
1000
0001
0100
0010
0000
0000
0000
0000
0010
1000
,
0001
0000
0000
0100
0000
0000
0000
0000
0000
0000
0000
0000
0000
0000
0000
0000
0000
0000
0010
0000
0000
0000
0000
0000
0000
0000
0000
0000
0000
0000
0010
0000
0000
0000
0000
0000
0000
0000
0000
0000
0000
0000
0010
0000
0000
0000
0001
0000
,
0000
0000
1000
0000
0000
0000
0100
0000
0000
0000
0000
0000
0000
0000
0000
0000
0000
0000
0010
0000
0000
0000
0000
0000
0000
0000
0000
1000
0000
0000
0000
0000
0000
0000
0000
0000
0000
0000
0000
0000
0000
0000
0100
0000
0000
0000
0000
0000
,
1000
0000
0010
0000
0100
0000
0001
0000
0000
0001
0000
0010
0200
0000
0000
0000
,
0000
0000
0300
0000
0000
0000
0100
0000
0000
1000
0000
0000
0000
0000
0001
0000
,
0100
0000
0010
0000
1000
0000
0100
0000
1000
0010
0000
0100
0020
0000
0000
0000
,
0000
0000
0030
0000
0000
0000
0010
0000
0000
1000
0000
0000
0000
0000
0001
0000
,
0100
0000
0010
0000
1000
0000
0100
0000
0000
0100
0000
0010
0200
0000
0000
0000
,
0000
0000
0300
0000
0000
0000
0010
0000
0001
0010
0000
0000
0001
0000
1000
0000
,
0010
0000
0100
0000
0001
0000
1000
0000
0000
2000
0000
0000
0000
0000
0000
0000
,
3000
0000
0000
0000
0000
0000
0001
0000
0010
0000
0100
0000
1000
0000
1000
0100
,
0000
0010
0000
0000
0010
0000
0001
0000
0100
0000
1000
0000
0100
0000
0001
0010
,
0000
0010
0000
0000
0001
0000
0020
0000
0000
0000
2030
0000
0000
0000
3002
0000
,
0000
0000
0203
0000
0000
0000
1300
0000
0000
2000
0000
0000
3000
0000
0000
0000
,
0000
0000
0010
0000
1000
0000
0001
0000
0100
0000
0010
0000
1000
0000
0010
1000
,
0000
1000
0000
0000
0000
0000
0010
0000
1000
0000
0100
0000
0010
0000
0001
0010
,
0000
0010
0000
0000
0001
0000
0020
0000
0000
0000
0030
0000
0001
0000
0100
0000
,
0000
0010
0000
0000
1000
0000
0200
0000
0000
0000
1000
0000
0000
0000
0001
0000
,
0000
0000
1000
0000
0300
0000
0001
0100
0001
0100
0000
0100
0000
0001
0100
0000
,
0000
0000
0010
0000
1000
0000
0100
0000
1000
0000
0001
1000
0000
1000
0000
0000
,
0001
0000
1000
0000
0010
0000
0100
0000
0001
0000
0100
0010
0000
0010
0000
0000
,
0000
0000
0010
0000
1000
0000
0100
0000
1000
0000
0010
0100
0000
0100
0000
0000
,
0000
0000
1000
0000
0100
0000
0001
0000
0010
0000
1000
0010
0000
0010
0000
0000
,
0010
0000
0100
0000
1000
0000
0010
0000
0100
0000
1000
0100
0000
0100
0000
0000
,
1000
0000
0100
0000
0001
0000
0010
0000
0001
0000
0100
0001
0000
0002
0000
0000
,
0000
0003
0000
0000
0001
0000
0100
0000
0010
1000
0000
0000
1000
0000
0100
0000
,
0010
0000
0000
0001
0000
0000
0000
0000
0000
0000
0000
0000
0001
0000
0000
0000
0000
0000
1000
0000
0000
0000
0000
0000
0010
0000
0000
0000
0000
0000
0100
0000
0000
0001
0000
0000
0000
0000
0000
0001
0000
0000
0000
0000
0000
0000
1000
0000
,
0000
0000
0001
0000
1000
0000
0010
0000
1000
0000
0100
1000
0000
1000
0000
0100
,
0010
0000
0001
0000
0100
0000
0001
0000
0010
0000
0001
0100
0000
0200
0000
0000
,
0000
0300
0000
0000
0010
0000
1000
0000
0001
0100
0000
0000
0100
0000
0001
0000
,
1000
0010
0000
0000
0001
0000
1000
0000
0010
0000
1000
0100
0000
0100
0000
1001
,
0000
0000
1001
0000
0000
0000
0101
0000
0000
0000
0101
0000
0000
0001
1000
0000
,
0001
0000
1000
0000
0000
0000
0010
1000
0000
0100
0000
0010
0000
0001
0000
0000
,
0001
0000
0010
0000
0100
0000
1100
0000
0000
0000
1100
0000
0000
0100
1000
0000
,
0010
0000
0100
0000
0000
0000
0010
0100
0000
0001
0000
1000
0000
0001
0000
0000
,
0001
0000
1000
0000
0100
0000
0010
0001
0010
0100
0000
0000
0000
0000
0001
0010
,
0100
0010
0000
0000
0000
0000
1000
0000
0000
0000
1000
0000
0000
0000
1000
0000
,
1001
0000
0000
1100
0000
0000
0202
0000
0000
0000
0303
0000
0000
0000
0000
0000
;

//---------------dance-single - ----------------
#NOTES:
     dance-single:
     :
     Medium:
     7:
     0.356762,0.405123,0.066596,0.022199,0.005550,225.000000,219.000000,6.000000,2.000000,0.000000,0.000000,0.356762,0.405123,0.066596,0.022199,0.005550,225.000000,219.000000,6.000000,2.000000,0.000000,0.000000:
0000
0000
0000
0000
,
0000
0000
0000
0000
,
0000
0000
0000
0000
,
0000
0000
0000
0000
,
0000
0000
0000
1001
0000
1001
0000
0001
,
1000
0001
0000
1000
0100
1000
0010
0100
,
0010
1000
0100
0010
0000
0010
0000
0010
,
0001
0100
0000
0001
0100
0010
0100
0001
,
0010
0100
0010
0001
0000
0001
0000
1000
,
0000
1000
0000
0010
0000
0010
0000
0010
,
0000
0010
0000
1000
0000
0001
0000
1000
,
0001
1000
0001
1000
0000
1000
0000
1000
,
0000
0001
0000
0100
0000
0010
0000
0100
,
0010
0100
0010
0100
0000
0010
0000
0010
,
0000
1000
0000
0001
0000
0001
0000
1000
,
0100
1000
0100
1000
0000
1000
0000
0010
,
0000
0010
0000
0100
0001
0100
0000
0001
,
0010
0100
1000
0100
0000
0100
0000
0010
,
0000
0001
0000
1000
0001
1000
0001
1000
,
0001
0001
0000
0100
0010
0100
0010
0100
,
0100
0100
0000
0010
0000
0010
0000
1000
,
0000
1000
0000
0001
0000
0001
0000
0000
,
0000
0000
0000
0010
0000
1000
0000
0100
,
0000
0100
0000
0010
0000
0001
0000
0100
,
0000
0100
0000
0010
0000
0000
0000
1000
,
0000
0001
0000
1000
0000
1000
0000
0001
,
0000
0001
0000
1000
0001
1000
0001
1001
,
0000
0001
0000
1000
0000
1000
0000
0001
,
0000
0001
0000
0100
0000
0010
0000
1000
,
0000
0100
0100
0010
0000
0001
0000
0100
,
0000
0010
0010
0100
0000
0001
0000
0010
,
0000
0100
0100
0010
0001
0100
0100
0010
,
1000
0001
0001
1000
0001
1000
1000
0001
,
0000
1000
0000
0010
1000
0100
0000
0010
,
0001
0100
0000
0010
1000
0001
0100
0010
,
0000
1000
0100
1000
0001
0100
0100
0001
,
1000
0100
0010
0001
0010
0010
0001
1000
,
0000
0010
1000
0001
0000
0100
0001
1000
,
0000
0010
1000
0100
0010
0001
0010
0100
,
0000
1000
0000
0001
0000
0001
0000
1000
,
1000
0001
0000
0100
0000
0010
0000
1000
,
0000
0001
0000
0010
0000
0010
0000
0100
,
0100
0010
0000
0001
0000
0100
0000
0010
,
0000
1000
0000
0001
1000
0001
0000
1000
,
0001
1000
0000
0001
0000
0001
0000
0001
,
1001
0000
0000
0011
0000
0000
2020
0000
0000
0000
3030
0000
0000
0000
0000
0000
;

//---------------dance-single - ----------------
#NOTES:
     dance-single:
     :
     Easy:
     5:
     0.267968,0.303843,0.000000,0.011099,0.005550,169.000000,169.000000,0.000000,1.000000,0.000000,0.000000,0.267968,0.303843,0.000000,0.011099,0.005550,169.000000,169.000000,0.000000,1.000000,0.000000,0.000000:
0000
0000
0000
0000
,
0000
0000
0000
0000
,
0000
0000
0000
0000
,
0000
0000
0000
0000
,
0000
0000
0000
1000
0000
0001
0000
0100
,
0000
0010
0000
1000
0000
1000
0000
0100
,
0000
0100
0000
1000
0000
1000
0000
0001
,
0001
0001
0000
1000
0000
0010
0000
0100
,
0000
0010
0000
1000
1000
1000
0000
0001
,
0001
0001
0000
0010
0000
0100
0000
0010
,
0000
0001
0000
1000
0000
1000
0000
0010
,
0000
0010
0000
0100
0000
0100
0000
0010
,
0000
0010
0000
1000
0000
1000
0000
0001
,
0000
0001
0000
0010
0000
0010
0000
0100
,
0000
0100
0000
1000
0000
1000
0000
0010
,
0000
0010
0000
0100
0000
0100
0000
0001
,
0000
0001
0000
1000
0000
0001
0000
1000
,
0000
1000
0000
0001
0000
0010
0000
0100
,
0000
0100
0000
0010
0000
0001
0000
0100
,
0000
0100
0000
0010
0000
1000
0000
0100
,
0000
0100
0000
0010
0000
0010
0000
0001
,
0000
0001
0000
1000
0000
1000
0000
0000
,
0000
0000
0000
0001
0000
0001
0000
0100
,
0000
0010
0000
1000
0000
1000
0000
0100
,
0000
0010
0000
0001
0000
0000
0000
1000
,
0000
0001
0000
1000
0000
1000
0000
0001
,
0000
0001
0000
1000
0000
1000
0000
1000
,
0000
0010
0010
0010
0000
1000
0000
0100
,
0000
0010
0010
0010
0000
0001
0000
0100
,
0000
0001
0001
0001
0000
1000
0000
0001
,
0000
1000
1000
1000
0000
0010
0000
0100
,
0000
0010
0010
0010
0000
1000
0000
0100
,
0000
0010
0010
0010
0000
0001
0000
0100
,
0000
0000
0000
0001
0000
0000
0000
1000
,
0000
0000
0000
0001
0000
1000
0000
0001
,
0000
0010
0000
0010
0000
0100
0000
0100
,
0000
1000
0000
1000
0000
0001
0000
0001
,
0000
0000
0000
1000
0000
0000
0000
0001
,
0000
0000
0000
0100
0000
0100
0000
0010
,
0000
0000
0000
1000
0000
0001
0000
1000
,
0001
1000
0000
0001
0000
0001
0000
0010
,
0000
0010
0000
0100
0000
0100
0000
1000
,
0100
1000
0000
0001
0000
0001
0000
0100
,
0000
0100
0000
0010
1000
0010
0000
0001
,
0100
0001
0000
1000
0000
1000
0000
0001
,
0001
0000
0000
0001
0000
0000
0002
0000
0000
0000
0003
0000
0000
0000
0000
0000
;

//---------------dance-single - ----------------
#NOTES:
     dance-single:
     :
     Challenge:
     14:
     0.580333,0.658326,0.632658,0.188688,0.549414,366.000000,309.000000,57.000000,17.000000,0.000000,0.000000,0.580333,0.658326,0.632658,0.188688,0.549414,366.000000,309.000000,57.000000,17.000000,0.000000,0.000000:
// measure 0
0000
0000
0000
0000
,  // measure 1
0000
0000
0000
0000
,  // measure 2
0000
0000
0000
0000
,  // measure 3
0000
0000
0000
0000
,  // measure 4
0000
0000
0000
0000
0000
0000
1001
0000
0000
0000
1001
0000
0000
1100
1100
0000
,  // measure 5
0101
0000
0010
0000
0000
0000
1000
0001
0000
1000
0000
1010
0000
0101
0000
0000
,  // measure 6
0001
0000
0100
0000
0010
0000
1001
0000
0000
0000
1001
0000
0000
0101
0101
0000
,  // measure 7
1100
0000
0001
0000
0000
0000
1000
0100
0000
1100
0000
0011
0000
0001
0000
0000
,  // measure 8
1000
0000
0010
0000
0100
0000
0001
1000
0010
0110
0000
0000
0000
0000
0100
0001
,  // measure 9
1000
0000
0000
0020
0000
0000
0000
0000
0000
0000
0000
0000
0000
0000
0000
0000
0000
0000
0130
0000
0000
0000
0000
0000
0000
0000
0000
0000
0000
0000
0100
0000
0000
0000
0000
0000
0000
0000
0000
0000
0000
0000
1100
0000
0000
0000
1010
0000
,  // measure 10
0000
0000
0101
0000
0000
0000
0011
0000
0000
0000
0000
0000
0000
0000
0000
0000
0000
0000
0100
0000
0000
0000
0000
0000
0000
0000
0000
0001
0000
0000
0000
0000
0000
0000
0000
0000
0000
0000
0000
0000
0000
0000
0010
0000
0000
0000
0000
0000
,  // measure 11
0001
0000
0100
0000
0010
0000
1000
0000
0000
1000
0000
0100
0020
0000
0000
0000
,  // measure 12
0001
0000
1030
0000
1000
0000
0010
0000
0000
1010
0000
0000
0000
0000
1000
0000
,  // measure 13
0010
0000
0100
0000
0001
0000
0010
0000
0001
0100
0000
0010
0200
0000
0000
0000
,  // measure 14
0002
0000
0300
0000
0003
0000
1100
0000
0000
0101
0000
0000
0000
0000
1000
0000
,  // measure 15
0010
0000
0100
0000
0001
0000
0010
0000
0000
0010
0000
0100
0020
0000
0000
0000
,  // measure 16
0100
0000
1030
0000
0100
0000
0100
0000
1000
0100
0000
0000
1000
0000
0001
0000
,  // measure 17
0100
0000
0010
0000
1000
0000
0101
0000
0000
2100
0000
0000
0000
0000
3001
1000
,  // measure 18
0001
0000
0010
0000
0100
0000
1000
0000
0000
0100
0000
0000
0010
0000
0000
0001
0000
0000
1000
0000
0000
0000
0000
0000
0100
0000
0000
0000
0000
0000
0010
0000
0000
0000
0000
0000
0001
0000
0000
0000
0000
0000
0001
0000
0000
0010
0000
0000
,  // measure 19
0000
0110
0000
0000
0100
0000
1000
0000
0010
0000
0001
0000
0010
0000
1000
0100
,  // measure 20
0000
0110
0000
0000
1000
0000
0200
0000
0001
0000
0302
0000
1000
0000
2003
0000
,  // measure 21
0010
0000
3020
0000
0001
0000
0031
0000
1000
0002
0000
0000
0000
0000
0003
0000
,  // measure 22
0000
0000
0100
0000
0001
0000
1000
0000
0010
0000
0100
0000
0001
0000
0100
0001
,  // measure 23
0000
0101
0000
0000
0000
0000
0100
0000
0001
0000
0010
0000
0100
0000
1000
0100
,  // measure 24
0000
1100
0000
0000
1000
0000
0200
0000
0000
0000
0300
0000
1000
0000
0010
0000
,  // measure 25
0000
0100
0000
0000
0001
0000
0020
0000
0000
0000
0001
0000
0000
0000
1000
0000
,  // measure 26
0030
0000
0000
0000
0000
0000
0001
0000
0010
0000
0100
0000
1000
0000
0000
0001
0000
0000
1000
0000
0000
0010
0000
0000
1000
0000
0000
0010
0000
0000
0000
0000
0000
0010
0000
0000
0000
0000
0000
1000
0000
0000
1001
0000
0000
0000
0000
0000
,  // measure 27
0000
0000
0100
0000
0001
0000
0010
0000
0001
0000
1000
0001
0000
0011
0000
0000
,  // measure 28
1000
0000
0001
0000
0100
0000
0010
0000
1000
0000
0010
0100
0000
1100
0000
0000
,  // measure 29
0000
0000
0100
0000
0001
0000
0010
0000
0001
0000
0100
0010
0000
0110
0000
0000
,  // measure 30
0000
0000
0001
0000
0010
0000
1000
0000
0100
0000
0001
0100
0000
0110
0000
0000
,  // measure 31
0100
0000
0010
0000
0001
0000
0100
0000
0010
0000
0001
0010
0000
0110
0000
0000
,  // measure 32
0001
0000
0010
0000
1000
0000
0100
0000
1000
0000
0010
1000
0000
2001
0000
0000
,  // measure 33
0000
3000
0000
0000
1000
0000
0010
0000
0100
0001
0000
0100
0001
0000
0010
0000
,  // measure 34
0100
1000
0000
0100
1000
0000
0001
0000
0100
0000
0010
1000
0000
1000
0000
0001
,  // measure 35
1000
0000
0001
0000
1000
0000
0001
0000
0001
0000
0010
0001
0000
0001
0000
0010
,  // measure 36
0100
0000
1000
0000
0010
0000
1000
0000
0100
0000
1000
0010
0000
0120
0000
0000
,  // measure 37
0000
0030
0000
0000
0100
0000
0001
0000
1000
1010
0000
0000
0010
0000
1000
0000
,  // measure 38
0001
0101
0000
0000
1000
0000
0001
0000
0100
0000
0001
0010
0000
0010
0000
1001
,  // measure 39
0000
0000
0000
0000
0000
0000
1001
0000
0000
0000
0000
0000
0010
0000
1000
0000
0010
0000
1010
0000
0000
0000
0000
0000
0000
0000
0000
0000
0000
0000
1010
0000
0000
0000
0000
0000
0000
0000
0000
1100
0000
0000
1100
0000
0000
0000
0000
0000
,  // measure 40
0101
0000
0001
0000
0000
0000
0100
0001
0000
0011
0000
1100
0000
1000
0000
0000
,  // measure 41
1000
0000
0100
0000
0010
0000
0011
0000
0000
0000
0011
0000
0000
0101
0101
0000
,  // measure 42
1100
0000
0010
0000
0000
0000
0100
0010
0000
1100
0000
0011
0000
1000
0000
0000
,  // measure 43
1000
0000
0000
0000
0000
0000
0001
0000
0010
0000
0100
0000
1000
0000
0000
0000
0000
0000
0100
0000
0000
1000
0000
0000
0100
0000
0000
0010
0000
0000
0000
0000
0000
0000
0000
0000
0001
0000
0000
0000
0000
0000
1000
0000
0000
0100
0000
0000
,  // measure 44
0010
0000
0000
0100
0000
0000
0000
0000
0000
0000
0000
0000
1000
0000
0100
0000
0010
0000
0001
0000
0000
0000
0000
0000
0000
0000
0000
0000
0000
0000
0001
0000
0000
0000
0000
0000
0000
0000
0000
0000
0000
0000
0001
0000
0000
0000
0000
0000
,  // measure 45
1001
0000
0000
0011
0000
0000
2020
0000
0000
0000
3030
0000
0000
0000
0000
0000
;
