#TITLE:Duvet;
#SUBTITLE:Serial Experiments Lain Opening;
#ARTIST:BoA;
#TITLETRANSLIT:;
#SUBTITLETRANSLIT:;
#ARTISTTRANSLIT:BoA;
#GENRE:;
#CREDIT:QED;
#BANNER:Duvet-bn.png;
#BACKGROUND:Duvet-bg1.jpg;
#LYRICSPATH:Duvet.lrc;
#CDTITLE:CDtitle.png;
#MUSIC:Duvet.mp3;
#OFFSET:-0.040000;
#SAMPLESTART:1.170000;
#SAMPLELENGTH:21.620001;
#SELECTABLE:YES;
#BPMS:0.000000=186.580002
,130.500000=132.300003
,132.000000=162.800003
,133.000000=186.580002
,143.250000=186.559998
,192.000000=180.639999
,195.000000=186.580002
;
#STOPS:
;
#BGCHANGES:-0.080=Duvet-bg.avi=1.000=1=0=0=StretchNoLoop==CrossFade==,
316.000=Duvet-bg2.jpg=1.000=1=0=1===CrossFade==,
99999=-nosongbg-=1.000=0=0=0 // don't automatically add -songbackground-
;
#KEYSOUNDS:;
#ATTACKS:;

//---------------dance-single - ----------------
#NOTES:
     dance-single:
     :
     Hard:
     11:
     0.579049,0.656846,0.466572,1.506639,0.009720,417.000000,369.000000,48.000000,155.000000,0.000000,0.000000,0.579049,0.656846,0.466572,1.506639,0.009720,417.000000,369.000000,48.000000,155.000000,0.000000,0.000000:
// measure 0
0000
0000
0000
0000
,  // measure 1
0002
0000
0000
0003
2000
0000
3000
0000
0200
0000
0300
0000
0020
0000
0030
0000
,  // measure 2
0002
0003
1002
0000
0000
0200
0000
0303
,  // measure 3
0020
1030
0020
0030
0100
0001
0100
0010
,  // measure 4
1000
0000
0010
0100
0001
0020
0000
0030
,  // measure 5
0002
0000
0003
0000
2000
0000
3000
0000
0002
0000
0003
0000
0020
0000
0000
0030
,  // measure 6
0002
0000
0000
0003
0200
0000
0000
0000
0000
0000
0002
0000
0303
0000
0000
0000
,  // measure 7
2000
3100
0002
0003
0100
1000
0100
0001
,  // measure 8
0100
0000
0100
0010
0001
2000
0000
3000
,  // measure 9
0002
0203
2300
3020
,  // measure 10
0032
0000
2003
0000
0000
3200
0000
0000
,  // measure 11
0320
0030
0001
0000
2000
0000
3000
0000
0010
0000
0100
0000
0001
0000
0100
0000
,  // measure 12
0010
0000
1000
0100
0010
0002
0000
0003
,  // measure 13
0020
0000
0000
0030
0002
0000
0003
0000
0020
0000
0030
0000
0002
0000
0003
0000
,  // measure 14
1000
0000
1200
0000
0000
0020
0000
0330
,  // measure 15
0200
0300
1000
0000
0002
0000
0003
0000
1000
0000
0100
0000
0010
0000
0001
0000
,  // measure 16
0010
0000
0001
0100
0010
2000
0000
3001
,  // measure 17
0010
0002
0003
0200
0300
0010
2000
3000
,  // measure 18
0100
0002
0000
0003
2200
3300
0000
0000
,  // measure 19
0001
0000
0100
0000
0020
0030
2000
3000
0010
0000
2000
0000
3000
0000
0100
0000
,  // measure 20
0010
0001
0020
0030
0100
1000
0100
0000
,  // measure 21
0002
0003
0200
0300
2000
3000
0020
0030
,  // measure 22
0200
0300
2002
0000
3003
0200
0000
0300
,  // measure 23
0020
0000
0000
0000
0000
0030
0200
0000
0000
0000
0000
0000
0302
0003
0100
0000
,  // measure 24
0002
0000
0013
0001
0100
0000
0001
0000
,  // measure 25
0022
0000
0000
0000
0000
0000
0000
0000
0000
0033
0000
0000
0202
0000
0000
0000
0000
0000
0000
0000
0000
0303
0000
0000
2002
0000
0000
0000
0000
0000
0000
0000
0000
3003
0000
0000
0200
0000
0000
0000
0000
0000
0000
0000
0300
0000
0000
0000
,  // measure 26
0002
0000
0000
0003
0020
0000
0000
0000
,  // measure 27
0000
0030
0000
0000
0022
0000
0000
0033
0202
0000
0000
0303
2020
0000
3030
0000
,  // measure 28
2000
0000
0000
0000
0000
0000
0000
3000
0022
0000
0000
0000
0000
0000
0000
0033
,  // measure 29
0000
0000
0000
0000
2002
0000
0000
3003
0202
0000
0000
0303
0022
0000
0033
0000
,  // measure 30
2002
0000
0000
3003
0000
0000
0000
0000
0200
0000
0300
0000
2010
0000
0000
0000
,  // measure 31
3100
0000
0020
0000
0000
0030
0000
0000
0022
0000
0000
0000
0000
0033
0000
0000
,  // measure 32
0200
0000
0000
0000
0000
0000
0300
0000
0110
0000
0000
0000
,  // measure 33
1000
0100
0010
0001
0020
0030
0001
0100
,  // measure 34
0020
0030
1000
0100
0001
0100
0001
0100
,  // measure 35
1000
0001
0010
0001
0020
0030
0010
0001
,  // measure 36
0020
0030
1000
0100
0001
0100
1000
0100
,  // measure 37
0010
0001
0010
0100
2000
3000
0100
0010
,  // measure 38
0002
0003
0010
0100
1000
0010
0100
0001
,  // measure 39
1000
0100
0010
0001
0200
0300
0010
1000
,  // measure 40
0010
0001
0010
1000
0100
0010
0001
0100
,  // measure 41
2020
3030
0001
0010
0002
0003
1000
0200
,  // measure 42
0000
0300
1000
0000
0200
0000
0000
0300
0010
0000
2000
0000
0000
3000
0010
0000
,  // measure 43
2000
0000
0000
3000
0010
0000
0002
0000
0000
0000
0000
0000
0000
0000
0003
0000
,  // measure 44
1000
0100
2000
0000
0001
0000
0010
0000
,  // measure 45
3100
0010
0001
0010
0002
0003
0100
1000
,  // measure 46
0200
0300
0010
0100
0001
1000
0100
1000
,  // measure 47
0001
1000
0100
0010
0002
0003
0010
0100
,  // measure 48
0020
0032
0203
0302
,  // measure 49
0003
0000
0200
0300
0010
0100
0001
1000
,  // measure 50
0002
0023
2030
3020
,  // measure 51
0030
0000
0002
0003
0100
0010
1000
0100
,  // measure 52
0020
0032
2003
3020
,  // measure 53
0000
0030
1000
0000
0100
0010
0001
0100
,  // measure 54
0002
0003
2000
3000
0002
0003
0200
0000
,  // measure 55
0300
0000
2020
0000
0000
0000
3030
0000
0000
0002
0000
0000
,  // measure 56
0000
0003
0200
0300
0020
0030
2000
0000
,  // measure 57
0000
3000
0002
0003
1000
0100
0001
1000
,  // measure 58
0002
0003
0200
0300
2000
3000
0200
0000
,  // measure 59
0000
0300
0020
0030
0010
0001
0010
0100
,  // measure 60
0020
0030
0200
0300
0002
0003
0020
0000
,  // measure 61
0000
0030
0200
0300
1000
0010
0001
0010
,  // measure 62
2000
3000
0200
0300
0002
0003
0020
0000
,  // measure 63
0030
2000
0000
0000
0000
0000
0000
0000
,  // measure 64
0000
0000
0000
3000
0220
0000
0330
0000
,  // measure 65
1001
0000
0010
0100
0010
0000
0110
0000
,  // measure 66
1001
0000
0001
0010
0100
0000
1010
0000
,  // measure 67
0110
0000
0001
0010
1000
0000
0110
0000
,  // measure 68
0101
0000
0100
0010
0001
0000
1010
0000
,  // measure 69
0110
0000
0010
0100
1000
0000
0110
0000
,  // measure 70
0011
0000
0010
0100
0010
0000
0110
0000
,  // measure 71
0101
0000
0010
0100
0001
0000
0101
0000
,  // measure 72
0011
0000
0001
1000
0100
0000
1010
0000
,  // measure 73
1001
0000
0010
0001
0100
0000
1010
0000
,  // measure 74
0101
0000
1000
0001
0010
0000
1001
0000
,  // measure 75
1001
0000
0010
0001
0100
0000
1010
0000
,  // measure 76
0101
0000
0010
0100
0010
0000
0101
0000
,  // measure 77
1001
0000
0010
0100
0010
0000
0101
0000
,  // measure 78
0011
0000
0001
1000
0100
0000
1000
0000
,  // measure 79
0020
0000
0030
0000
;

//---------------dance-single - ----------------
#NOTES:
     dance-single:
     :
     Medium:
     9:
     0.422137,0.540932,0.311048,1.487198,0.009720,304.000000,272.000000,32.000000,153.000000,0.000000,0.000000,0.422137,0.540932,0.311048,1.487198,0.009720,304.000000,272.000000,32.000000,153.000000,0.000000,0.000000:
0000
0000
0000
0000
,
0002
0000
0000
0003
2000
0000
3000
0000
0200
0000
0300
0000
0020
0000
0030
0000
,
0002
0003
1002
0000
0000
0200
0000
0303
,
2000
3000
0002
0000
0000
0000
0103
1000
,
0200
0000
0000
0300
,
0020
0000
0000
0030
0200
0000
0000
0300
2000
0000
0000
3000
0020
0000
0000
0030
,
0002
0000
0000
0003
0200
0000
0000
0000
0000
0000
0002
0000
0300
0003
0000
0000
,
0002
0003
0000
2000
0000
3000
0100
0001
,
0200
0000
0000
0000
,
0302
0203
2300
3020
,
0032
0000
2003
0000
0000
0200
0000
0300
,
3200
0300
0020
0000
0000
0000
0130
0001
,
0200
0000
0000
0000
0000
0300
0000
0000
,
0020
0000
0000
0030
0002
0000
0003
0000
0020
0000
0030
0000
0002
0000
0003
0000
,
0200
0000
0000
0300
1002
0000
0000
0000
0000
0000
0020
0000
0003
0000
0030
0000
,
0200
0000
0300
0002
0000
0000
1000
0010
,
0203
0000
0000
0000
0000
0300
0000
0001
,
0010
0002
0003
0002
0003
0010
0002
0003
,
0100
0002
0000
0003
2200
3300
0000
0000
,
0001
0000
0100
0000
0020
0030
0002
0003
0010
0000
2000
0000
0000
0000
3010
0000
,
1000
0100
0020
0000
0000
0000
0000
0030
,
0002
0003
0200
0300
2000
3000
0020
0030
,
0200
0300
2002
0000
3003
0200
0000
0300
,
0020
0000
0000
0000
0000
0030
0200
0000
0000
0000
0000
0000
0302
0003
0100
0000
,
2000
0000
0000
0000
0000
3000
0000
0000
,
0002
0000
0000
0000
0000
0000
0000
0000
0000
0003
0000
0000
0200
0000
0000
0000
0000
0000
0000
0000
0000
0300
0000
0000
2000
0000
0000
0000
0000
0000
0000
0000
0000
3000
0000
0000
0200
0000
0000
0000
0000
0000
0000
0000
0300
0000
0000
0000
,
0002
0000
0000
0003
0020
0000
0000
0000
,
0000
0030
0000
0000
0002
0000
0000
0003
0200
0000
0000
0300
2000
0000
3000
0000
,
0200
0000
0000
0000
0000
0000
0300
0000
0020
0000
0000
0000
0000
0000
0000
0030
,
0000
0000
0000
0000
0002
0000
0000
0003
0200
0000
0000
0300
0020
0000
0030
0000
,
0002
0000
0000
0003
0200
0300
2010
0000
,
3100
0000
0020
0000
0000
0030
0000
0000
0002
0000
0000
0000
0000
0003
0000
0000
,
0200
0000
0000
0000
0000
0000
0300
0000
0010
0000
0000
0000
,
2000
0000
3010
0001
0020
0030
0001
0000
,
0020
0000
1030
0100
0002
0003
0010
0000
,
2000
3000
0010
0001
0020
0030
0100
0000
,
0020
0030
1000
0100
0002
0003
1000
0000
,
0020
0030
0001
0100
2000
3000
0100
0000
,
0002
0003
0010
0100
0002
0003
0100
0000
,
0002
0003
0010
1000
0200
0300
0010
0000
,
0020
0030
0010
0001
0200
0300
0001
0100
,
2000
0000
0000
3000
0002
0003
0000
0200
,
0000
0300
0000
0000
0020
0000
0000
0000
0030
0000
2000
0000
0000
3000
0000
0000
,
0200
0000
0300
0002
0000
0000
0000
0003
,
0000
2000
0000
0002
,
3003
0000
0000
0000
0001
0010
0200
0000
,
0000
0300
0010
0000
0001
0000
0200
0300
,
0010
0000
0100
0000
0002
0003
0010
0100
,
0002
2003
3200
0302
,
0003
0000
0200
0300
0010
0000
0100
0000
,
0002
0023
2030
3020
,
0030
0000
0002
0003
0100
0000
0010
0000
,
0002
0203
0320
2030
,
0000
3000
0020
0030
0010
0000
0100
0000
,
2000
3000
0200
0300
2000
3000
0002
0000
,
0003
0000
0020
0000
0000
0000
0030
0000
0000
0002
0000
0000
,
0000
0003
0200
0300
0020
0030
2000
0000
,
0000
3000
0002
0003
1000
0000
0010
0000
,
0002
0003
0200
0300
2000
3000
0200
0000
,
0000
0300
0020
0030
0002
0003
0100
0000
,
0020
0030
0200
0300
0002
0003
0020
0000
,
0000
0030
0200
0300
1000
0000
0001
0000
,
2000
3000
0200
0300
0002
0003
0020
0000
,
0030
2000
0000
0000
0000
0000
0000
0000
,
0000
0000
0000
3000
0020
0000
0030
0000
,
1001
0010
0001
0110
,
1001
0001
0100
1010
,
0110
0001
1000
0110
,
0101
0100
0001
1010
,
0110
0010
1000
0110
,
0011
0010
1000
0110
,
0101
0010
0001
0101
,
0011
0001
0100
1010
,
1001
0010
0100
1010
,
0101
1000
0010
1001
,
1001
0010
0100
1010
,
0101
0010
0010
0101
,
1001
0010
0010
0101
,
0011
0001
0100
1000
,
0020
0000
0030
0000
;

//---------------dance-single - ----------------
#NOTES:
     dance-single:
     :
     Easy:
     7:
     0.323546,0.463656,0.145804,1.467758,0.009720,233.000000,218.000000,15.000000,151.000000,0.000000,0.000000,0.323546,0.463656,0.145804,1.467758,0.009720,233.000000,218.000000,15.000000,151.000000,0.000000,0.000000:
0000
0000
0000
0000
,
0002
0000
0000
0003
2000
0000
3000
0000
0200
0000
0300
0000
0020
0000
0030
0000
,
0002
0003
0020
0000
0000
0200
0030
0300
,
2000
3000
0020
0000
0000
0000
0000
0000
,
0200
0000
0000
0330
,
0020
0000
0000
0030
0200
0000
0000
0300
2000
0000
0000
3000
0020
0000
0000
0030
,
0002
0000
0000
0003
0200
0000
0000
0000
0000
0000
0002
0000
0300
0003
0000
0000
,
0002
0003
0000
2000
0000
3000
0001
0000
,
0200
0000
0000
0000
0000
0300
0000
0000
,
0002
0203
2300
3020
,
0032
0000
2003
0000
0000
0200
0000
0300
,
3002
0003
0020
0000
0000
0000
0000
0000
,
0200
0000
0000
0000
0000
0330
0000
0000
,
0020
0000
0000
0030
0002
0000
0003
0000
0020
0000
0030
0000
0002
0000
0003
0000
,
0200
0000
0000
0300
1002
0000
0000
0000
0000
0000
0020
0000
0003
0000
0030
0000
,
0200
0000
0300
0002
0000
0000
0000
0000
,
0203
0000
0000
0000
0000
0300
0000
0010
,
0000
0002
0003
0002
0003
0000
0002
0003
,
0010
0002
0000
0003
2000
3000
0000
0000
,
0001
0100
0002
0000
0013
2000
0000
0010
,
3002
0000
0023
0000
0000
0000
0000
0030
,
0002
0003
0200
0300
2000
3000
0020
0030
,
0200
0300
0002
0000
0003
0200
0000
0300
,
0020
0000
0000
0000
0000
0030
0200
0000
0000
0000
0000
0000
0302
0003
0000
0000
,
2000
0000
0000
0000
0000
3000
0000
0000
,
0002
0000
0000
0000
0000
0000
0000
0000
0000
0003
0000
0000
0200
0000
0000
0000
0000
0000
0000
0000
0000
0300
0000
0000
2000
0000
0000
0000
0000
0000
0000
0000
0000
3000
0000
0000
0200
0000
0000
0000
0000
0000
0000
0000
0300
0000
0000
0000
,
0002
0000
0000
0003
0020
0000
0000
0000
,
0000
0030
0000
0000
0002
0000
0000
0003
0200
0000
0000
0300
2000
0000
3000
0000
,
0200
0000
0000
0000
0000
0000
0300
0000
0020
0000
0000
0000
0000
0000
0000
0030
,
0000
0000
0000
0000
0002
0000
0000
0003
0200
0000
0000
0300
0020
0000
0030
0000
,
0002
0000
0000
0003
0200
0300
2000
0000
,
3100
0000
0020
0000
0000
0030
0000
0000
0002
0000
0000
0000
0000
0003
0000
0000
,
0200
0000
0000
0000
0000
0000
0300
0000
0010
0000
0000
0000
,
2000
0000
3000
0000
0020
0030
0000
0000
,
0002
0000
0003
0000
0020
0030
0000
0000
,
2000
3000
0000
0000
0020
0030
0000
0000
,
0002
0003
0000
0000
0200
0300
0000
0000
,
0020
0030
0000
0000
2000
3000
0000
0000
,
0002
0003
0000
0000
0200
0300
0000
0000
,
0002
0003
0000
0000
0200
0300
0000
0000
,
0020
0030
0000
0000
0200
0300
0000
0000
,
2000
0000
0000
3000
0002
0003
0000
0200
,
0000
0300
0000
0000
0020
0000
0000
0000
0030
0000
2000
0000
0000
3000
0000
0000
,
0200
0000
0300
0002
0000
0000
0000
0003
,
0000
2000
0000
0002
,
3003
0000
0000
0000
0001
0010
0200
0000
,
0000
0300
0000
0000
0000
0000
0200
0300
,
0000
0000
0000
0000
0002
0003
0000
0000
,
0020
0030
2000
0000
3200
0000
0302
0000
,
0003
0200
0000
0300
,
0002
0023
2030
3020
,
0030
0002
0000
0003
,
0002
0203
0320
2030
,
0000
3000
0020
0000
0000
0030
0000
0000
,
2000
3000
0200
0300
2000
3000
0002
0000
,
0003
0000
0020
0000
0000
0000
0030
0000
0000
0002
0000
0000
,
0000
0003
0200
0300
0020
0030
2000
0000
,
0000
3000
0020
0000
0000
0000
0030
0000
,
0002
0003
0200
0300
2000
3000
0200
0000
,
0000
0300
0020
0030
0002
0000
0000
0003
,
0020
0030
0200
0300
0002
0003
0020
0000
,
0000
0030
0200
0000
0000
0000
0300
0000
,
2000
3000
0200
0300
0002
0003
0020
0000
,
0030
2000
0000
0000
0000
0000
0000
0000
,
0000
0000
0000
3000
0020
0000
0030
0000
,
1001
0010
0001
0100
,
1001
0001
0100
0010
,
0110
0001
1000
0010
,
0101
0100
0001
1000
,
0110
0010
1000
0100
,
0011
0010
1000
0010
,
0101
0010
0001
0100
,
0011
0001
0100
0010
,
1001
0010
0100
1000
,
0101
1000
0010
0100
,
1001
0010
0100
0010
,
0101
0010
0010
0100
,
1001
0010
0010
0100
,
0011
0001
0100
1000
,
0020
0000
0030
0000
;

//---------------dance-single - ----------------
#NOTES:
     dance-single:
     :
     Challenge:
     14:
     0.798449,0.846026,0.884543,1.438597,0.204125,575.000000,484.000000,91.000000,148.000000,0.000000,0.000000,0.798449,0.846026,0.884543,1.438597,0.204125,575.000000,484.000000,91.000000,148.000000,0.000000,0.000000:
0000
0000
0000
0000
,
0002
0003
2000
3000
0020
0030
0200
0300
,
0002
0003
2200
3300
0001
0100
0002
0003
,
1000
0100
1000
0001
0100
0001
1000
0010
,
0100
0000
0001
1000
0100
0000
1000
0000
0100
0000
0010
0000
1001
0000
0000
0000
,
0010
0001
0010
0100
1000
0100
0001
0100
,
1000
0000
0100
0010
0100
0000
1000
0000
0001
0000
0100
0000
1010
0000
0000
0000
,
0100
0010
1000
0001
0010
0100
1000
0010
,
0100
0000
0001
0010
0001
0000
1000
0000
0010
0000
0100
0000
0101
0000
0000
0000
,
1000
0010
0100
0001
1000
0100
0010
0001
,
0100
0000
0010
1000
0001
0000
0010
0000
0001
0000
1000
0000
1100
0000
0000
0000
,
0010
0100
0001
0010
1000
0010
0001
0100
,
0010
0000
1000
0100
1000
0000
0010
0000
0100
0000
0001
0000
0110
0000
0000
0000
,
1000
0010
1000
0001
0100
0001
1000
0100
,
1000
0000
0001
0010
0001
0000
0100
0000
0010
0000
1000
0000
1010
0000
0000
0000
,
0100
0010
1000
0001
0100
0010
1000
0001
,
0010
0000
0001
0010
0100
0000
1000
0000
0010
0000
0100
0000
0001
0000
0010
0000
,
0002
2000
3000
2000
3003
0010
0100
0000
,
0001
0000
1000
0100
2000
0000
3000
0000
0001
0000
0100
0000
0001
0000
1000
0000
,
0100
0010
0001
0010
0100
1000
0010
0100
,
0001
0000
1000
0010
0100
0000
0001
0000
0100
0000
0010
0000
1001
0000
0000
0000
,
0010
0100
0010
1000
0100
0010
0100
0010
,
0001
0000
1000
0100
0010
0000
0001
0000
0100
0000
0010
0000
0101
0000
0000
0000
,
1000
0001
0010
0001
1000
0100
0001
0100
,
1000
0000
0010
0100
0001
0000
1000
0000
0100
0000
0010
0000
0110
0000
0000
0000
,
2200
3300
0022
0033
2002
3003
0220
0330
,
0202
0000
0000
0303
2020
0000
0000
0000
,
0000
3030
2200
3300
0220
0330
0022
0033
,
2002
0000
0000
3003
0220
0000
0000
0000
,
0000
0330
2002
3003
0202
0303
2020
3030
,
2002
0000
0000
3003
0202
0303
2200
0000
,
0000
3300
0022
0033
2002
3003
0220
0330
,
2200
0000
0000
0000
0000
0000
0000
0000
0000
0000
0000
0000
0000
0000
0000
0000
0000
0000
0000
0000
0000
0000
0000
0000
3300
0000
0000
0000
0000
0000
0000
0000
0022
0000
0000
0000
0033
0000
0000
0000
0000
0000
0000
0000
0000
1000
0000
0000
,
0100
0000
0000
0000
0010
0000
0000
0000
1010
0000
0000
0000
0100
0000
0001
1000
,
0100
0000
1000
0000
0001
0000
0100
0000
1010
0000
0000
0000
0101
0000
1000
0100
,
1000
0000
0010
0000
0100
0000
0001
0000
0110
0000
0000
0000
1100
0000
0001
0010
,
0001
0000
1000
0000
0010
0000
0100
0000
1001
0000
0000
0000
1010
0000
0100
0001
,
0100
0000
0010
0000
1000
0000
0001
0000
0011
0000
0000
0000
1100
0000
0010
0100
,
0001
0000
0010
0000
0100
0000
1000
0000
1100
0000
0000
0000
1001
0000
0100
0001
,
1000
0000
0001
0000
0010
0000
0100
0000
1001
0000
0000
0000
1010
0000
0100
0001
,
0010
0000
0001
0000
0100
0000
0010
0000
0101
0000
0000
0000
1010
0000
1000
0100
,
1000
0001
1000
0010
0200
0000
0302
2003
,
0000
3020
0230
0000
0320
2030
0000
3200
,
0320
0000
0032
0203
0000
0000
0000
0000
,
0000
0000
0000
0000
0320
0000
0000
0000
0000
0000
0000
0000
1030
0000
0001
0100
,
0001
0000
1000
0000
0010
0000
0100
0000
1001
0000
0000
0000
0110
0000
0010
1000
,
0100
0000
1000
0000
0001
0000
0100
0000
1001
0000
0000
0000
0101
0000
0010
1000
,
0100
1000
0010
0100
0101
0000
0022
0033
,
2200
3300
2002
3003
0220
0330
2020
0000
,
0000
3030
0202
0000
0000
0000
0000
0303
,
0022
0033
0220
0330
2200
3300
2002
0000
,
0000
3003
0220
0000
0000
0000
0000
0330
,
2002
3003
2020
3030
0202
0303
2002
0000
,
0000
3003
2020
3030
0022
0000
0000
0033
,
2200
3300
2002
3003
0220
0330
0022
0000
,
0000
0000
0000
0033
0000
0000
2200
0000
0000
0000
0000
0000
3300
0000
0000
0000
0000
0000
1000
0000
0001
0000
1000
0000
,
0001
0010
0100
1000
0100
0010
0001
0100
0010
1000
0001
0010
,
0200
0300
2020
0000
0000
0000
0000
3030
,
0220
0330
0202
0303
2020
3030
2002
0000
,
0000
3003
2020
3030
0220
0000
0000
0330
,
0022
0033
0220
0330
2200
3300
2020
0000
,
0000
3030
0202
0303
2002
0000
0000
3003
,
2200
3300
0220
0330
0022
0033
2002
0000
,
0000
0000
0000
0000
,
0000
0000
0000
0000
0000
0000
0000
3003
,
1000
0100
1000
0000
0010
0000
0100
0000
0001
0000
0010
0000
0001
0000
1000
0000
,
0100
0000
1000
0000
0010
0000
0100
0000
0001
0000
0010
0000
0100
0000
1000
0001
,
0100
0010
1000
0100
0010
0100
1000
0001
,
0010
0000
0100
0000
0010
0000
0001
0000
1000
0000
0010
0000
0100
0000
0001
0010
,
0001
1000
0100
0001
0100
1000
0010
0001
,
0010
0000
1000
0000
0001
0000
0100
0000
0010
0000
1000
0000
0100
0000
1000
0100
,
0010
0100
1000
0001
0010
0100
0010
0001
,
0010
0000
0100
0000
0010
0000
0100
0000
1000
0000
0001
0000
0100
0000
0001
1000
,
0100
0010
0100
1000
0001
0100
0001
1000
,
0010
0000
1000
0000
0100
0000
0010
0000
0001
0000
0010
0000
0001
0000
1000
0100
,
1000
0010
0100
0001
1000
0100
0010
0001
,
0100
0000
0010
0000
1000
0000
0001
0000
0010
0000
0001
0000
1000
0000
0100
0010
,
0100
0010
0001
1000
0010
0100
0001
1000
,
0100
0000
1000
0000
0001
0000
0010
0000
0001
0000
0100
0000
0001
0000
1000
0100
,
0020
0030
0000
0000
0000
0000
0000
0000
;
