#TITLE:Dreamin' On;
#SUBTITLE:One Piece Opening 23;
#ARTIST:Da-iCE;
#TITLETRANSLIT:;
#SUBTITLETRANSLIT:;
#ARTISTTRANSLIT:;
#GENRE:;
#CREDIT:Magna Trick;
#BANNER:DOBN.jpg;
#BACKGROUND:DOBG.jpg;
#LYRICSPATH:;
#CDTITLE:Magna Trick title!.png;
#MUSIC:Dreamin' On.mp3;
#OFFSET:-0.032864;
#SAMPLESTART:56.700001;
#SAMPLELENGTH:14.000000;
#SELECTABLE:YES;
#BPMS:0.000000=170.000000
,36.000000=85.000000
,39.500000=170.000000
,117.000000=85.000000
,125.500000=170.000000
,216.000000=85.000000
,217.500000=170.000000
,263.500000=85.000000
,272.500000=42.500000
,274.000000=170.000000
,309.000000=42.500000
,310.500000=170.000000
;
#STOPS:
;
#BGCHANGES:0.063=Dreamin' On.avi=1.000=0=0=1=====,
308.000=DOBG.jpg=1.000=0=0=1=====,
99999=-nosongbg-=1.000=0=0=0 // don't automatically add -songbackground-
;
#KEYSOUNDS:;
#ATTACKS:;

//---------------dance-single - ----------------
#NOTES:
     dance-single:
     :
     Hard:
     13:
     0.590561,0.952299,0.283146,0.268988,0.268988,584.000000,544.000000,40.000000,38.000000,0.000000,0.000000,0.590561,0.952299,0.283146,0.268988,0.268988,584.000000,544.000000,40.000000,38.000000,0.000000,0.000000:
0000
0000
0000
0000
,
0000
0000
0000
1001
,
1000
0000
0001
0010
0100
1000
0000
0002
,
0000
0003
0000
0000
1000
0000
0100
0000
0010
0000
0001
1000
0001
0000
0000
0000
,
1001
0000
0010
0100
0001
2000
0000
3020
,
0000
0000
0000
0000
1030
0000
0001
0000
1000
0000
0001
1000
0002
0000
0000
0000
,
0000
0203
0010
0300
0020
0000
1030
2000
,
0000
3000
1001
0000
0010
0000
1001
0010
,
0001
0000
1000
0010
0100
0001
1000
0100
0010
0001
0100
0000
1001
0000
1001
0000
,
0020
0000
2030
0000
3002
0203
0000
0000
0000
0000
0000
0000
0000
0000
0310
0000
,
0000
1000
0200
0000
0300
1000
0200
0000
,
1300
0100
0020
0000
0000
0000
0000
0031
,
1000
0010
0100
0000
0100
0010
1000
0000
,
1000
0100
0010
0001
0020
0230
2300
3001
,
0010
0100
1000
0001
0010
0100
1000
0001
,
0010
0000
0100
0000
1000
0000
0001
0000
0010
0000
0100
0000
1000
0010
0100
0000
,
0001
1000
0010
0100
0001
1000
0010
0100
,
0001
0000
1000
0000
0010
0000
0100
0000
0001
0000
1000
0000
0100
0010
0001
0000
,
1000
0100
0010
0001
1000
0100
0010
0001
,
1000
0000
0100
0000
0010
0000
0001
0000
1000
0000
0100
0000
0010
0001
1000
0000
,
0010
0000
0100
0000
0001
0000
1000
0000
0010
0000
0100
0001
1001
0000
0000
0000
,
1001
0000
0000
0000
0001
1000
0100
0000
0010
0000
0100
0000
0110
0000
0000
0000
,
0001
1000
0010
0100
0100
0001
0010
0100
,
0100
1000
1000
0001
0001
0100
0100
0010
,
1000
0100
0000
0100
0010
0001
1000
0010
,
0001
1000
0100
0010
1000
0100
0010
0001
,
0001
0000
0010
0100
1000
0000
1000
0010
,
0100
1000
0001
0010
1000
0100
0001
0100
,
1000
0010
0000
0001
0010
1000
0100
0010
,
0001
0000
0000
0000
0010
0000
0000
0000
0100
1000
0001
0000
0100
0000
0010
0000
1000
0000
0100
0000
0000
0000
0100
0000
0000
0000
1001
0000
0000
0000
0001
0000
,
0100
0110
0001
1000
0100
1100
1000
0001
0010
0011
0001
1000
1001
0000
1001
0000
,
0110
0000
1001
0000
1000
0001
0100
0000
0010
0000
1000
0000
0100
0000
0100
0000
,
0010
0110
0000
0100
1000
0001
0100
0010
,
0100
0000
0110
0000
0000
0000
0010
0000
1000
0000
0001
0000
0100
0000
0000
0100
,
0000
0000
0010
0000
0010
0000
0000
1000
0000
0000
1000
0000
0002
0000
0000
0000
,
0013
0000
0200
0000
0310
0001
1000
1001
,
1001
0000
0000
0000
0001
0000
0100
0000
0010
0000
1000
0001
0100
0000
0000
0000
,
1010
0000
0001
0010
0100
1000
0001
0010
,
0100
0000
1000
0001
0100
0010
1001
0000
,
0110
0000
0001
1000
0100
1000
0010
0100
,
0001
0000
0010
0001
0010
0001
1000
0100
,
1000
0001
0100
0001
1000
0010
1000
0100
,
0001
0100
1000
0010
0100
0001
1000
0010
,
0001
1000
0100
0001
0010
0100
1000
1000
,
0001
0000
0000
0000
0001
0000
1000
0100
0001
0000
0001
0100
1000
0000
0010
0000
,
0001
1000
0100
0010
1000
0100
0010
1000
,
0001
0000
0001
0100
0010
0001
0100
0010
,
0001
0010
1000
0100
0010
1000
0002
0000
,
0103
0000
0000
0000
0010
0000
0000
0010
0000
0000
0100
0000
1000
0000
0000
1000
,
0000
0000
0001
0000
0001
0000
0000
0100
0000
0000
0100
0000
0020
0000
0000
0000
,
1030
0000
0000
0000
0001
0100
0001
0100
0001
0100
0001
0100
0010
0000
0000
0000
,
1000
0000
1000
0100
0010
0001
1100
0000
,
0002
0000
0203
0000
2300
0000
3010
0100
,
0100
0000
0001
1000
0001
0010
0100
1000
0001
1000
0010
0000
1001
0000
1001
0000
,
0100
0002
0000
2003
0000
3001
1001
0000
0000
0000
0001
0000
1001
0000
0000
0000
,
1000
1001
0000
2001
0000
0100
0100
0100
,
3100
0020
0032
0003
0000
0001
0100
0001
,
1000
0001
0010
0001
0100
0001
0000
0001
,
0000
0001
0100
0001
0000
0001
0010
0001
,
0100
0001
1000
0001
0010
0001
0000
0001
,
0000
0001
0100
0001
0000
0001
1000
0100
,
0000
0100
0000
0000
0001
0000
1000
0000
0000
0100
0000
0000
0010
0000
0001
0000
,
0000
0010
0000
0100
0000
0001
1000
0001
,
0100
0010
1000
0001
0010
0100
1000
0100
,
0010
0000
0001
0000
1000
0000
0001
1000
0001
1000
0001
1000
0001
1000
0001
1000
,
0001
1000
0001
1000
0001
0000
1001
0000
0000
1001
0000
0000
1001
0000
0001
1000
,
0001
0000
0010
0001
1000
0000
0000
0000
0010
0000
0000
0000
0100
0000
0010
0000
1000
0000
0100
0000
1001
0000
0010
0000
1000
0000
0000
0000
1000
0000
0100
0000
,
0001
0100
1001
0000
0010
0000
0001
0010
1000
0100
0110
0000
0010
0000
1001
1000
,
1000
0000
0000
0000
1000
0000
0000
0000
0002
0000
0000
0000
0000
0000
0203
0000
0000
0000
0000
0300
0020
0000
0000
0000
0000
0000
2030
0000
0000
0000
3000
0100
0010
0000
0000
0000
0000
0000
0000
0000
0001
0000
0000
0000
0000
0000
0000
0000
1000
0000
0000
0000
0000
0000
0000
0000
0000
0000
0000
0000
0000
0000
0000
0000
,
0001
0000
0000
0000
0000
0000
0010
0000
0000
0000
0000
0000
0100
0000
0000
0000
0000
0000
0010
0000
0000
0100
0000
0000
0010
0000
0000
0100
0000
0000
0010
0000
0000
0100
0000
0000
1000
0000
0001
0000
1000
0000
0001
0000
0000
0000
0000
0000
,
0000
1001
1001
0000
0001
0000
0100
0020
,
0000
0000
1000
1000
0000
0000
1000
1000
,
0000
0000
0100
0000
0100
0000
0100
0000
0000
0000
0000
0000
0000
0030
0000
0000
,
0000
0000
1000
2000
0000
3000
0001
0002
,
0000
0000
0000
0023
0000
0000
0000
0000
,
0030
0000
0100
1000
0000
0000
0001
0100
,
0000
0010
1000
0002
0000
0000
0000
0003
;

//---------------dance-single - ----------------
#NOTES:
     dance-single:
     :
     Challenge:
     15:
     0.655280,0.953847,0.297303,0.219438,0.339775,648.000000,606.000000,42.000000,31.000000,0.000000,0.000000,0.655280,0.953847,0.297303,0.219438,0.339775,648.000000,606.000000,42.000000,31.000000,0.000000,0.000000:
// measure 0
0000
0000
0000
0000
,  // measure 1
0000
0000
0000
0000
1000
0000
0001
0000
0000
0000
0001
1000
0100
0000
0000
0000
,  // measure 2
0001
0000
1000
0100
0010
0001
1001
2000
,  // measure 3
0000
3000
0000
0000
0001
0000
0010
0000
0100
0000
1000
0001
0010
0000
0000
0000
,  // measure 4
1001
0000
0100
0010
1000
0001
0101
0200
,  // measure 5
0000
0000
0300
0000
0101
0000
1000
0000
0001
0000
1000
0001
1000
0000
0010
0000
,  // measure 6
1000
0001
1010
0100
1000
0001
1100
0001
,  // measure 7
0010
0100
1001
0010
1000
0100
1001
0010
,  // measure 8
1000
0000
0000
0000
0000
0000
0001
0000
0000
0100
0000
0000
0010
0000
0000
1000
0000
0000
0001
0000
0000
0010
0000
0000
0100
0000
0000
1000
0000
0000
0010
0000
1000
0000
0010
0000
1000
0000
0000
0000
0000
0000
0001
0000
0000
0000
0000
0000
,  // measure 9
0200
0000
0302
0000
2003
3020
0100
0100
0100
0100
0001
0001
0001
0001
1030
0000
,  // measure 10
0000
0001
0020
0000
0130
1000
0020
0000
,  // measure 11
0130
0000
0001
0000
0010
0001
1000
0000
1000
0000
0010
0000
0010
0000
1000
0000
,  // measure 12
0001
0100
0010
0000
0010
0100
0001
0000
,  // measure 13
0001
0010
0100
1000
0200
0320
0032
0103
,  // measure 14
0010
0100
0010
0100
0001
0100
0010
0100
,  // measure 15
0001
0000
0100
0000
1000
0000
0100
0000
0010
0000
0100
0000
0001
0100
0010
0000
,  // measure 16
1000
0001
1000
0001
1000
0001
0100
0001
,  // measure 17
1000
0000
0001
0000
0100
0000
0001
0000
1000
0000
0001
0000
0010
0100
1000
0000
,  // measure 18
0001
0010
0100
0010
0100
0010
1000
0010
,  // measure 19
0001
0000
0010
0000
1000
0000
0010
0000
0100
0000
0010
0000
0001
1000
0001
0000
,  // measure 20
0100
0000
0010
0000
1000
0000
0001
0000
0100
0000
0010
0100
1001
0000
0000
0000
,  // measure 21
1001
0000
0000
0000
1000
0001
0010
0000
0100
0000
0010
0000
0110
0000
0000
0000
,  // measure 22
1000
0001
0100
0010
0010
1000
0100
0010
,  // measure 23
0010
0001
0001
1000
1000
0010
0010
0100
,  // measure 24
0001
0010
0000
0010
0100
1000
0001
0100
,  // measure 25
1000
0001
0010
0100
0001
0010
0100
1000
,  // measure 26
1000
0000
0100
0010
0001
0000
0001
0100
,  // measure 27
0010
0001
1000
0100
0001
0010
1000
0010
,  // measure 28
0001
0100
0000
1000
0100
0001
0010
0100
,  // measure 29
1000
0000
0000
0000
0100
0000
0000
0000
0010
0001
1000
0000
0010
0000
0100
0000
0001
0000
0010
0000
0000
0000
0010
0000
0000
0000
1001
0000
0000
0000
1000
0000
,  // measure 30
0010
0110
1000
0001
0010
0011
0001
1000
0100
1100
1000
0001
1001
0000
1001
0000
,  // measure 31
0110
0000
1001
0000
0001
1000
0010
0000
0100
0000
0001
0000
0010
0000
0010
0000
,  // measure 32
0100
0110
0000
0010
0001
1000
0010
0100
,  // measure 33
0010
0000
0110
0000
0000
0000
0100
0000
0001
0000
1000
0000
0010
0000
0000
0010
,  // measure 34
0000
0000
0100
0000
0100
0000
0000
0001
0000
0000
0001
0000
2000
0000
0000
0000
,  // measure 35
3100
0000
0020
0000
0130
1000
0001
1001
,  // measure 36
1001
0000
0000
0000
1000
0000
0010
0000
0100
0000
0001
1000
0010
0000
0000
0000
,  // measure 37
0101
0000
0000
0000
1000
0000
0100
0000
0010
0001
1000
0000
0100
0000
0010
0000
,  // measure 38
0001
0000
0000
0000
0001
0000
1000
0000
0010
0000
0100
0001
1000
0000
0000
0000
,  // measure 39
0110
0000
0000
0000
1000
0000
0001
0000
0010
0001
0100
0000
0010
0000
1000
0000
,  // measure 40
0100
0000
0000
0000
0100
0000
1000
0000
0100
0000
1000
0001
0010
0000
0010
0000
,  // measure 41
0001
1000
0010
1000
0001
0100
0001
0010
,  // measure 42
1000
0010
0001
0100
0010
1000
0001
0100
,  // measure 43
1000
0000
0001
0000
0010
0000
1000
0000
0100
0010
0100
0000
0010
0000
0001
0000
,  // measure 44
0001
0000
0000
0000
1000
0000
0001
0010
1000
0000
1000
0010
0001
0000
0100
0000
,  // measure 45
1000
0000
0001
0000
0010
0000
0100
0000
0001
0010
0100
0000
1000
0000
0001
0000
,  // measure 46
1000
0000
0000
0000
1000
0000
0010
0000
0100
0000
1000
0100
0001
0000
0100
0000
,  // measure 47
1000
0000
0100
0000
0001
0000
0010
0000
0100
1000
0001
0010
2000
0000
0000
0000
,  // measure 48
3010
0000
0000
0000
0100
0000
0000
0100
0000
0000
0010
0000
0001
0000
0000
0001
,  // measure 49
0000
0000
1000
0000
1000
0000
0000
0010
0000
0000
0010
0000
0200
0000
0000
0000
,  // measure 50
0301
0000
0000
0000
1000
0010
1000
0010
0100
0001
0100
0001
1010
0000
0000
0000
,  // measure 51
0001
0000
0000
0000
0001
0010
0100
0000
1000
0000
0100
0000
0011
0000
0000
0000
,  // measure 52
0002
0000
2003
0000
3002
0000
0103
0010
,  // measure 53
0010
0000
1000
0001
1000
0100
0010
0001
1000
0001
0100
0000
1001
0000
1001
0000
,  // measure 54
0010
2000
0000
3002
0000
1003
1001
0000
0000
0000
1000
0000
1001
0000
0000
0000
,  // measure 55
0001
1001
0000
1002
0000
0010
0010
0010
,  // measure 56
0013
0200
2300
3000
0000
1000
0010
1000
,  // measure 57
0001
1000
0100
1000
0010
1000
0000
1000
,  // measure 58
0000
1000
0010
1000
0000
1000
0100
1000
,  // measure 59
0010
1000
0001
1000
0100
1000
0000
1000
,  // measure 60
0000
1000
0010
1000
0000
1000
0001
0010
,  // measure 61
0000
0010
0000
0000
1000
0000
0001
0000
0000
0010
0000
0000
0100
0000
1000
0000
,  // measure 62
0000
0100
0000
0010
0000
1000
0001
1000
,  // measure 63
0010
0100
0001
1000
0100
0010
0001
0010
,  // measure 64
0100
0000
1000
0000
0001
0000
1000
0100
0010
0001
0100
0001
1000
0100
0010
0001
,  // measure 65
0100
0001
1000
0100
0010
0000
1001
0000
0000
1001
0000
0000
1001
0000
1000
0001
,  // measure 66
1000
0000
0100
1000
0001
0000
0000
0000
0100
0000
0000
0000
0010
0000
0100
0000
0001
0000
0010
0000
1001
0000
0100
0000
0001
0000
0000
0000
0001
0000
0010
0000
,  // measure 67
1000
0010
1001
0000
0100
0000
1000
0100
0001
0010
0110
0000
0100
0000
1001
0001
,  // measure 68
0001
0000
0000
0000
0001
0000
0000
0000
2000
0000
0000
0000
0000
0000
3020
0000
0000
0000
0000
0030
0200
0000
0000
0000
0000
0000
0302
0000
0000
0000
0003
0010
0100
0000
0000
0000
0000
0000
0000
0000
1000
0000
0000
0000
0000
0000
0000
0000
0001
0000
0000
0000
0000
0000
0000
0000
0000
0000
0000
0000
0000
0000
0000
0000
,  // measure 69
1000
0000
0000
0000
0000
0000
0100
0000
0000
0000
0000
0000
0010
0000
0000
0000
0000
0000
0100
0000
0000
0010
0000
0000
0100
0000
0000
0010
0000
0000
0100
0000
0000
0010
0000
0000
0001
0000
1000
0000
0001
0000
1000
0000
0000
0000
0000
0000
,  // measure 70
0000
1001
1001
0000
1000
0000
0010
0200
,  // measure 71
0000
0000
0001
0001
0000
0000
0001
0001
,  // measure 72
0000
0000
0010
0000
0010
0000
0010
0000
0000
0000
0000
0000
0000
0300
0000
0000
,  // measure 73
0010
1000
0001
0002
1000
0103
1000
2000
,  // measure 74
0100
0000
3010
0000
0001
0000
0100
0010
1000
0000
0100
0000
1000
0000
0100
0000
,  // measure 75
0010
0001
0100
0100
0010
1000
0001
0001
,  // measure 76
0010
0000
0100
0000
1000
0000
1000
0100
0010
0000
0001
0000
0100
0000
0020
0000
,  // measure 77
0030
0000
0000
0000
;

//---------------dance-single - ----------------
#NOTES:
     dance-single:
     :
     Medium:
     9:
     0.407528,0.489754,0.176966,0.403483,0.056629,403.000000,378.000000,25.000000,57.000000,0.000000,0.000000,0.407528,0.489754,0.176966,0.403483,0.056629,403.000000,378.000000,25.000000,57.000000,0.000000,0.000000:
0000
0000
0000
0000
,
0000
0000
0000
1001
,
0001
0000
1000
0100
1000
0100
0000
2000
,
0000
3000
0000
0000
0001
0000
0010
0000
0001
0000
0010
0000
0001
0000
0000
0000
,
1000
0000
1000
0100
1000
0002
0000
0203
,
0000
0000
0301
0001
1000
1000
0200
0000
,
0000
0000
0320
0000
0000
0000
0000
0000
0032
0000
0000
0000
0000
0003
2000
0000
,
0000
3000
0001
0000
1000
0000
1001
0001
,
1000
0001
0010
0100
0010
0100
1001
1001
,
1000
0000
0002
0000
2003
3020
0000
0000
0000
0000
0000
0000
0000
0000
0130
0000
,
0000
0001
0020
0000
0030
0001
0020
0000
,
0031
0010
0200
0000
0000
0000
0000
1300
,
0001
1000
0001
0000
1000
0100
1000
0000
,
0001
0100
0001
0100
0020
2030
3002
1003
,
0000
1000
0000
1000
0100
1000
0010
1000
,
0001
1000
0100
1000
0010
1000
0100
1000
,
0010
1000
0000
1000
0000
1000
0010
1000
,
0100
1000
0001
1000
0010
1000
0100
1000
,
0001
1000
0000
1000
0000
1000
0010
1000
,
0100
1000
0010
1000
0100
1000
0001
1000
,
0000
1000
0000
1000
0000
1000
0100
0010
,
0001
0010
0000
0000
0001
1000
0001
0000
,
0000
0000
1000
0100
1000
0000
0001
0000
,
0001
0100
0100
0010
,
0020
0000
0030
0000
0000
1000
0001
0000
,
1000
0001
0001
0010
,
0010
0000
0100
1000
0100
0000
0010
0001
,
0010
0000
0001
0100
1000
0000
1000
0100
,
0000
0001
0000
1000
0000
0001
1000
0002
,
0000
0000
0000
0000
2003
0000
0000
3020
0000
0230
0000
0000
0000
0000
0300
0000
,
0000
0010
0000
0000
0000
0100
0000
0000
0000
0001
0000
0000
1000
0000
1000
0000
,
0001
0002
0000
0003
1000
0001
2000
0000
,
3000
1001
0000
0000
0001
1000
0002
0000
,
0003
0000
1001
0000
0000
0000
0000
0000
0000
0000
1000
0000
0001
0000
0000
0001
,
0000
0000
0010
0000
0010
0000
0000
0100
0000
0000
0100
0000
2000
0000
0000
0000
,
3100
0000
0020
0000
0130
0000
1000
1001
,
1001
0000
1000
0020
0000
0000
0130
0000
,
0001
0000
1000
0001
1000
0001
1000
0001
,
1000
0000
0001
0010
0001
0010
0001
0000
,
1000
0000
0100
1000
0100
1000
0100
1000
,
0001
1001
0001
2000
,
0000
3200
0000
0000
0320
0000
0000
0032
,
0000
2003
3020
0230
,
0301
2000
0000
0000
0000
3001
0000
1000
,
0001
0000
1000
0001
1000
0010
1000
0000
,
0001
0000
0010
0001
0010
0001
1000
0001
,
1000
0000
0001
0100
0001
0100
0001
0000
,
1000
0000
0001
1000
0001
1000
0001
0000
,
1000
0000
1000
0100
0001
0100
1000
0100
,
0001
0100
1000
0100
0001
0100
1000
0000
,
0100
1000
2000
3002
,
0003
0100
0100
0010
,
0010
0000
1000
0000
1000
0000
0001
1000
,
0001
1000
0001
1000
0001
1000
1001
0000
,
0001
2000
0000
3002
0000
0003
1100
0000
0000
0000
0000
0000
0101
0000
0000
0000
,
0000
0110
0000
1002
0000
0010
0000
0010
,
0003
0200
0000
0300
0000
1000
0010
1000
,
0001
1000
0100
1000
0010
1000
0000
1000
,
0000
1000
0010
1000
0000
1000
0100
1000
,
0010
1000
0001
1000
0100
1000
0000
1000
,
0000
1000
0010
1000
0000
1000
0001
0010
,
0000
0010
0000
0000
0100
0000
1000
0000
0000
0010
0000
0000
0100
0000
0001
0000
,
0000
0100
0000
0010
0000
2000
0000
3002
,
0000
0023
0000
0230
0000
2300
0000
3002
,
0000
0103
0001
0001
0010
0100
1000
0001
,
0010
0000
0100
0000
1000
0000
1001
0000
0000
1001
0000
0000
1001
0000
0000
0000
,
0000
1100
0000
0000
0000
0011
0000
0000
,
0000
1010
0000
0000
0000
0110
0000
1001
,
0000
0000
0000
0000
0000
0000
0000
0000
2000
0000
0000
0000
0000
0000
3020
0000
0000
0000
0000
0030
0200
0000
0000
0000
0000
0000
0302
0000
0000
0000
0003
0000
0200
0000
0000
0000
0000
0000
0000
0000
0000
0000
0000
0000
0000
0000
0000
0000
0310
0000
0000
0000
0000
0000
0000
0000
0000
0000
0000
0000
0000
0000
0000
0000
,
1000
0100
0010
0001
1000
0001
1000
1001
,
0000
1001
1001
0000
1000
0000
0010
0200
,
0000
0000
0000
0000
,
0000
0000
0000
0000
0000
0000
0000
0000
0000
0000
0000
0000
0000
0300
0000
0000
,
0000
0000
0001
0002
0000
0003
1000
2000
,
0000
0000
0000
3200
0000
0000
0000
0000
,
0300
0000
0010
0001
0000
0000
1000
0010
,
0000
0100
0001
2000
0000
0000
0000
3000
;

//---------------dance-single - ----------------
#NOTES:
     dance-single:
     :
     Easy:
     7:
     0.329663,0.408128,0.184045,0.268988,0.049551,326.000000,300.000000,26.000000,38.000000,0.000000,0.000000,0.329663,0.408128,0.184045,0.268988,0.049551,326.000000,300.000000,26.000000,38.000000,0.000000,0.000000:
0000
0000
0000
0000
,
0000
0000
0000
0000
,
0000
0000
0000
1100
,
0000
0101
0000
1001
,
0000
0000
0000
1010
,
0000
0011
0000
1001
,
0001
1000
0001
1000
,
0001
0000
1000
0000
0001
0000
1000
0001
,
1000
0001
1000
0001
1000
0001
0000
1000
,
0001
1000
1000
0002
0000
0000
0003
0100
,
0000
0000
0000
0010
0000
0000
0000
0100
,
0000
0001
0000
1000
0000
0000
0000
0100
,
0000
0000
0000
1000
0000
0000
0000
0100
,
0000
1000
0000
0001
0000
0100
0000
0010
,
0000
0010
0000
0010
0000
0010
0000
0010
,
0000
0010
0000
0010
0000
0010
0000
0110
,
0000
0100
0000
0100
0000
0100
0000
0100
,
0000
0100
0000
0100
0000
0100
0000
0101
,
0000
0001
0000
0001
0000
0001
0000
0001
,
0000
0001
0000
0001
0000
0001
0000
1001
,
0000
1000
0000
1000
0000
1000
1000
0000
,
0001
0000
0000
0000
0000
0000
0000
0001
,
0000
0100
0000
0001
0000
1000
0000
0100
,
0000
1000
0000
0001
0000
0010
0000
0001
,
0000
1000
0000
0000
0000
0010
0000
1000
,
0000
0001
0000
0100
0000
0010
0000
1000
,
0000
1000
0000
0001
0000
0001
0000
0010
,
0000
0100
0000
0010
0000
0001
0000
1000
,
0000
0100
0000
0000
0000
0001
0000
0100
,
0000
0000
1000
0000
0000
1000
0000
0020
0000
0230
0000
0000
0000
0000
0300
0000
,
0000
0010
0000
0000
0000
0100
0000
0000
0000
0001
0000
0000
1000
0000
1000
0000
,
0001
0002
0000
0003
1000
0001
2000
0000
,
3000
1001
0000
0000
0001
1000
0002
0000
,
0003
0000
1001
0000
0000
0000
0000
0000
0000
0000
1000
0000
0001
0000
0000
0001
,
0000
0000
0010
0000
0010
0000
0000
0100
0000
0000
0100
0000
2000
0000
0000
0000
,
3100
0000
0020
0000
0130
0000
1000
0001
,
1000
0000
1000
0020
0000
0000
0130
0000
,
0001
0000
1000
0001
1000
0001
1000
0001
,
1000
0000
0001
0010
0001
0010
0001
0000
,
1000
0000
0100
1000
0100
1000
0100
1000
,
0001
1000
0001
2000
,
0000
3200
0000
0000
0320
0000
0000
0032
,
0000
2003
3020
0230
,
0301
2000
0000
0000
0000
3001
0000
1000
,
0001
0000
1000
0001
1000
0001
1000
0000
,
0001
0000
1000
0001
1000
0001
1000
0001
,
1000
0000
0001
0100
0001
0100
0001
0000
,
1000
0000
0001
1000
0001
1000
0001
0000
,
1000
0000
1000
0100
1000
0100
1000
0100
,
1000
0100
1000
0100
1000
0100
1000
0000
,
0100
1000
2000
3002
,
0003
0100
0100
0010
,
0010
0000
1000
0000
1000
0000
0001
1000
,
0001
1000
0001
1000
0001
1000
0001
0000
,
0000
0000
0000
1100
0000
0000
0101
0000
,
0000
0110
0000
1002
0000
0000
0000
0000
,
0003
0000
0000
0000
0000
1000
0001
1000
,
0000
1000
0001
1000
0000
1000
0000
1000
,
0000
1000
0001
1000
0000
1000
0000
1000
,
0000
1000
0000
1000
0000
1000
0000
1000
,
0000
1000
0001
1000
0000
1000
0001
0010
,
0000
0010
0000
0000
0100
0000
1000
0000
0000
0010
0000
0000
0100
0000
0001
0000
,
0000
0100
0000
0010
0000
2000
0000
3002
,
0000
0023
0000
0230
0000
2300
0000
3002
,
0000
0103
0000
0002
0000
0000
0000
0000
,
0000
0000
0000
0000
0003
0000
1001
0000
0000
1001
0000
0000
1001
0000
0000
0000
,
0000
1100
0000
0000
0000
0011
0000
0000
,
0000
1010
0000
0000
0000
0110
0000
1001
,
0000
0000
0000
0000
0000
0000
0000
0000
2000
0000
0000
0000
0000
0000
3020
0000
0000
0000
0000
0030
0200
0000
0000
0000
0000
0000
0302
0000
0000
0000
0003
0000
0200
0000
0000
0000
0000
0000
0000
0000
0000
0000
0000
0000
0000
0000
0000
0000
0310
0000
0000
0000
0000
0000
0000
0000
0000
0000
0000
0000
0000
0000
0000
0000
,
1000
0000
0001
2000
0000
3000
0000
1001
,
0000
1001
1001
0000
1000
0000
0010
0200
,
0000
0000
0000
0000
,
0000
0000
0000
0000
0000
0000
0000
0000
0000
0000
0000
0000
0000
0300
0000
0000
,
0000
0000
0001
0002
0000
0003
1000
2000
,
0000
0000
0000
3200
0000
0000
0000
0000
,
0300
0000
0010
0001
0000
0000
1000
0010
,
0000
0100
0001
2000
0000
0000
0000
3000
;
