#TITLE:Doubt And Trust;
#SUBTITLE:D.Gray Man Opening 3;
#ARTIST:Acess;
#TITLETRANSLIT:;
#SUBTITLETRANSLIT:;
#ARTISTTRANSLIT:;
#GENRE:;
#CREDIT:;
#BANNER:DATBN.jpg;
#BACKGROUND:DATBG.jpg;
#LYRICSPATH:;
#CDTITLE:cdtitleitachi.png;
#MUSIC:DGray man Opening 3 HD [Doubt Trust Access].ogg;
#OFFSET:0.080000;
#SAMPLESTART:50.125809;
#SAMPLELENGTH:21.705891;
#SELECTABLE:YES;
#DISPLAYBPM:0.000000:155.000000;
#BPMS:0.000000=155.000000
,126.000000=77.500000
,128.000000=155.500000
,134.000000=155.100006
;
#STOPS:
;
#BGCHANGES:0.063=1.avi=1.000=0=0=1=====,
223.500=DATBG.jpg=1.000=0=0=1=====,
99999=-nosongbg-=1.000=0=0=0 // don't automatically add -songbackground-
;
#KEYSOUNDS:;
#ATTACKS:;

//---------------dance-single - ----------------
#NOTES:
     dance-single:
     :
     Hard:
     11:
     0.469551,0.548536,0.522415,0.391811,0.065302,302.000000,254.000000,48.000000,36.000000,0.000000,0.000000,0.469551,0.548536,0.522415,0.391811,0.065302,302.000000,254.000000,48.000000,36.000000,0.000000,0.000000:
0000
0000
0000
0000
,
0000
0000
0000
0000
,
0000
0000
0000
0000
,
0000
0000
0000
0000
,
0000
0000
0000
0000
,
0000
0000
0000
0000
1000
0100
0010
0000
,
0000
0011
0000
0000
1001
0000
0000
0110
,
0000
1000
0100
0010
0001
0010
0100
0000
,
0000
1100
0000
0000
0110
0000
0000
1100
,
0000
0000
0100
0000
1000
0000
0010
0000
0100
0000
0000
1001
0000
0000
0100
0000
,
0010
0000
0000
1100
0000
0000
0001
0000
1000
0000
0000
0110
0000
0000
0001
0000
,
0200
0000
0300
0000
0001
0010
0001
0100
,
0001
0000
1000
0000
0100
0000
1000
0000
0010
0000
1000
0000
0001
0000
0100
0010
,
1000
0000
0000
0100
1000
0100
1000
0010
,
0010
0000
0100
0000
0001
0000
0100
0000
0001
0000
1000
0100
0010
0000
0001
0010
,
0100
0000
0000
0001
1100
0000
0010
0101
,
0000
0001
1000
0100
1001
0000
0000
0010
,
0101
0000
0000
1000
0101
0000
0010
1001
,
0000
1000
0100
0010
0001
0000
0000
1000
,
0200
0000
0300
0000
1000
0100
0100
1000
,
0010
0000
0100
0000
0001
0000
1000
0000
0100
0000
0100
0000
1000
0000
0010
0100
,
0001
0000
0000
0001
0001
0100
0010
0010
,
0100
0000
0001
0000
0010
0000
0010
0000
0001
0000
0010
0000
0100
0000
1000
0010
,
0000
0000
0000
0100
1001
0000
1000
0101
,
0000
1000
0010
0100
1001
0000
0000
1000
,
1100
0000
0000
0001
0110
0000
0100
1001
,
0000
0001
0010
0100
1001
0000
0000
0001
,
0020
0030
0002
0023
,
2030
0000
0000
0000
3000
0000
0020
0000
0032
0000
0003
0200
0000
0300
2000
0000
,
3200
0300
0002
0203
,
2300
0000
3000
0000
0000
0000
0200
0000
0320
0000
0030
0002
0000
0003
0020
0000
,
0230
0300
0001
0000
,
2002
0000
3003
0110
0000
0000
1001
0000
,
2200
0000
3300
0100
0110
0000
0000
1000
,
1100
0110
0110
1010
,
0220
0000
0330
0000
1000
0100
0010
0001
,
1000
0000
1001
0000
0010
0100
0010
0010
,
0100
0000
0000
0001
1000
0000
0000
0100
,
0110
1001
0110
0001
,
1000
0000
0000
0001
1000
0100
0010
0001
,
2000
0000
0000
3020
0000
0000
0130
0000
,
2000
0000
3000
0100
0020
0000
0030
1000
,
0100
0011
0100
1100
,
0022
0000
0033
0000
0001
0010
0001
0010
,
0002
0000
0003
0010
0010
0001
0010
0100
,
0010
0000
0000
0001
0010
0000
0000
0100
,
1001
0010
0100
0010
,
2000
0000
0000
3000
0000
0010
0101
0000
,
1001
0000
0000
0110
0000
0000
1001
0000
1001
0000
0000
1001
0000
0000
1001
0000
,
2000
0000
0000
3000
0010
0000
0100
0000
,
0001
1000
0010
0100
0001
1000
0100
0010
,
0001
1000
0100
1000
0010
0100
0001
1000
,
0100
0100
1000
0010
0010
1000
0010
0010
,
0100
0010
0010
1000
0010
0010
0100
0001
,
2002
0000
0000
0000
,
0000
0000
0000
0000
,
3003
0000
0000
0000
;

//---------------dance-single - ----------------
#NOTES:
     dance-single:
     :
     Challenge:
     15:
     0.729204,1.004526,0.729204,0.718320,0.397253,469.000000,402.000000,67.000000,66.000000,0.000000,0.000000,0.729204,1.004526,0.729204,0.718320,0.397253,469.000000,402.000000,67.000000,66.000000,0.000000,0.000000:
// measure 0
0000
0000
0000
0000
0000
0000
0000
0000
1000
0010
0100
0001
1000
0010
0100
0001
,  // measure 1
1000
0010
1000
0010
1000
0010
0001
0010
1000
0100
0010
0001
1000
0100
0010
0001
,  // measure 2
1000
0100
1000
0100
1000
0100
0001
0100
1000
0001
0010
0100
1000
0001
0010
0100
,  // measure 3
1000
0001
1000
0001
1000
0001
1000
0001
0100
0010
0100
0010
0100
0010
0100
0001
,  // measure 4
1000
0100
0010
0001
0010
0100
2000
0000
0000
0000
0000
0000
0000
0000
0000
0000
,  // measure 5
0000
0000
3000
0000
2000
3200
0302
0003
,  // measure 6
0100
1001
0000
0100
0110
0000
0100
1100
,  // measure 7
0000
2000
3200
0302
0203
1300
1100
0000
,  // measure 8
0010
1001
0000
0100
1001
0000
0010
0011
,  // measure 9
0000
0000
0001
0000
1000
0000
0001
0000
1001
0000
0000
0110
0000
0000
0011
0000
,  // measure 10
0110
0000
0000
1001
0000
0000
1100
0000
1001
0000
0000
0110
0000
0000
0011
0000
,  // measure 11
2002
0000
0000
0000
0003
0000
3000
0000
0001
0010
0100
0000
1000
0000
0100
0000
,  // measure 12
0010
0000
0001
0000
0010
0000
0100
1000
0001
0000
1000
0000
0100
0000
1000
0010
,  // measure 13
0100
0000
0001
0000
0001
0000
0100
0000
0001
0000
1000
0000
0100
0000
0010
0001
,  // measure 14
1000
0000
0010
0000
0100
0000
0001
1000
0100
0000
0010
0000
0001
0000
1000
0100
,  // measure 15
0000
1000
1000
0010
0101
0000
0001
1001
,  // measure 16
0000
0100
1000
0100
0110
0000
0010
0001
,  // measure 17
1001
0000
1000
0100
1100
0000
0100
1001
,  // measure 18
0000
0100
0010
0001
0110
1000
0001
1000
,  // measure 19
2200
0000
0000
0000
3300
0000
0001
0010
1000
0000
0001
0000
0100
0000
1000
0000
,  // measure 20
0001
0000
0100
0000
1000
0000
0001
0010
1000
0000
0001
0000
0100
0000
0010
1000
,  // measure 21
0000
1000
1000
0010
0100
0001
1000
0100
,  // measure 22
0010
0000
0001
0000
1000
0000
0001
0100
0010
0000
1000
0000
0100
0000
0010
0001
,  // measure 23
0000
1000
1000
0100
0011
0000
0001
1001
,  // measure 24
0000
0010
1001
0100
1001
0010
1000
0001
,  // measure 25
1001
0000
0100
1000
1100
0000
1000
1010
,  // measure 26
0000
1010
0001
0100
1010
0000
1000
0010
,  // measure 27
0101
0000
0010
0000
2000
3200
0302
2003
,  // measure 28
3020
0032
0203
2300
3200
0302
0023
2030
,  // measure 29
3002
2003
3020
0230
2300
3020
0032
2003
,  // measure 30
3200
0302
0023
2030
3002
0203
2300
3200
,  // measure 31
0320
0000
0000
0000
0000
0000
0000
0000
0030
0000
0000
0000
0000
0000
0000
0000
1000
0100
0010
0001
1000
0100
0010
0001
1000
0001
0010
0100
1000
0001
1000
0001
,  // measure 32
2000
0000
0000
0002
0000
3000
0100
0000
,  // measure 33
0020
0000
0003
0100
0200
0000
0330
1000
,  // measure 34
1010
1001
0110
1001
,  // measure 35
2002
0000
0000
0000
0000
3003
0000
0000
1001
0000
0010
0000
0100
0000
0010
0000
,  // measure 36
1001
0000
0000
1000
0011
0100
1000
0100
,  // measure 37
0011
0000
0001
1000
0110
0000
0001
2000
,  // measure 38
3200
0300
0220
0330
0022
0033
0220
0330
,  // measure 39
2002
0000
0000
0000
3003
0000
0010
0000
2020
0000
3030
0000
0100
0010
0100
0010
,  // measure 40
0100
0001
1000
0100
0010
0001
1000
0010
,  // measure 41
2000
3000
0001
0100
0101
0000
0010
0100
,  // measure 42
1001
1010
0110
0101
,  // measure 43
2002
0000
0000
3003
1001
0010
0100
0010
,  // measure 44
1001
0000
1000
0011
0100
1000
0100
0011
,  // measure 45
1000
0000
0000
0011
1000
0010
0001
0100
,  // measure 46
1100
0110
1100
0110
,  // measure 47
0202
0000
0000
0303
0000
1000
0010
0001
,  // measure 48
1000
0000
0000
0100
0000
0000
0010
0000
0001
0000
0000
0010
0000
0000
0001
0000
,  // measure 49
0201
0000
0000
0000
0000
0300
0001
0000
0001
0000
1000
0000
0010
0000
1000
0000
,  // measure 50
0100
0001
0100
0000
1000
0000
0001
0100
1000
0000
0100
0000
0010
0001
0010
0000
,  // measure 51
1000
0000
0001
0010
1000
0000
0010
0000
0001
1000
0100
0000
0001
0000
0100
1000
,  // measure 52
0010
0000
0100
0000
1000
0100
0010
0000
1000
0000
0001
0010
0100
0000
0001
0000
,  // measure 53
0100
0010
0001
0000
1000
0000
0100
0010
0100
0000
1000
0000
0001
0010
0100
1000
,  // measure 54
0002
0000
0000
0000
,  // measure 55
0000
0000
0000
0000
0000
0000
0000
0000
0000
0000
0000
0000
0000
0000
0000
0003
;

//---------------dance-single - ----------------
#NOTES:
     dance-single:
     :
     Medium:
     7:
     0.331174,0.478880,0.272091,0.217673,0.010884,213.000000,188.000000,25.000000,20.000000,0.000000,0.000000,0.331174,0.478880,0.272091,0.217673,0.010884,213.000000,188.000000,25.000000,20.000000,0.000000,0.000000:
0000
0000
0000
0000
,
0000
0000
0000
0000
,
0000
0000
0000
0000
,
0000
0000
0000
0000
,
0000
0000
0000
0000
,
0000
0000
0000
0000
0001
0100
0010
0000
,
0000
1000
0000
0000
0001
0000
0000
0100
,
0000
0010
1000
0001
1000
0010
0100
0000
,
0000
0001
0000
0000
0100
0000
0000
0001
,
0000
1000
0001
1000
0001
0000
0000
0000
,
0100
0000
0010
0000
,
1001
0000
1000
0010
,
0100
0000
0001
0000
1000
0100
0010
0100
,
1000
0000
0001
1000
,
0100
0000
1000
0000
0001
0010
0100
0010
,
0001
0000
0000
0000
1001
0000
0000
0110
,
0000
0010
0100
0000
,
1001
0000
0000
0000
1100
0000
0000
0010
,
0000
0100
1001
0000
,
1001
0000
1000
0010
,
0100
0000
0001
0000
1000
0010
1000
0010
,
0100
0000
0001
1000
,
0100
0000
0010
0000
0001
0010
0001
0100
,
0000
0000
0000
0000
0001
0000
0000
0100
,
0000
1000
0100
0000
,
0001
0000
0000
0000
1000
0000
0000
0100
,
0000
0001
0100
0000
,
1100
0000
2000
3020
,
0230
0300
0002
2003
,
3020
0030
0200
0302
,
2003
3000
0200
0300
,
0020
0000
0000
0030
0000
0000
0000
0000
,
2002
3003
0000
0110
0000
0000
0101
0000
,
0101
0000
1001
0000
,
0010
0100
0001
1000
,
1001
0000
0000
0000
0001
1000
0010
0100
,
0001
0000
0000
0000
1000
0100
1000
0100
,
1000
0000
0000
0010
0100
0000
0000
0000
,
1001
0110
0101
0011
,
1001
0000
0000
1001
1001
0000
0000
0000
,
2000
0000
3000
0200
0000
0300
1000
0000
,
0010
0000
0000
0100
0200
0000
0300
0000
,
0001
1000
0100
0010
,
0011
0000
0000
0000
0001
0010
0100
0010
,
0001
0000
0000
1000
0100
0010
0100
1000
,
0001
0000
0000
0001
1000
0000
0000
1000
,
0100
1000
0010
0100
,
2002
0000
3003
1001
,
0001
0000
0000
1000
0000
0000
0001
0000
1000
0000
0000
0010
0000
0000
0100
0000
,
2001
3000
0100
1000
,
0010
0010
1000
0001
0100
0010
0100
0001
,
1000
0010
1000
0001
0100
0001
1000
0000
,
0001
0001
1000
0010
0100
0001
1000
0010
,
0100
0001
1000
0010
0100
0001
1000
0000
,
0002
0000
0000
0000
,
0003
0000
0000
0000
;

//---------------dance-single - ----------------
#NOTES:
     dance-single:
     :
     Easy:
     4:
     0.192796,0.269370,0.010884,0.065302,0.000000,124.000000,123.000000,1.000000,6.000000,0.000000,0.000000,0.192796,0.269370,0.010884,0.065302,0.000000,124.000000,123.000000,1.000000,6.000000,0.000000,0.000000:
0000
0000
0000
0000
,
0000
0000
0000
0000
,
0000
0000
0000
0000
,
0000
0000
0000
0000
,
0000
0000
0000
0000
,
0000
0000
1000
0000
,
0000
0000
0001
0000
,
0000
0000
0100
0000
,
0000
0000
0010
0000
,
0000
0000
2000
0000
,
0000
0000
0000
0000
,
3000
0000
1000
1000
,
1000
0000
1000
0000
,
1000
0000
0001
0001
,
0001
0000
0001
0000
,
0000
0000
0000
0000
0100
0000
0000
0100
,
0000
0010
0010
0000
,
0010
0000
0000
0000
1000
0000
0000
1000
,
0000
0001
0100
0000
,
0100
0000
1000
0001
,
1000
0000
0010
0100
,
0010
0000
1000
0001
,
1000
0000
0010
0100
,
0010
0000
0000
0000
1000
0000
0000
1000
,
0000
0001
0001
0000
,
0100
0000
0000
0000
0010
0000
0000
0010
,
0000
1000
1000
0000
,
0001
0000
1000
1000
,
1000
0000
0001
0000
,
0100
0000
0010
0010
,
0010
0000
0100
0000
,
0200
0000
0300
0000
,
2000
0000
3000
0001
0000
0000
1000
0000
,
1000
0000
0010
0000
,
1000
0100
1000
0010
,
0100
0000
0001
0001
,
0001
0000
1000
1000
,
1000
0000
1000
0000
,
0100
0100
1000
1000
,
0010
0000
0010
0000
,
1000
0000
0000
0100
0000
0000
1000
0000
,
0010
0000
0100
0000
,
0001
1000
0010
0100
,
0001
0000
1000
0001
,
1000
0000
0010
0010
,
0010
0000
0010
0000
,
0100
0001
1000
0001
,
2002
3003
0000
0000
,
1000
0000
0010
0000
,
0100
0000
0001
1000
,
0001
1000
0010
0100
,
0001
1000
0100
1000
,
0010
0100
0001
1000
,
0100
0010
0001
1000
,
0002
0000
0000
0000
,
0003
0000
0000
0000
;
