#TITLE:Do Your Best!;
#SUBTITLE:So I'm a Spider, So What Ending 1;
#ARTIST:Aoi Yuuki;
#TITLETRANSLIT:;
#SUBTITLETRANSLIT:;
#ARTISTTRANSLIT:;
#GENRE:;
#CREDIT:RLZ;
#BANNER:SIASSWBN.jpg;
#BACKGROUND:So Im a Spider So What BG.jpg;
#LYRICSPATH:;
#CDTITLE:UZU.png;
#MUSIC:So Im a Spider So What.mp3;
#OFFSET:-0.577962;
#SAMPLESTART:28.200001;
#SAMPLELENGTH:12.000000;
#SELECTABLE:YES;
#DISPLAYBPM:190.000000;
#BPMS:0.000000=190.000000
,120.000000=62.499996
,136.000000=70.000000
,138.000000=77.500000
,140.000000=85.000000
,142.000000=90.000000
,144.000000=92.000000
,148.000000=188.000000
,160.000000=380.000000
;
#STOPS:288.500000=0.158000
;
#BGCHANGES:0.000=So Im a Spider So What.mp4=1.000=0=0=1=====,
304.500=So Im a Spider So What BG.jpg=1.000=0=0=1=====,
99999=-nosongbg-=1.000=0=0=0 // don't automatically add -songbackground-
;
#KEYSOUNDS:;
#ATTACKS:;

//---------------dance-single - ----------------
#NOTES:
     dance-single:
     :
     Challenge:
     19:
     0.755988,1.201785,0.907458,1.203576,0.300894,554.000000,459.000000,95.000000,126.000000,0.000000,4.000000,0.755988,1.201785,0.907458,1.203576,0.300894,554.000000,459.000000,95.000000,126.000000,0.000000,4.000000:
// measure 0
0000
0001
0000
0001
0000
0001
0000
0001
,  // measure 1
0000
0001
0000
0001
0000
0001
0000
0001
,  // measure 2
0000
0001
0000
0001
0000
1000
0000
1000
,  // measure 3
0000
0010
0000
0010
0000
0100
0000
0100
,  // measure 4
0001
0100
0010
1000
0001
0100
0010
1000
0001
0100
0010
1000
0001
0100
0010
1000
,  // measure 5
0002
0000
0000
0000
0000
0000
0000
0000
0003
0000
0100
0001
0101
0000
0000
0000
,  // measure 6
0000
0000
0000
0000
2002
3003
2200
3300
0000
0000
0000
0000
0022
0033
2002
3003
,  // measure 7
0000
0000
0000
0000
2002
3003
2002
3003
0000
0000
0000
0000
2020
3030
2200
3300
,  // measure 8
0000
0000
0000
0000
0220
0330
0220
0330
0002
0000
0000
0000
2000
0000
3003
0000
,  // measure 9
0000
0000
0000
0000
2020
0030
0000
0000
0200
0000
0000
0000
3020
0000
0000
0000
,  // measure 10
0330
0000
0000
0000
0022
0033
2002
3003
0000
0000
0000
0000
2020
3030
2002
3003
,  // measure 11
0000
0000
0000
0000
0202
0303
0022
0033
0000
0000
0000
0000
2002
3003
2200
3300
,  // measure 12
0000
0000
0000
0000
2002
3003
0020
0030
0200
0300
0000
0000
0200
0300
0000
0000
,  // measure 13
2002
0000
0000
0000
3203
0300
0020
0030
0002
0003
2000
3000
0002
0003
0000
0000
,  // measure 14
1001
0000
0001
0100
0010
0000
1000
0100
0010
0000
0001
0000
0001
0000
0001
0000
,  // measure 15
0000
0000
1000
0000
1000
0000
1000
0000
2020
3030
2002
3003
2020
3030
0000
0000
,  // measure 16
0011
0000
0010
0001
0100
0000
0100
0001
0010
0000
0001
0000
0001
0000
2002
0000
,  // measure 17
0000
0000
0000
3003
2020
0000
0000
3030
2002
0000
0000
3003
2020
0000
0000
3030
,  // measure 18
0010
0100
0001
0000
0001
0000
0001
1000
0010
0000
0010
0000
0010
0000
1001
0000
,  // measure 19
0000
0000
0100
0100
0220
2332
3223
0330
,  // measure 20
0001
0100
1000
0000
1000
0100
0001
0000
1100
0000
0101
0000
1100
0000
0000
0000
,  // measure 21
2002
3003
2200
3300
2002
3003
0200
0300
,  // measure 22
0001
1000
0001
1000
0001
0000
0020
0030
,  // measure 23
1000
0000
0001
0000
1000
0000
0001
0000
1000
0000
0200
0300
0200
0000
0300
0000
,  // measure 24
0001
1000
0100
0010
0001
1000
0100
0010
,  // measure 25
2002
0000
0000
3003
2020
0000
0000
3030
0022
0000
0000
0033
0000
0000
0000
0000
,  // measure 26
0001
0010
0100
0010
0001
0010
0100
0010
,  // measure 27
0001
0000
1000
0000
0001
0000
0000
0000
1001
0000
0000
0000
0020
0030
0000
0000
,  // measure 28
0001
1000
0010
1000
0001
1000
0010
1000
,  // measure 29
2002
0000
0000
3003
2200
0000
0000
3300
2002
0000
0000
3003
0000
0000
0000
0000
,  // measure 30
2002
0000
0000
0000
0000
0000
0000
0000
0000
0000
0000
0000
0000
0000
0000
3003
0000
0000
0100
0000
0010
0000
1000
0000
2020
0000
0000
0000
0000
0000
0000
0000
0000
0000
0000
0000
0000
0000
0000
3030
0000
0000
1000
0000
0000
0000
0100
0000
,  // measure 31
2200
0000
0000
0000
0000
0000
0000
0000
0000
3300
0000
0000
0110
0000
0000
0000
0000
0010
0000
0000
0000
0000
0000
0000
0022
0000
0000
0000
0000
0000
0000
0000
0000
0000
0000
0000
0000
0000
0000
0033
0000
0000
0001
0000
0010
0000
0100
0000
,  // measure 32
0220
0000
0000
0000
0000
0000
0000
0000
0000
0000
0000
0000
0330
0000
0000
0001
0000
0000
1000
0000
0010
0000
1000
0000
2002
0000
0000
0000
0000
0000
0000
0000
0000
0000
0000
0000
3003
0000
0000
0000
0001
0000
0100
0000
0000
0000
0100
0000
,  // measure 33
1010
0000
0000
0000
0000
0000
1000
0000
0000
0000
0000
0000
1001
0000
0000
0000
0001
0000
0000
0000
0010
0000
0000
0000
0220
0000
0000
0000
0000
0000
0000
0000
0000
0000
0000
0000
0000
0000
0000
0000
0000
0000
0000
0000
0000
0330
0000
0000
,  // measure 34
0110
0000
0110
0000
0110
0000
0220
0000
0000
0330
0000
0000
0011
0000
0011
0000
0011
0000
0022
0000
0000
0033
0000
0000
,  // measure 35
1001
0000
1001
0000
1001
0000
2002
0000
0000
3003
0000
0000
1010
0000
1010
0000
1010
0000
2020
0000
0000
3030
0000
0000
,  // measure 36
0100
1000
0100
1000
0100
0010
0100
0010
0001
0010
0001
0010
1000
0010
1000
0010
,  // measure 37
0001
0100
0010
1000
0001
0100
0010
1000
0001
0100
0010
1000
0001
0100
0010
1000
,  // measure 38
0001
0100
0010
1000
0001
0100
0010
1000
0001
0100
0001
1000
0001
1000
0001
1000
,  // measure 39
0001
0000
0001
1000
0001
0000
0001
0000
0001
0000
0100
0000
0100
0000
0000
0000
,  // measure 40
1001
0000
0001
0100
0010
1000
0001
0000
,  // measure 41
1001
0000
0001
0100
0010
1000
0001
0000
,  // measure 42
1001
0000
0001
0100
0010
1000
0001
0000
,  // measure 43
1001
0000
0001
0000
0001
1000
0001
1000
,  // measure 44
0011
0000
0001
0100
0010
1000
0100
0000
,  // measure 45
0011
0000
0001
0100
0010
1000
0100
0000
,  // measure 46
2002
0000
0000
0000
0000
0000
0000
3003
,  // measure 47
0110
0110
0110
0110
,  // measure 48
1010
0000
0010
0100
0001
1000
0010
0000
,  // measure 49
1010
0000
0010
0100
0001
1000
0010
0000
,  // measure 50
1010
0000
0010
0100
0001
1000
0010
0000
,  // measure 51
1010
0000
1000
0000
1000
0001
1000
0001
,  // measure 52
1100
0000
0100
0010
0001
1000
0100
0000
,  // measure 53
1100
0000
0100
0010
0001
1000
0100
0000
,  // measure 54
2002
0000
0000
0000
,  // measure 55
0000
0000
0000
0000
0000
0000
0000
3003
,  // measure 56
1001
0000
0001
0100
0001
0100
0001
0100
,  // measure 57
0001
0100
0001
0100
0001
0100
0001
0100
,  // measure 58
0001
0100
0001
0100
0001
0100
0001
0100
,  // measure 59
0001
0001
0001
0000
,  // measure 60
1001
0000
0010
1000
0010
1000
0010
1000
,  // measure 61
0010
1000
0010
1000
0010
1000
0010
1000
,  // measure 62
0010
0000
0010
1000
0010
1000
0010
1000
,  // measure 63
0010
0010
0010
0000
,  // measure 64
0001
0100
1000
0100
0001
0010
1000
0010
,  // measure 65
0001
0100
1000
0100
0001
0010
1000
0010
,  // measure 66
0001
0100
1000
0100
0001
0010
1000
0000
,  // measure 67
1000
1000
0000
0000
,  // measure 68
0001
0010
1000
0010
0001
0100
1000
0100
,  // measure 69
0001
0010
1000
0010
0001
0100
1000
0100
,  // measure 70
0001
0010
1000
0010
0001
0100
1000
0100
,  // measure 71
0001
0010
1000
0000
1000
0000
1000
0000
,  // measure 72
0000
2002
0000
0000
,  // measure 73
0000
0000
0000
0000
,  // measure 74
0000
0000
0000
0000
,  // measure 75
0000
0000
0000
0000
,  // measure 76
3000
0003
0000
0000
;

//---------------dance-single - ----------------
#NOTES:
     dance-single:
     :
     Hard:
     13:
     0.524006,0.764772,0.515818,1.088950,0.038209,384.000000,330.000000,54.000000,114.000000,0.000000,2.000000,0.524006,0.764772,0.515818,1.088950,0.038209,384.000000,330.000000,54.000000,114.000000,0.000000,2.000000:
0000
0001
0000
0001
0000
0001
0000
0001
,
0000
0001
0000
0001
0000
0001
0000
0001
,
0000
0001
0000
0001
0000
1000
0000
1000
,
0000
0010
0000
0010
0000
0100
0000
0100
,
0001
1000
0010
0100
0001
1000
0010
0100
,
0002
0000
0000
0000
0003
0100
0101
0000
,
0000
0000
0000
0000
2002
0003
0200
3300
0000
0000
0000
0000
0022
0030
2000
3003
,
0000
0000
0000
0000
2002
0003
0002
3003
0000
0000
0000
0000
2020
0030
0200
3300
,
0000
0000
0000
0000
0220
0300
0200
0330
0002
0000
0000
0000
2000
0000
3003
0000
,
0000
0000
0000
0000
2020
0030
0000
0000
0200
0000
0000
0000
3020
0000
0000
0000
,
0330
0000
0000
0000
0022
0030
2000
3003
0000
0000
0000
0000
2020
0030
0002
3003
,
0000
0000
0000
0000
0202
0300
0020
0033
0000
0000
0000
0000
2002
0003
0200
3300
,
0000
0000
0000
0000
2002
3003
0020
0030
0200
0300
0000
0000
0200
0300
0000
0000
,
2002
0000
0000
0000
3203
0300
0020
0030
0002
0003
2000
3000
0002
0003
0000
0000
,
0001
0001
1000
1000
0010
0100
0001
0100
,
0000
0000
0001
0000
0001
0000
0100
0000
0020
0030
0200
0300
0020
0030
0000
0000
,
0010
0010
0100
0100
0010
1000
0001
2002
,
0000
0000
0000
3003
0020
0000
0000
0030
2000
0000
0000
3000
0020
0000
0000
0030
,
1000
1000
0001
0001
0010
0010
0010
0001
,
0000
0000
0100
0100
0020
0230
0320
0030
,
1000
0001
0001
1000
0001
1000
0001
0000
,
2002
3003
2200
3300
2002
3003
0200
0300
,
0001
1000
0001
1000
0001
0000
0020
0030
,
1000
0000
0001
0000
1000
0000
0001
0000
1000
0000
0200
0300
0200
0000
0300
0000
,
0001
1000
0100
0010
0001
1000
0100
0010
,
2002
0000
0000
3003
2020
0000
0000
3030
0022
0000
0000
0033
0000
0000
0000
0000
,
0001
0010
0100
0010
0001
0010
0100
0010
,
0001
0000
1000
0000
0001
0000
0000
0000
0001
0000
0000
0000
0020
0030
0000
0000
,
0001
1000
0010
1000
0001
1000
0010
1000
,
2002
0000
0000
3003
2200
0000
0000
3300
2002
0000
0000
3003
0000
0000
0000
0000
,
2002
0000
0000
0000
0000
0000
0000
3003
2020
0000
0000
0000
0000
0000
0000
3030
,
2200
0000
0000
3300
0220
0000
0000
0330
0022
0000
0000
0000
0000
0000
0000
0033
,
0220
0000
0000
0000
0000
0000
0000
0330
2002
0000
0000
0000
0000
0000
0000
3003
,
2020
0000
0000
3030
2002
0000
0000
3003
0220
0000
0000
0000
0000
0000
0000
0330
,
0120
0000
0100
0030
0100
0000
0200
0000
0000
0300
0000
0000
0021
0000
0001
0030
0001
0000
0002
0000
0000
0003
0000
0000
,
1002
0000
1000
0003
1000
0000
2000
0000
0000
3000
0000
0000
2010
0000
0010
3000
0010
0000
0020
0000
0000
0030
0000
0000
,
0100
0100
0001
0001
1000
1000
0100
0100
,
0010
0001
0010
1000
0010
0001
0010
1000
,
0010
0001
0010
0001
0010
0001
0010
0001
,
0010
0010
0010
0010
0010
0100
0100
0000
,
1001
0001
0010
0001
,
1001
0001
0010
0001
,
1001
0001
0010
0001
,
1001
0001
0001
0001
,
0011
0001
0010
0100
,
0011
0001
0010
0100
,
2002
0000
0000
0000
0000
0000
0000
3003
,
0010
0010
0010
0010
,
1010
0010
0100
0010
,
1010
0010
0100
0010
,
1010
0010
0100
0010
,
1010
1000
1000
1000
,
1100
0100
0001
0100
,
1100
0100
0001
0100
,
2002
0000
0000
0000
,
0000
0000
0000
0000
0000
0000
0000
3003
,
1001
0001
0100
1000
,
0100
0001
0100
1000
,
0100
0001
0100
1000
,
0100
0100
0100
0000
,
1001
0001
0010
1000
,
0010
0001
0010
1000
,
0010
0001
0010
1000
,
0010
0010
0010
0000
,
0001
0001
0001
0001
,
0001
0001
0001
0001
,
0001
0001
0001
0001
,
0001
0001
0001
0000
,
1000
1000
1000
1000
,
1000
1000
1000
1000
,
1000
1000
1000
1000
,
1000
1000
1000
1000
,
0000
2002
0000
0000
,
0000
0000
0000
0000
,
0000
0000
0000
0000
,
0000
0000
0000
0000
,
3000
0003
0000
0000
;

//---------------dance-single - ----------------
#NOTES:
     dance-single:
     :
     Medium:
     7:
     0.338421,0.471878,0.592236,0.372536,0.000000,248.000000,186.000000,62.000000,39.000000,0.000000,0.000000,0.338421,0.471878,0.592236,0.372536,0.000000,248.000000,186.000000,62.000000,39.000000,0.000000,0.000000:
0000
0000
0000
0000
,
0000
0000
0000
0000
,
0000
0000
0000
0000
,
0000
0000
0000
0000
,
0001
0000
1000
0000
,
1001
0000
0000
0000
,
0000
0011
0000
1001
,
0000
1010
0000
1001
,
0000
0101
0000
0110
,
0000
1010
0000
1001
,
0000
1100
0000
0011
,
0000
1001
0000
1100
,
0000
0110
0001
1000
,
0010
0100
0110
0000
,
0001
0001
1000
1000
,
0010
0010
1000
0010
,
0100
0100
0010
0010
,
1000
0010
1000
0010
,
0100
0100
0001
0001
,
0010
0001
0010
0001
,
0100
0100
0001
0001
,
0011
0110
0011
0000
,
0001
0000
1000
0000
0001
0000
0020
0030
,
0100
0000
1000
0000
0100
0000
0020
0030
,
0001
1000
0010
0100
,
0202
0303
0220
0330
2020
3030
0000
0000
,
0001
0001
1000
1000
,
0010
0000
1000
0000
0010
0000
2000
3000
,
0100
0100
0010
0010
,
1000
0001
1000
0000
,
2002
0000
0000
3003
0220
0000
0000
0330
,
0022
0033
2200
3300
2002
0000
0000
3003
,
2020
0000
0000
3030
0202
0000
0000
0303
,
2002
3003
2200
3300
0220
0000
0000
0330
,
0002
0000
0000
0003
2000
0000
0000
3000
,
0020
0000
0000
0030
0200
0000
0000
0300
,
0001
0001
1000
1000
0010
0010
0100
0100
,
0001
1000
0001
1000
,
0001
1000
0001
1000
,
0010
0010
0010
0100
,
1001
0000
0100
0000
,
1001
0000
0100
0000
,
1001
0000
0100
0000
,
1001
0000
1001
0000
,
1010
0000
0100
0000
,
1010
0000
0100
0000
,
2020
0000
0000
0000
,
0000
0000
0000
3030
,
0011
0000
0100
0000
,
0011
0000
0100
0000
,
0011
0000
0100
0000
,
0011
0000
0011
0000
,
1001
0000
0100
0000
,
1001
0000
0100
0000
,
2002
0000
0000
0000
,
0000
0000
0000
3003
,
0101
0000
0101
0000
,
0101
0000
0101
0000
,
0101
0000
0101
0000
,
0101
0000
0000
0000
,
1100
0000
1100
0000
,
1100
0000
1100
0000
,
1100
0000
1100
0000
,
1100
0000
0000
0000
,
0001
0010
0001
0010
,
0001
0010
0001
0010
,
0001
0010
0001
0010
,
0001
0000
0000
0000
,
0001
1000
0001
1000
,
0001
1000
0001
1000
,
0001
1000
0001
1000
,
0001
0001
0001
0001
,
0000
2002
0000
0000
,
0000
0000
0000
0000
,
0000
0000
0000
0000
,
0000
0000
0000
3000
,
0003
0000
0000
0000
;

//---------------dance-single - ----------------
#NOTES:
     dance-single:
     :
     Easy:
     5:
     0.193773,0.326685,0.143283,0.191044,0.000000,142.000000,127.000000,15.000000,20.000000,0.000000,0.000000,0.193773,0.326685,0.143283,0.191044,0.000000,142.000000,127.000000,15.000000,20.000000,0.000000,0.000000:
0000
0000
0000
0000
,
0000
0000
0000
0000
,
0000
0000
0000
0000
,
0000
0000
0000
0000
,
0001
0000
1000
0000
,
0010
0000
0000
0000
,
0000
0001
0000
1000
,
0000
0010
0000
0100
,
0000
0010
0000
1000
,
0000
0001
0000
0010
,
0000
0100
0000
1000
,
0000
0001
0000
0100
,
0000
0010
1000
0010
,
0100
0001
1000
0001
,
1000
0000
1000
0000
,
0001
0000
0010
0000
,
0001
0000
1000
0000
,
0001
0000
0100
0000
,
0010
0000
1000
0000
,
0010
0000
0100
0000
,
0001
0000
0010
0000
,
0001
0000
0001
0000
,
1000
0000
0010
0000
,
0100
0000
0010
0000
,
0001
0000
0010
0000
,
0100
0000
0010
0000
,
0001
0000
0001
0000
,
1000
0000
1000
0000
,
0010
0000
0010
0000
,
0100
0000
0100
0000
,
0002
0003
2000
3000
,
0020
0030
0200
0300
0002
0000
0003
0000
,
2000
3000
0020
0030
,
0002
0003
0200
0000
0002
0000
0303
0000
,
0002
0000
0000
0003
2000
0000
0000
3000
,
0020
0000
0000
0030
2000
0000
0000
3000
,
0001
0001
1000
1000
,
0100
0100
0100
0100
,
0100
0100
0100
0100
,
0010
0010
0010
0000
,
1001
0000
0000
0000
,
1001
0000
0000
0000
,
1001
0000
0000
0000
,
1001
0000
0000
0000
,
0110
0000
0000
0000
,
0110
0000
0000
0000
,
0220
0000
0000
0000
,
0000
0000
0330
0000
,
1010
0000
0000
0000
,
1010
0000
0000
0000
,
1010
0000
0000
0000
,
1010
0000
0000
0000
,
0011
0000
0000
0000
,
0011
0000
0000
0000
,
0220
0000
0000
0000
,
0000
0000
0330
0000
,
0001
0000
0001
0000
,
0001
0000
0001
0000
,
0001
0000
0001
0000
,
0001
0000
0000
0000
,
1000
0000
1000
0000
,
1000
0000
1000
0000
,
1000
0000
1000
0000
,
1000
0000
0000
0000
,
0010
0000
1000
0000
,
0010
0000
1000
0000
,
0010
0000
1000
0000
,
0010
0000
0000
0000
,
0001
0000
0100
0000
,
0001
0000
0100
0000
,
0001
0000
0100
0000
,
0001
0000
0001
0000
,
0000
2002
0000
0000
,
0000
0000
0000
0000
,
0000
0000
0000
0000
,
0000
0000
0000
3000
,
0003
0000
0000
0000
;
