#TITLE:Diver;
#SUBTITLE:Naruto Shippuden opening 8;
#ARTIST:Nico Touch The Walls;
#TITLETRANSLIT:;
#SUBTITLETRANSLIT:;
#ARTISTTRANSLIT:;
#GENRE:;
#CREDIT:;
#BANNER:DBN.jpg;
#BACKGROUND:DBG.jpg;
#LYRICSPATH:;
#CDTITLE:;
#MUSIC:Naruto Shippuden Opening 8 Diver (HD).ogg;
#OFFSET:0.160000;
#SAMPLESTART:6.817801;
#SAMPLELENGTH:48.322144;
#SELECTABLE:YES;
#BPMS:0.000000=149.000000
,19.000000=74.500000
,51.000000=149.000000
,113.000000=74.500000
,114.000000=149.000000
;
#STOPS:
;
#BGCHANGES:0.063=1.avi=1.000=0=0=1=====,
184.000=DBG.jpg=1.000=0=0=1=====,
99999=-nosongbg-=1.000=0=0=0 // don't automatically add -songbackground-
;
#KEYSOUNDS:;
#ATTACKS:;

//---------------dance-single - ----------------
#NOTES:
     dance-single:
     :
     Hard:
     10:
     0.372124,0.620092,0.114921,0.354338,0.205899,272.000000,260.000000,12.000000,37.000000,0.000000,0.000000,0.372124,0.620092,0.114921,0.354338,0.205899,272.000000,260.000000,12.000000,37.000000,0.000000,0.000000:
0000
0000
0000
0000
0000
0000
0001
0200
,
0300
0100
0002
0003
0010
0100
0000
1000
,
0010
0100
0001
0000
0011
0000
0001
2000
,
3000
0100
2000
3000
0010
1000
0000
0001
,
0100
0010
0100
0001
1000
0100
1000
0010
,
0100
0000
0001
1000
0000
0100
0000
1000
0000
0010
0000
0200
0000
0000
0000
0300
,
0000
0000
0000
0000
0000
0000
0000
0000
0000
0001
1000
0001
0000
1000
0100
1000
,
0010
0100
0010
0100
0000
0010
0100
0001
1000
0010
0100
0002
0000
0000
0003
0200
,
0000
0000
0000
0300
0000
0000
0000
0000
0010
1000
0001
0010
0000
0100
1000
0001
,
0010
0100
1000
0010
0000
0100
0000
0001
0000
1000
0100
0020
0000
0000
0030
0000
,
0000
0000
0000
0000
0000
0000
0000
0000
0001
0010
0100
1000
0000
0000
0100
0000
,
0001
0100
1000
1000
0000
0010
0010
0100
0000
0001
1000
0100
1000
0010
0100
0010
,
1000
0000
0001
0000
1000
0000
0200
0300
0020
0000
0032
0000
2003
0000
3020
0000
0230
0000
0302
0000
2003
0000
3000
0000
0100
0000
0000
0000
1000
0000
0000
0000
,
0010
0100
0001
0000
1000
0001
0000
1000
,
0001
0000
0200
0000
0300
0010
0000
1000
,
0100
0010
0001
1000
0010
0100
0000
0000
,
1001
0000
0000
0000
0100
0000
1000
0000
0010
0000
0000
1001
0000
0000
1000
0000
,
0100
1001
0000
0010
0100
0101
0000
0001
,
1000
1100
0000
0000
1000
0020
0000
0000
,
0000
0000
0000
0030
,
0000
0000
0001
0010
0100
1000
0000
1000
,
0100
0100
1000
0010
0100
0010
0000
0010
,
0000
0100
0100
0000
0000
0010
0100
0001
,
1000
1000
0000
0001
1000
1000
0000
0010
,
1000
1000
0000
0010
0000
0000
0100
0000
,
0001
0020
0000
0030
0001
2000
0000
3000
,
0010
0200
0000
0300
0001
1000
0100
1000
,
0010
0100
0001
1000
0100
1000
0001
1000
,
0010
0000
1000
0000
0001
0010
0100
0000
2002
0000
0000
0000
3003
0000
0000
0000
,
0220
0330
0022
0033
,
0001
0001
1000
1000
0002
0000
0000
0003
,
0200
0000
0000
0300
0020
0000
0030
0000
,
1000
0100
0010
0001
1000
0000
0010
1000
,
0100
1000
0010
0100
0000
0101
0000
0000
,
0001
0010
0001
0010
0001
0000
0100
0000
,
0010
1000
0100
0010
0000
0001
0000
0000
,
1000
0100
0010
0001
2000
0000
0000
0000
,
3020
0000
0000
0030
0200
0000
0000
0000
,
0000
0300
0001
0200
0000
0320
0000
0000
,
0000
0030
1000
0100
,
1000
0010
0100
0001
1000
0000
1000
0100
,
1000
0010
0100
0001
0000
1000
0000
0100
,
0000
1000
0010
0100
0001
0000
1000
0100
,
0000
0010
0001
1000
0010
0000
0100
0001
,
1000
0100
0010
0001
1000
0000
0001
1001
,
0000
0010
0220
0000
0000
0000
0000
0000
,
0000
0330
0000
0000
;

//---------------dance-single - ----------------
#NOTES:
     dance-single:
     :
     Easy:
     2:
     0.119025,0.201470,0.019153,0.172381,0.023942,87.000000,85.000000,2.000000,18.000000,0.000000,0.000000,0.119025,0.201470,0.019153,0.172381,0.023942,87.000000,85.000000,2.000000,18.000000,0.000000,0.000000:
0000
0000
0000
0000
,
0000
0000
0000
0000
,
0000
0000
0000
0000
,
0000
0000
0000
0000
,
0000
0000
0000
2000
,
0000
0000
3000
0000
0000
0000
0000
0000
0000
0000
0000
0010
0000
0000
0000
0000
,
0000
0000
0000
0100
,
0000
0000
0100
0000
0000
0000
0000
0000
0000
0000
0000
0020
0000
0000
0000
0000
,
0030
0000
0000
0000
0000
0000
0000
0000
0000
0000
0000
2000
0000
0000
0000
3000
,
0000
0000
0000
0020
0000
0000
0000
0000
0000
0000
0030
0200
0000
0000
0000
0000
,
0300
0000
0001
0001
,
0001
1000
1000
2000
,
0000
3000
0000
1000
,
1000
0000
1000
0000
0000
1000
0000
0000
,
1000
0000
1000
0000
0000
0001
0000
0000
,
0000
0000
0001
0000
0000
0001
0000
0000
,
0000
0001
0000
0001
,
0000
1000
0000
0000
0000
0010
0000
0000
,
0000
0100
0000
0000
0100
0200
0000
0000
,
0000
0000
0000
0300
,
0000
0000
0010
0000
0000
0010
0000
0000
,
0010
0000
0010
0000
0000
0010
0000
0010
,
0000
0010
0000
1000
,
0000
1000
0000
0000
0000
0001
0000
0000
,
0000
0001
0000
0000
0000
0000
1000
0000
,
0000
0001
0000
0000
0000
0100
0000
0000
,
0000
0020
0000
0000
0000
0000
0200
0000
,
0000
0000
0000
0000
,
0000
0330
0000
0000
0002
0000
0000
0000
,
1003
0000
0010
0000
,
0100
0010
0200
0300
,
0010
0000
0200
0300
,
0001
0001
0100
0001
,
1000
0000
0000
0010
0000
0010
0000
0000
,
0010
0010
0100
0100
,
0100
0000
0000
0100
0000
0100
0000
0000
,
0010
0000
0000
0000
0000
0000
0000
0000
0020
0000
0000
0030
0000
0000
0000
0000
,
0020
0030
0020
0000
,
0030
0000
0000
0020
0000
0000
0000
0000
,
0000
0000
0000
0000
0000
0030
0000
0000
,
0000
0000
1001
0000
,
1001
0000
0000
1000
0000
0010
0000
0100
,
0000
0001
0000
0200
0000
0000
0000
0000
,
0300
0000
0000
0000
0000
0000
0000
0010
,
0000
0000
0100
0000
0010
0000
0000
1000
,
0000
0002
0000
0000
,
0000
0000
0000
0003
;

//---------------dance-single - ----------------
#NOTES:
     dance-single:
     :
     Medium:
     6:
     0.240786,0.335783,0.153227,0.239418,0.086190,176.000000,160.000000,16.000000,25.000000,0.000000,0.000000,0.240786,0.335783,0.153227,0.239418,0.086190,176.000000,160.000000,16.000000,25.000000,0.000000,0.000000:
0000
0000
0000
0000
,
0000
0000
0000
0000
,
0000
0000
0000
0000
,
0000
0000
0000
0000
,
0000
0000
0000
0001
1000
0001
2000
3010
,
0010
0000
0000
0100
0000
0001
0000
0001
0000
1000
0000
2000
0000
0000
0000
0000
,
3000
0000
0000
0000
0000
0000
0000
0000
0000
0001
0010
0100
0000
0000
1000
0000
,
1000
0000
0001
0000
0000
0000
1000
0000
0010
0000
0000
0020
0000
0000
0000
2000
,
0030
3000
0000
0000
0000
0000
0000
0000
1000
1000
0000
2000
0000
0000
0000
3000
,
0000
0000
0000
0020
0000
0000
0000
0000
0000
0000
0030
0200
0000
0000
0000
0000
,
0300
0000
0000
0000
2002
3003
0000
0000
0001
1000
0001
1000
0000
0000
0001
0000
,
0001
0000
0000
0010
0000
0000
0000
0100
0000
1000
0000
0000
1000
0000
0000
0000
,
0001
1000
0010
0100
0001
0010
0100
1000
,
0100
0000
1000
0000
1000
1000
0000
0000
,
0011
0000
1100
0000
0000
0011
0000
0000
,
0110
0000
1001
0000
0000
0001
0000
0000
,
0100
0001
0100
0001
,
1000
1000
0000
0000
0010
0010
0000
0000
,
0100
0100
0000
0000
0100
0200
0000
0000
,
0000
0000
0000
0300
,
0000
0000
0001
1000
0010
0100
0000
0000
,
0010
0100
0001
1000
0010
0100
0000
0010
,
0000
0010
0010
0000
0000
1000
0100
0010
,
0001
1000
0000
0000
0001
0001
0000
0000
,
1000
0001
0000
1000
0000
0000
1000
0000
,
0001
0001
0000
0000
0100
0100
0000
0000
,
0010
0020
0000
0000
0100
0200
0000
0000
,
0000
0000
0000
0000
0000
0000
0000
0300
,
0000
0030
1000
0001
2002
3003
0000
0000
,
1010
0000
0110
0000
,
0001
0010
0001
0000
0200
0000
0300
0000
,
0010
0000
0200
0300
,
0001
0010
0100
0000
1000
0000
0001
0010
,
0100
1000
0000
1000
0000
0010
0000
0000
,
0001
0010
0001
0000
1000
0100
1000
0000
,
0110
0000
0000
1001
0000
0110
0000
0000
,
0001
0000
1000
0000
0010
0000
0000
0000
0220
0000
0300
0030
0000
0000
0000
0000
,
2002
0000
3003
0000
0220
0000
0000
0300
,
0030
0000
0100
0020
0000
1030
0000
0000
,
1000
0010
0100
0000
0100
0010
1000
0000
,
0001
1000
0001
1000
0001
0000
0000
0000
,
1001
0000
0000
1000
0000
0010
0000
0100
,
0000
0001
0000
0200
0000
0000
0000
0000
,
0300
0000
0000
0000
0000
0000
0000
0010
,
0000
0000
0100
0000
0010
0000
0000
1000
,
0000
0002
0000
0000
,
0000
0000
0000
0003
;

//---------------dance-single - ----------------
#NOTES:
     dance-single:
     :
     Challenge:
     14:
     0.580075,0.838142,0.478835,0.172381,0.474047,424.000000,374.000000,50.000000,18.000000,0.000000,0.000000,0.580075,0.838142,0.478835,0.172381,0.474047,424.000000,374.000000,50.000000,18.000000,0.000000,0.000000:
// measure 0
0000
0000
0000
0000
2002
3003
0001
0200
,  // measure 1
0300
0100
0002
0003
0010
0100
1000
0100
,  // measure 2
0010
0000
0001
0010
0100
0000
0000
0000
1001
0000
0000
0000
0001
0000
2000
0000
,  // measure 3
3000
0100
2000
3000
0010
1000
0000
0001
,  // measure 4
0100
0000
0010
0000
1000
0100
1000
0010
0100
0001
0010
0100
1000
0000
0010
0000
,  // measure 5
0100
0000
0001
1000
0000
0110
0000
1001
0000
0010
0000
1000
1000
0001
1000
0001
,  // measure 6
1000
0000
0000
0010
0100
0010
1000
0001
1000
0001
1000
0001
0000
1000
0100
1000
,  // measure 7
0010
0100
0010
0100
0000
0010
0100
0001
1000
0010
0100
0002
0000
0000
0003
0200
,  // measure 8
0000
0000
0000
0300
0000
0000
0000
0000
0010
1000
0001
0010
0000
0100
1000
0001
,  // measure 9
0010
0100
1000
0010
0000
0100
0000
0001
0000
1000
0100
0020
0000
0000
0030
0000
,  // measure 10
0000
0000
0000
0000
2002
3003
0000
0000
0001
0010
0100
1000
0000
0000
0100
0000
,  // measure 11
0001
0100
1000
1000
0000
0010
0010
0100
0000
0001
1000
0100
1000
0010
0100
0010
,  // measure 12
1000
0000
0001
0000
1000
0000
0200
0300
0010
0001
1000
0100
0010
0001
1000
0010
0100
0001
1000
0001
1000
0001
1000
0001
0110
0000
0000
0000
0010
0000
0000
0000
,  // measure 13
0100
0001
1010
0000
0010
1010
0000
0100
,  // measure 14
0110
0000
1001
0000
0010
0011
0000
0001
,  // measure 15
1000
0100
0110
0001
1000
1010
0000
0000
,  // measure 16
0101
0000
0000
0000
0100
0000
0010
0000
1010
0000
0000
0110
0000
0000
1001
0000
,  // measure 17
0100
0000
0000
0110
0000
0000
0100
0000
1000
0000
0000
0101
0000
0000
0010
0000
,  // measure 18
0100
1001
0000
0000
0001
1000
0100
1000
,  // measure 19
0010
0100
0001
1000
0100
0010
1001
0001
,  // measure 20
0100
0000
0010
0000
0100
0000
1000
0100
0010
0000
1000
0000
0000
0000
0001
0000
,  // measure 21
1001
0010
1100
1001
0001
1001
0000
0110
,  // measure 22
0000
0100
0101
0000
0000
0001
1001
0010
,  // measure 23
1010
1000
0000
1010
0010
0110
0000
0010
,  // measure 24
1010
0110
0000
1001
0000
0000
1000
0000
,  // measure 25
0001
0011
0000
0000
0010
0110
0000
0000
,  // measure 26
1000
1010
0000
0000
1001
0002
1000
0000
,  // measure 27
0000
1000
0000
1000
1000
1000
0003
0001
,  // measure 28
1000
0000
0000
0000
0110
0000
0000
0000
0001
1000
0010
0000
0100
0000
0000
0000
2000
0000
0000
0000
0000
0000
0000
0000
0001
0000
0000
0000
0000
0000
0000
0000
,  // measure 29
3001
0100
1001
1000
,  // measure 30
0001
0100
0010
1000
0001
0000
0100
0000
1002
0000
1000
0000
1000
0000
0000
0000
,  // measure 31
1003
0100
0020
0100
0100
0130
1001
0000
,  // measure 32
0100
0000
1000
0000
0010
0000
0100
0010
1000
0000
0001
0000
0100
0000
0010
0000
,  // measure 33
1001
1000
0010
0100
0001
1000
0100
0010
,  // measure 34
0001
0000
1000
0000
0100
0000
0011
0000
1000
0100
0010
0000
0001
0000
0010
0100
,  // measure 35
1000
0000
0001
0000
0010
0001
1000
0000
0001
1000
0001
1000
0010
0100
0010
0100
,  // measure 36
0001
0010
0100
0010
0001
1000
0010
0100
0001
0000
0001
0000
1000
0000
0010
0100
,  // measure 37
0001
0000
1000
0000
0100
0000
0010
0001
1000
0000
0010
0000
0100
0000
0001
1000
,  // measure 38
0100
0000
0010
0000
0001
1000
0001
0000
1000
0000
0010
0000
0100
0001
1000
0000
,  // measure 39
0100
0010
0001
0000
1000
0010
0100
0000
0001
1000
0100
0000
0010
0001
1000
0000
,  // measure 40
0010
0100
0001
0000
1000
0000
0100
0000
1001
0000
0000
0000
0100
0010
1000
0000
,  // measure 41
0001
1000
0010
0101
0000
0001
0000
0100
,  // measure 42
0000
0001
1000
0010
1000
0010
0100
0001
,  // measure 43
0100
0000
0010
0000
1000
0000
0010
1000
0010
0000
0100
0001
1000
0010
0100
0001
,  // measure 44
1000
0010
1000
0001
0010
0100
0010
0001
0110
0000
0000
0000
0100
0000
0110
0000
,  // measure 45
0000
0110
2200
0000
0000
0000
0000
0000
,  // measure 46
0000
3300
0000
0000
0000
0000
0000
0000
0000
0000
0000
0000
0000
0000
0000
0000
;
