#TITLE:Departure!;
#SUBTITLE:Hunter x Hunter Opening;
#ARTIST:Masatoshi Ono;
#TITLETRANSLIT:;
#SUBTITLETRANSLIT:;
#ARTISTTRANSLIT:;
#GENRE:;
#CREDIT:Magna Trick;
#BANNER:DepartureBN.jpg;
#BACKGROUND:DepartureB.jpg;
#LYRICSPATH:;
#CDTITLE:Magna Trick title!.png;
#MUSIC:Departure!.mp3;
#OFFSET:-0.193479;
#SAMPLESTART:5.800000;
#SAMPLELENGTH:20.000000;
#SELECTABLE:YES;
#BPMS:0.000000=160.020004
;
#STOPS:
;
#BGCHANGES:1.000=Departure!.avi=1.000=0=0=1=====,
205.500=DepartureB.png=1.000=0=0=1=====,
99999=-nosongbg-=1.000=0=0=0 // don't automatically add -songbackground-
;
#KEYSOUNDS:;
#ATTACKS:;

//---------------dance-single - ----------------
#NOTES:
     dance-single:
     :
     Hard:
     10:
     0.456482,0.552035,0.088061,0.540949,0.012580,254.000000,247.000000,7.000000,43.000000,0.000000,0.000000,0.456482,0.552035,0.088061,0.540949,0.012580,254.000000,247.000000,7.000000,43.000000,0.000000,0.000000:
0000
0002
0203
2300
,
3020
0032
0203
2300
,
3020
0032
0203
2300
,
3020
0000
0032
0000
0203
0000
0301
0010
,
0100
1000
0001
0000
1000
0100
0000
0010
,
0000
0020
0000
0030
0000
0000
0001
0100
,
0010
1000
0100
0000
0100
0010
0000
0010
,
0000
0002
0000
0003
0000
0000
0001
0010
,
0100
1000
0100
0000
1000
0100
0000
0010
,
0000
0002
0000
0003
0000
0000
0200
0000
,
0320
0000
2030
0000
0000
3002
0000
0000
,
0023
0000
0000
0000
,
0030
0000
0001
0000
1000
0100
0000
1000
,
0010
0100
0001
0010
0100
0010
0000
0001
,
0100
1000
0100
0001
0010
1000
0000
1000
,
0010
0001
0100
0010
1000
0110
0000
0000
,
0000
0000
1001
0000
0001
1000
0000
1000
,
0000
0001
0010
0000
0100
0000
0010
0000
,
0001
0000
0100
0000
0010
0100
0000
0100
,
0000
0010
1000
0000
0100
0000
1000
0000
,
0001
0000
0010
0100
0010
0001
0000
0100
,
0001
0100
0000
1000
0100
0000
0000
0100
,
0010
0000
1000
0100
1000
0010
0000
0100
,
0001
0010
0000
0100
0010
0000
0001
0000
,
1000
1001
0001
0001
,
0001
1000
0001
0000
1000
0000
1000
0000
,
1000
0000
0010
0000
0100
0001
0000
0001
,
0100
0010
1000
0000
1000
0000
0100
0000
,
0100
0011
0001
0010
,
0100
1000
0001
0000
0001
0000
0001
0000
,
0100
0000
0100
0010
1000
0010
0000
1000
,
0100
1000
0000
0001
0100
0001
0000
0010
,
0001
0010
0000
0001
1000
0000
0001
1000
,
0010
0100
0000
0100
0010
0000
0010
1000
,
0001
0100
0010
0000
1000
0100
0000
0010
,
0001
0020
0000
0000
0030
0000
0100
1000
,
0010
0100
0001
0000
0100
0002
0000
0203
,
0000
0320
0000
0000
0030
0000
0010
0100
,
1000
0100
0010
0000
1000
0200
0000
0320
,
0000
0032
0000
0000
0003
0000
0002
0000
,
0023
0000
0230
0000
0000
2300
0000
0000
,
3002
0103
0100
0110
,
0010
1000
0001
0000
0010
0002
0000
2003
,
0000
3200
0000
0000
0310
0000
0010
0000
,
0001
0000
0001
0000
0100
0010
0000
0200
,
0000
0302
0000
1003
0001
1000
0001
0000
,
0010
0000
0110
0000
0001
1000
0000
0002
,
0000
0203
0000
0300
0010
1000
0010
0000
,
1000
0100
1000
0100
0010
0100
0010
0001
,
0010
0001
0100
0001
0100
0010
1000
0010
,
1000
0000
0100
0000
0010
0000
0000
0001
0000
0000
1000
0000
0000
0010
0000
0000
,
1000
2002
0000
0000
0000
3003
0000
0000
;

//---------------dance-single - ----------------
#NOTES:
     dance-single:
     :
     Medium:
     5:
     0.382797,0.424189,0.050321,0.100642,0.012580,213.000000,209.000000,4.000000,8.000000,0.000000,0.000000,0.382797,0.424189,0.050321,0.100642,0.012580,213.000000,209.000000,4.000000,8.000000,0.000000,0.000000:
0000
0001
1000
0001
,
1000
0001
1000
0001
,
1000
0010
0010
0010
,
0010
0010
0010
1000
,
1000
0000
0100
0000
0010
0001
0000
0010
,
0000
0001
0000
0000
0000
0000
1000
0000
,
0010
0000
0100
0000
0010
0100
0000
0010
,
0000
0010
0000
0000
0000
0000
1000
0000
,
0001
0000
0010
0000
0100
0010
0000
0010
,
0000
0010
0000
0000
0000
0000
0001
0000
,
1000
0000
0001
0000
0000
1000
0000
0000
,
0020
0000
0000
0000
,
0030
1000
1000
0001
,
0001
0010
0010
0100
,
0100
1000
1000
0001
,
0001
0000
0100
0010
1000
0200
0000
0000
,
0300
0000
0010
0000
0001
0000
0010
0001
,
0000
0020
0000
0000
0030
0000
0001
0000
,
1000
0000
0010
0000
1000
0010
0000
1000
,
0000
2000
0000
0000
0000
0000
3000
0000
,
0000
0000
0010
1000
0100
0010
0000
0010
,
0100
1000
0000
1000
0020
0000
0030
0000
,
0000
0000
0010
0100
0001
0100
0000
0100
,
0010
1000
0000
1000
0100
0000
0010
0000
,
0010
0001
0001
0001
,
0001
1000
1000
1000
,
1000
0000
0010
0000
1000
0010
0000
1000
,
0010
2000
0000
0000
3000
0000
0010
0000
,
0010
0100
0100
0100
,
0100
0001
0001
0001
,
0001
0000
0010
0001
0010
0001
0000
0100
,
0001
0100
0000
0010
1000
0010
0000
1000
,
0100
1000
0000
0100
0010
0000
0001
0000
,
0100
0001
0000
1000
0001
0000
1000
0000
,
1000
0001
0001
0100
,
0100
0010
0010
1000
,
1000
0001
0010
0100
,
0010
0001
0100
0010
,
0010
1000
1000
0100
,
0100
0010
0010
0001
,
1000
0001
0001
1000
,
1000
1001
1001
0110
,
0010
1000
0010
0000
1000
0000
0100
0000
,
0010
0001
0100
0100
,
0010
0000
0010
0000
1000
0001
0000
1000
,
0000
0001
0000
0010
0010
0010
0010
0010
,
0100
0000
1000
0000
0001
0100
0000
0100
,
0000
0001
0000
0000
0001
0100
0010
0000
,
1000
0010
0010
1000
,
1000
0100
0100
0010
,
0010
0000
0000
0000
0001
0000
0000
1000
0000
0000
0001
0000
0000
1000
0000
0000
,
0001
2002
0000
0000
0000
0000
0000
3003
;

//---------------dance-single - ----------------
#NOTES:
     dance-single:
     :
     Easy:
     1:
     0.248010,0.289423,0.012580,0.000000,0.000000,138.000000,137.000000,1.000000,0.000000,0.000000,0.000000,0.248010,0.289423,0.012580,0.000000,0.000000,138.000000,137.000000,1.000000,0.000000,0.000000,0.000000:
0000
0001
1000
0001
,
1000
0001
1000
0001
,
1000
0001
0001
0001
,
0001
0001
0001
1000
,
0010
0100
0000
0000
,
0000
0010
0000
0000
,
0000
1000
0000
0000
,
0000
0100
0000
0000
,
0000
0010
0000
0000
,
0000
0001
0000
0000
,
0000
1000
0000
0000
,
0000
0010
0010
0010
,
0010
1000
1000
0001
,
0001
1000
1000
0001
,
0001
1000
1000
0001
,
0001
1000
1000
1000
,
0000
0010
0000
0000
,
0000
1000
0000
0000
,
0000
0100
0000
0000
,
0000
1000
0000
0000
,
0000
0001
0000
0000
,
0000
0100
0000
0000
,
0000
0010
0000
0000
,
0000
1000
0000
0001
,
0001
1000
1000
1000
,
1000
0010
0010
0010
,
0010
1000
0000
0001
,
0000
0100
0000
0010
,
0010
1000
0000
0000
,
0000
0001
0000
0000
,
0000
1000
1000
0100
,
0100
0010
0010
0001
,
0001
0010
0100
1000
,
0001
0100
0100
0010
,
0010
1000
0001
1000
,
0001
1000
0000
0001
,
1000
0001
1000
0001
,
1000
0001
0000
0100
,
0010
0100
0010
0100
,
0010
0100
0000
0010
,
0100
0010
0000
1000
,
0000
0001
0001
1000
,
0000
0100
0100
0010
,
0000
0010
0010
0001
,
0000
0100
0100
0010
,
0000
1000
1000
0010
,
0000
1000
0100
1000
,
0001
0100
0000
0001
,
0001
1000
0000
0001
,
0000
1000
0000
0001
,
0000
1000
1000
0001
,
1000
1001
0000
0000
0000
0000
0000
0000
;

//---------------dance-single - ----------------
#NOTES:
     dance-single:
     :
     Challenge:
     14:
     0.722463,0.876761,0.301925,0.364826,0.270474,402.000000,378.000000,24.000000,29.000000,0.000000,0.000000,0.722463,0.876761,0.301925,0.364826,0.270474,402.000000,378.000000,24.000000,29.000000,0.000000,0.000000:
// measure 0
0000
2000
3020
0032
,  // measure 1
0203
2300
3020
0032
,  // measure 2
0203
2300
3020
0032
,  // measure 3
0203
0000
2300
0000
3020
0000
1030
0100
,  // measure 4
0010
0001
1000
0100
0010
0010
0001
0001
,  // measure 5
0100
0020
1000
1030
0001
0010
0010
0100
,  // measure 6
1000
1000
0100
0100
0010
0001
1000
1000
,  // measure 7
0100
2000
0001
3001
1000
0001
1000
1000
,  // measure 8
0100
0010
0010
0001
0010
0020
0130
0200
,  // measure 9
1300
2000
0010
3100
0001
0010
0020
0130
,  // measure 10
0200
1300
2000
3100
0010
0020
0001
0130
,  // measure 11
0200
0000
0010
0000
0310
1000
0010
1000
0100
0010
0100
0010
0001
0100
0001
0100
,  // measure 12
0010
1000
0100
0010
0001
0000
0010
0001
0010
0000
0100
0000
1000
0000
0001
0000
,  // measure 13
0100
0000
0010
1000
0100
0000
0100
0000
0010
0000
0100
0000
1000
0000
0001
0000
,  // measure 14
0010
0001
1000
0010
0100
0000
1000
0000
0100
0000
0001
0000
0010
0000
0001
0000
,  // measure 15
0100
0000
1000
0000
0100
0000
0002
0003
0010
0000
0220
0000
0000
0000
0330
0000
,  // measure 16
0000
0000
1001
0000
1000
0001
0000
0001
,  // measure 17
0010
0100
0100
0000
0010
0000
0100
1000
,  // measure 18
0010
0000
0010
1000
0100
0010
0000
0010
,  // measure 19
0001
0100
0100
0000
0010
1000
0000
0001
,  // measure 20
1000
1000
0100
0010
0100
1000
0000
0010
,  // measure 21
1000
0010
0000
0001
0010
0000
0100
0010
,  // measure 22
0100
0000
0001
0010
0001
0100
0000
0010
,  // measure 23
1000
0100
0000
0010
0100
0000
1000
0000
,  // measure 24
0001
1000
0001
1000
1001
0000
0100
0000
0010
0000
0100
0000
0010
0000
0100
0000
,  // measure 25
0010
0010
0001
0010
0001
0010
0001
0010
,  // measure 26
0001
0000
0100
0010
0100
0000
0010
0000
1000
0000
1000
0000
0001
0000
1000
0000
,  // measure 27
0010
0100
0100
1000
1000
0001
0010
0100
,  // measure 28
0001
1000
0010
0000
1000
0000
0010
0000
1000
0000
0010
0000
1000
0000
0100
0000
,  // measure 29
0010
0010
0001
0001
1000
0010
1000
0001
,  // measure 30
0100
0001
1000
0010
0100
0000
0101
0000
0001
0000
0101
0000
0000
0000
0011
0000
,  // measure 31
0010
0011
0000
1010
0010
1010
0000
1100
,  // measure 32
1000
1100
0000
0001
1001
0000
1000
1001
,  // measure 33
0100
0110
0000
0010
0110
0000
0100
0001
,  // measure 34
1000
0001
1000
0010
0100
0000
0000
0001
1000
0000
0000
1000
0100
0000
0000
0100
,  // measure 35
0010
0000
0000
0010
0001
0000
0000
0000
0001
0000
0000
0000
1000
0000
0010
0000
,  // measure 36
0100
0000
0001
0000
1000
0000
0000
1000
0100
0000
0000
0100
0010
0000
0000
0010
,  // measure 37
0001
0000
0000
0001
0100
0000
0000
0000
0100
0000
0000
0000
0010
0000
1000
0000
,  // measure 38
0100
0000
0010
0000
0001
0000
0000
0001
0100
0000
0000
0100
0010
0000
0000
0010
,  // measure 39
1000
0000
0000
1000
0100
0000
0000
0000
0100
0000
0000
0000
0010
0000
0001
0000
,  // measure 40
0100
0000
0010
0000
1000
0000
0000
1000
0010
0000
0000
0010
0100
0000
0000
0100
,  // measure 41
0001
1001
1001
0110
,  // measure 42
0100
0001
1000
0001
1000
0000
0010
0000
1000
0000
0100
0000
1000
0000
0010
0000
,  // measure 43
0100
0001
0100
0010
1000
0100
0010
1000
,  // measure 44
0010
0001
0100
0010
0001
0010
1000
0100
,  // measure 45
0010
0000
0001
0000
0000
0000
0001
0000
0010
0000
0100
0000
1000
0000
0001
0100
,  // measure 46
0001
0100
0001
0000
1000
0000
1000
0000
0010
0000
1000
0000
0001
0000
1000
0000
,  // measure 47
0100
1000
0100
0000
0010
0001
0010
0000
,  // measure 48
0001
0000
0100
0001
0010
0000
0010
0000
0100
0000
0010
0000
0100
0000
1000
0000
,  // measure 49
0100
0000
1000
0000
0010
0100
0001
0000
0001
0000
0100
0000
1000
0000
0100
0000
,  // measure 50
0001
0000
0010
0000
0110
0000
0000
1010
0000
0000
0011
0000
0000
1100
0000
0000
,  // measure 51
0101
2002
0000
0000
0000
3003
0000
0000
;
