#TITLE:Deal With The Devil;
#SUBTITLE:Kakegurui Opening 1;
#ARTIST:Tia;
#TITLETRANSLIT:;
#SUBTITLETRANSLIT:;
#ARTISTTRANSLIT:;
#CREDIT:Magna Trick;
#BANNER:DWTDBN.jpg;
#BACKGROUND:DWTDBG.jpg;
#LYRICSPATH:;
#CDTITLE:Magna Trick title!.png;
#MUSIC:Deal With The Devil.mp3;
#OFFSET:-0.057;
#SAMPLESTART:59.800;
#SAMPLELENGTH:14.000;
#SELECTABLE:YES;
#BPMS:0.000=150.000,28.000=149.000,72.000=37.360,72.500=152.000,84.000=149.000,90.500=148.000,102.500=149.000,122.500=150.000,133.000=147.000,138.500=151.000,155.000=149.000;
#STOPS:72.000=0.020
,72.333=0.020
,142.750=0.040
,144.250=0.040
;
#BGCHANGES:0.063=Deal With The Devil.avi=1.000=0=0=1,
226.000=DWTDBG.jpg=1.000=0=0=1,
99999=-nosongbg-=1.000=0=0=0 // don't automatically add -songbackground-
;

//---------------dance-single - ----------------
#NOTES:
     dance-single:
     :
     Hard:
     15:
     0.849,0.939,0.125,0.047,1.000:
0000
0000
0000
0000
,
0000
0000
0000
0000
0000
0000
0000
0000
0000
0000
0000
0000
0000
0000
0000
0000
0000
0000
0000
0000
0000
0000
0000
0001
,
0000
0010
0000
0001
0000
0010
0000
0100
0000
1000
0000
0100
0000
1000
0000
0010
0000
0100
0000
0000
0000
0000
0000
0000
,
0001
0000
0000
0010
0000
0000
0000
0000
0000
0100
0000
0000
1000
0000
0000
0000
0000
0000
0001
0000
0000
1000
0000
0000
0000
0000
0000
0000
0001
0000
1000
0000
0001
0000
1000
0000
0001
0000
1000
0000
0001
0000
0000
0000
0000
0000
0000
0000
,
0100
0010
0000
1000
0100
0000
0010
0001
0000
0100
0010
0000
1000
0002
0000
0000
,
1003
0010
0000
0001
0000
0010
0000
1000
0000
0100
0000
0001
0100
0000
0010
0000
,
1001
0000
0000
0000
0001
0000
0010
0000
0100
0000
1000
0000
0001
0000
0010
0000
0100
0000
1000
0000
0001
0000
1000
0000
0100
0010
0100
0010
0001
0000
0000
0000
,
1001
0000
0001
0000
1000
0000
0010
0100
0000
0010
0000
1000
0001
0000
0010
0000
,
0100
0000
0010
0000
0001
0000
1000
0100
0000
1000
0000
0001
0010
0000
0100
0000
,
1000
0000
0001
0000
0100
0000
0010
0100
0000
1000
0000
0100
0010
0000
1000
0000
,
0110
0000
0110
0000
0001
0010
0100
1000
0000
0001
0000
0100
0010
0000
0000
0000
,
0001
1000
0001
1000
0100
0010
0100
0010
,
0001
1000
0001
1000
0010
1000
0010
1000
,
0100
0001
1000
0010
0100
0010
0001
1000
,
0001
0000
0010
0000
0100
0000
0010
0000
0001
1000
0000
1000
0001
0000
0000
0000
,
0010
0100
0010
0100
1000
0100
1000
0100
,
0001
0100
0001
0100
0010
1000
0010
1000
,
0001
0100
1000
0010
1000
0100
0010
0001
,
2000
0000
3001
0100
0000
0100
1000
0000
0000
0000
1000
0000
0010
0000
1000
0000
,
0010
0100
0001
0100
0001
0010
0001
0100
,
0001
0010
0100
1000
0001
1000
0010
0100
,
0010
0001
1000
0100
0001
0010
0100
1000
,
0010
0100
0001
1000
0000
0010
1000
0010
,
1000
0001
0100
0001
0100
0010
1000
0010
,
0100
0010
0001
0010
0100
0001
1000
0010
,
0001
0000
1000
0000
0100
0000
0001
0000
0010
0000
0100
0000
0100
0000
1000
0001
,
1000
0001
0000
0100
0000
0010
0100
0000
0000
0000
0001
0000
0100
0000
0001
0000
,
0100
0000
0010
0000
1000
0010
0000
0010
1000
0000
0001
0000
1000
0000
0100
0000
,
0010
0000
0001
0000
0010
0000
0100
1000
0001
0000
0100
0000
0001
0000
0100
0000
,
0010
0000
1000
0000
0001
0000
0010
0000
0100
0000
0020
0030
0002
0003
0020
0030
,
0200
0000
0000
2300
0000
0000
3000
0000
0000
0002
0000
0000
0003
0000
0000
0200
0000
0000
0310
0000
0000
0000
0000
0000
1000
0000
0001
0000
1000
0000
0001
0000
0000
0000
0000
0000
0000
0000
0000
0000
0000
0000
0001
0000
0000
0000
0000
0000
,
1000
0000
0100
0000
0010
0100
0000
0100
0010
0000
0001
0000
1000
0000
0010
0000
,
0100
0000
0001
0000
1000
0000
0100
0010
0001
0000
1000
0000
0010
0000
1000
0000
,
0001
0000
1000
0000
0100
0000
1000
0000
0010
0000
0100
0000
0001
0000
1000
0001
,
1000
0001
0000
0010
0000
0100
1000
0000
0000
0000
0001
1000
0001
1000
0001
1000
,
0001
1000
0001
1000
0001
1000
0001
1000
0001
0000
0001
1000
0000
0000
0000
0000
,
1000
0000
0001
0000
0000
0000
0000
0000
0000
0000
1000
0001
1000
0001
1000
0001
1000
0000
0000
0000
0000
0000
0000
0000
0001
0000
0000
0000
0010
0000
0100
0000
,
0000
0100
0000
0000
1000
0000
0100
0010
0000
0010
0000
0000
0010
0000
0001
1000
,
0000
0001
0010
0000
0001
1000
0000
0100
0000
0010
0000
0000
0001
0000
0100
0010
,
0000
0100
1000
0000
0100
0010
0000
1000
0000
0100
0000
0000
0010
0000
0001
1000
,
0000
0200
0000
0300
2002
0000
0000
0000
3003
0000
0000
0000
1000
0000
0100
0010
,
0000
0010
0000
0000
0001
0000
0010
0100
0000
0100
0000
0000
0010
0000
0001
0100
,
0000
0001
0000
0000
1000
0000
0010
0000
0100
0000
1000
0000
0100
0000
0010
1000
,
0000
0000
0000
1000
0000
0000
0100
0000
0000
0000
0000
0000
0100
0000
0000
0001
0000
0000
0000
0000
0000
0001
0000
0000
1000
0000
0000
0000
0000
0000
0001
0000
0000
0000
0100
0000
0000
0000
1000
0000
0000
0000
0001
0000
0000
0000
0010
0000
,
0000
0000
1000
0000
0000
0000
0001
0000
0000
0000
0000
0000
0220
0000
0000
0000
0000
0000
0000
0000
0000
0000
0000
0000
0330
0000
0000
0000
0000
0000
0000
0000
0000
0000
0000
0000
1000
0000
0000
0000
0000
0000
0100
0000
0000
0010
0000
0000
,
0000
0010
0000
0000
0001
0000
0010
0100
0000
0100
0000
0000
0100
0000
1000
0001
,
0000
1000
0100
0000
1000
0001
0000
0010
0000
0100
0000
0000
1000
0000
0010
0100
,
0000
0010
0001
0000
0010
0100
0000
0001
0000
0010
0000
0000
0100
0000
1000
0001
,
0000
0020
0000
0030
2002
0000
0000
0000
3003
0000
0000
0000
0001
0000
0010
0100
,
0000
0100
0000
0000
1000
0000
0100
0010
0000
0010
0000
0000
0100
0000
1000
0010
,
0000
1000
0000
0000
0001
0000
0100
0000
0010
0000
0001
0000
0010
0000
0100
0001
,
0000
0000
0000
0001
0000
0000
0010
0000
0000
0000
0000
0000
0010
0000
0000
1000
0000
0000
0000
0000
0000
1000
0000
0000
0001
0000
0000
0000
0000
0000
1000
0000
0000
0000
0010
0000
0000
0000
0001
0000
0000
0000
1000
0000
0000
0000
0100
0000
,
0000
0000
0001
0000
0000
0000
1000
0000
0000
0000
0000
0000
0220
0000
0000
0000
0000
0000
0000
0000
0000
0000
0000
0000
0330
0000
0000
0000
0000
0000
1001
0000
0000
0000
0000
0000
0001
0000
0000
0010
0000
0000
0100
0000
0000
1000
0000
0000
,
0000
1001
0000
0000
1001
0000
0100
0010
0000
1001
0000
0000
1000
0000
0001
0000
,
1000
0001
0000
0001
0000
1000
0001
1000
0001
0000
1001
0000
0000
0001
0000
1000
,
0001
0000
0000
0000
0000
0000
1000
0000
0100
0000
0010
0000
0000
0000
0000
0001
0000
0010
0000
0100
0000
1000
0000
0001
,
0000
0000
0010
0000
0000
0000
0000
0000
0000
0000
0000
0000
0000
0000
0000
0200
0000
0000
0000
0000
0000
0000
0000
0000
0000
0000
0000
0000
0000
0000
0300
0000
0000
0000
0000
0000
0000
0000
0000
0000
0000
0000
0000
0000
0000
0000
0000
0000
;

//---------------dance-single - ----------------
#NOTES:
     dance-single:
     :
     Challenge:
     19:
     1.000,1.000,0.461,0.036,1.000: // measure 1
0000
0000
0000
0000
,  // measure 2
0000
0001
0000
0000
0000
0000
0000
0100
0000
0000
0000
0000
0000
0010
0000
0000
0000
0000
0000
0000
0000
0000
0000
1000
,  // measure 3
0000
0100
0000
1000
0000
0100
0000
0010
0000
0001
0000
0100
0000
0010
0000
1000
0000
0200
0000
0000
0000
0000
0300
0000
,  // measure 4
1000
0000
0000
0100
0000
0000
0000
0000
0000
0010
0000
0000
0001
0000
0000
0000
0000
0000
1000
0000
0000
0001
0000
0000
0000
0000
0000
0000
1000
0000
0001
0000
1000
0000
0001
0000
1000
0000
0001
0000
1000
0000
0000
0000
0000
0000
0000
0000
,  // measure 5
0010
0100
0000
0001
0010
0000
0100
1000
0000
0010
0100
0000
0001
2001
0000
0000
,  // measure 6
3001
0000
0000
0100
0000
0000
0000
0000
0000
1000
0000
0000
0000
0000
0000
0100
0000
0000
0000
0000
0000
0001
0000
0000
0000
0000
0000
0010
0000
0000
0000
0000
0000
1000
0000
0000
0010
0000
0000
0000
0000
0000
0100
0000
1000
0000
0100
0000
,  // measure 7
1001
0000
0000
0000
1000
0000
0100
0000
0010
0000
0001
0000
1000
0000
0100
0000
0010
0000
0001
0000
1000
0000
0001
0000
0010
0100
0010
0100
1000
0000
0000
0000
,  // measure 8
1001
0000
1000
0000
0001
0000
0100
0010
0000
0100
0000
0001
1000
0000
0100
0000
,  // measure 9
0010
0000
0100
0000
1000
0000
0001
0010
0000
0001
0000
1000
0100
1001
0000
1001
,  // measure 10
0100
0000
1000
0000
0010
0000
0100
0010
0000
0001
0000
0010
0100
0000
0001
0000
,  // measure 11
0110
0000
0110
0000
1000
0100
0010
0001
0000
1000
0000
0010
0110
0000
0000
0000
,  // measure 12
1000
0100
0001
0000
0001
0100
1000
0000
1000
0010
0001
0000
0001
0010
1000
0000
,  // measure 13
1000
0100
0010
0000
0010
0100
1000
0000
0001
0100
0010
0000
1000
0010
0100
0000
,  // measure 14
0001
0010
0100
0000
1000
0100
1000
0100
0010
0000
0001
1000
0001
0000
1000
0000
,  // measure 15
0100
0000
0010
0000
0100
0000
0000
0000
0010
0000
0000
0000
0001
0000
0000
0000
1000
0000
0001
0000
0000
0000
0001
0000
1000
0000
0000
0000
1000
0100
0010
0001
,  // measure 16
1000
0100
0001
0000
0001
0100
1000
0000
1000
0010
0001
0000
0001
0010
1000
0000
,  // measure 17
1000
0100
0010
0000
0010
0100
1000
0000
0010
0100
0001
0000
0100
0000
0001
0000
,  // measure 18
0010
0001
0010
0000
0100
0000
1000
0010
1000
0000
0010
0000
0100
0000
0100
0000
,  // measure 19
0020
0000
0000
0000
0000
0000
1030
0000
0000
0010
0000
0000
0000
0000
0000
0010
0000
0000
0001
0000
0000
0000
0000
0000
0010
0000
1000
0000
0001
0000
1000
0000
0000
0000
0000
0000
0001
0000
0000
0000
0000
0000
0010
0000
0000
0000
0000
0000
,  // measure 20
0100
1000
0010
0000
0100
0000
0001
0100
0010
0000
1000
0100
0010
0000
0001
0000
,  // measure 21
0100
1000
0001
0000
0010
0000
0100
0010
1000
0000
0100
0010
0001
0000
1000
0000
,  // measure 22
0001
1000
0010
0000
0100
0000
0001
1000
0100
0000
0010
0001
0100
0000
1000
0000
,  // measure 23
0100
0000
0001
0000
0010
0000
0000
0000
0100
0000
0000
0000
1000
0001
1000
0001
1000
0000
0000
0000
0100
0000
0010
0000
0001
0000
0000
0000
1000
0000
0000
0000
,  // measure 24
0100
0010
0001
0000
1000
0000
0001
0010
1000
0000
0001
0100
1000
0000
0010
0000
,  // measure 25
1000
0100
0010
0000
0001
0000
1000
0010
0001
0000
1000
0100
0001
0000
1000
0000
,  // measure 26
0100
0010
1000
0000
0001
0000
0100
1000
0010
0000
1001
0000
1001
0000
0001
1000
,  // measure 27
0001
0000
0000
1000
0000
0000
0010
0000
0100
0000
1000
0000
0100
0000
0001
0000
0010
0000
0001
0000
1000
0000
0100
0000
1000
0000
0000
0000
0000
0000
1001
0000
0000
0000
0000
0000
0010
0000
0000
0000
0000
0000
1000
0000
0000
0000
0000
0000
,  // measure 28
0001
0000
1000
0001
0100
0010
0000
0010
1000
0000
0001
0000
0010
0000
0100
1000
,  // measure 29
0001
0000
0000
1000
0000
0000
0001
0000
0000
0000
0000
0000
0100
0000
0000
0000
0000
0000
0010
0000
0100
0000
0001
0000
1000
0000
0000
0000
0000
0000
0010
0000
0000
0000
0000
0000
1000
0000
0000
0000
0000
0000
0010
0000
0000
0000
0000
0000
,  // measure 30
0100
0000
0001
0000
1000
0000
0100
0000
0010
0000
0200
0300
2000
3000
0200
0300
,  // measure 31
0020
0000
0000
0032
0000
0000
0003
0000
0000
2000
0000
0000
3000
0000
0000
0020
0000
0000
0130
0000
0000
0000
0000
0000
0001
0000
1000
0000
0001
0000
1000
0000
0000
0000
0000
0000
0000
0000
0000
0000
0000
0000
1000
0000
0000
0000
0000
0000
,  // measure 32
0001
0000
0010
0001
0100
0010
0000
0010
0100
0000
1000
0000
0001
0010
0100
0010
,  // measure 33
1000
0000
0000
0001
0000
0000
1000
0000
0000
0000
0000
0000
0001
0000
0000
0000
0000
0000
0010
0000
0000
0100
0000
0000
1000
0000
0000
0000
0000
0000
0001
0000
0000
0000
0100
0000
0000
0000
0010
0000
0000
0000
0001
0000
0000
0000
1000
0000
,  // measure 34
0000
0000
0100
0000
0000
0000
0001
0000
0000
0000
0010
0000
0000
0000
0100
0000
0000
0000
1000
0000
0000
0000
0001
0000
0000
0000
0100
0000
0000
0000
0010
0000
0000
0000
0000
0000
1000
0000
0000
0000
0000
0000
0001
0000
0000
1000
0000
0000
,  // measure 35
0001
0000
0000
1000
0000
0000
0000
0000
0000
0100
0000
0000
0000
0000
0000
0010
0000
0000
0011
0000
0000
0000
0000
0000
0000
0000
0000
0000
0000
0000
1000
0000
0100
0000
0010
0000
0001
0000
0100
0000
0001
0000
0010
0000
0100
0000
1000
0000
,  // measure 36
0010
0000
1000
0000
0100
0000
0001
0000
0100
0000
0010
0000
0001
0000
0010
0000
0100
0000
1000
0000
0100
0000
0010
0000
0001
0000
0000
0000
0000
0000
1001
0000
0000
0001
0000
0000
0000
0000
0000
0000
0000
0000
0000
0000
0000
0000
0000
0000
,  // measure 37
1001
0000
1000
0000
0000
0000
0000
0000
0000
0000
0001
0010
0100
1000
0001
0010
0100
1000
0000
0000
0000
0000
0000
0000
1000
0000
0001
0000
1000
0000
0001
0000
,  // measure 38
0000
0010
0000
0000
0010
0001
0010
0100
1000
0100
0000
0010
0100
1000
0001
1000
,  // measure 39
0000
0100
1000
0000
1000
0001
0000
0010
0000
0100
0000
0000
1000
0010
1000
0100
,  // measure 40
0000
0000
0010
0000
0001
0000
0000
0000
0010
0000
0100
0000
0000
0000
0001
0000
0000
0000
0110
0000
0000
0000
0000
0000
0100
0000
0000
0000
1000
0000
0001
1000
,  // measure 41
0001
0000
0020
0000
0000
0000
0030
0000
1001
0000
0000
0000
0000
0000
1000
0001
1000
0001
0000
0000
0000
0000
0000
0000
1001
0000
0000
0000
0010
0000
0100
0000
,  // measure 42
0000
0100
0000
1000
0100
1000
0100
0010
0001
0010
0000
0000
0100
1000
0010
1000
,  // measure 43
0000
0001
0100
0000
0001
0000
0100
0010
1000
0001
0100
0000
0010
0000
0100
0001
,  // measure 44
0000
0000
0000
0001
0000
0000
0010
0000
0000
0000
0000
0000
0010
0000
0000
1000
0000
0000
0000
0000
0000
1000
0000
0000
0001
0000
0000
0000
0000
0000
1010
0000
0000
0000
1010
0000
0000
0000
1010
0000
0000
0000
0101
0000
0000
0000
0101
0000
,  // measure 45
0000
0000
0101
0000
0000
0000
1001
0000
0000
0000
0000
0000
0220
0000
0000
0000
0000
0000
0000
0000
0000
0000
0000
0000
0330
0000
0000
0000
0000
0000
0000
0000
0000
0000
0000
0000
0001
0000
0000
1000
0000
0000
0010
0000
0000
0100
0000
0000
,  // measure 46
0000
0100
0000
0000
1000
0001
0010
0100
0000
0100
0000
0000
0010
1000
0001
1000
,  // measure 47
0000
0001
0010
0000
0001
1000
0000
0100
0000
0010
0000
0000
0001
1000
0100
0010
,  // measure 48
0000
0100
1000
0000
0100
0010
0000
1000
0000
0110
0000
0000
0010
0000
0001
1000
,  // measure 49
0010
0000
0200
0000
0000
0000
0300
0000
1001
0000
0000
0000
0000
0000
0001
1000
0001
1000
0000
0000
0000
0000
0000
0000
1001
0000
0000
0000
0100
0000
0010
0000
,  // measure 50
0000
0010
0000
0000
0001
0010
0100
1000
0100
0010
0000
0000
0010
0000
0001
0100
,  // measure 51
0000
0001
1000
0000
1000
0000
0010
1000
0100
0010
0001
0000
0100
0000
0010
1000
,  // measure 52
0000
0000
0000
1000
0000
0000
0100
0000
0000
0000
0000
0000
0100
0000
0000
0001
0000
0000
0000
0000
0000
0001
0000
0000
1000
0000
0000
0000
0000
0000
0101
0000
0000
0000
0101
0000
0000
0000
0101
0000
0000
0000
1010
0000
0000
0000
1010
0000
,  // measure 53
0000
0000
1010
0000
0000
0000
1001
0000
0000
0000
0000
0000
0110
0000
0000
0000
0000
0000
0000
0000
0001
0000
1000
0000
0001
0000
1000
0000
0000
0000
1001
0000
0000
0000
0000
0000
0001
0000
0000
0100
0000
0000
0010
0000
0000
1000
0000
0000
,  // measure 54
0000
0000
1001
0000
0000
0000
0000
0000
1001
0000
0000
0000
0010
0000
0100
0000
0000
0000
1001
0000
0000
0000
0000
0000
0001
0000
0000
0000
1000
0001
1000
0000
,  // measure 55
0000
0100
0000
1000
0000
0100
0010
0001
1000
0000
1001
0000
0000
1000
0000
0001
,  // measure 56
1000
0000
0000
1001
0000
0000
0001
0000
0010
0000
0100
0000
0000
0000
0000
1100
0000
1010
0000
0011
0000
0101
0000
0110
,  // measure 57
0000
0000
1001
0000
0000
0000
0000
0000
0000
0000
0000
0000
0000
0000
0000
0020
0000
0000
0000
0000
0000
0000
0000
0000
0000
0000
0000
0000
0000
0000
0030
0000
0000
0000
0000
0000
0000
0000
0000
0000
0000
0000
0000
0000
0000
0000
0000
0000
;

//---------------dance-single - ----------------
#NOTES:
     dance-single:
     :
     Medium:
     11:
     0.562,0.587,0.144,0.146,0.245:
0000
0000
0000
0000
,
0000
0000
0000
0000
0000
0000
0000
0000
0000
0000
0000
0000
0000
0000
0000
0000
0000
0000
0000
0000
0000
0000
0000
0002
,
0000
0000
0000
0000
0000
0023
0000
0000
0000
0000
0000
0230
0000
0000
0000
0000
0000
2300
0000
0000
0000
0000
3000
0000
,
1001
0000
0000
1001
0000
0000
0000
0000
,
1001
0000
0000
1001
0000
0000
0110
0000
,
1000
0100
0000
1000
0000
0100
0000
0010
0000
0001
0000
0010
0001
0000
1000
0000
,
0001
0000
0000
0000
1000
0000
0001
0000
1000
0000
0001
0000
1000
0001
1000
0001
,
1000
0010
1000
0010
1000
0010
1000
0100
,
1000
0100
1000
0100
1000
0100
1000
0001
,
1000
0010
1000
0010
1000
0010
1000
0010
,
1000
0100
1000
0010
1000
0100
0010
0000
,
0001
0001
1000
1000
,
0100
0100
0010
0010
,
0001
0000
0001
1000
0000
0001
1000
0000
,
0100
0010
0000
0100
0010
0000
0010
0000
,
0001
0001
1000
1000
,
0100
0100
0010
0010
,
0001
0000
1000
0001
0000
1000
0001
0000
,
2000
3000
0000
0000
0000
0001
0010
0001
,
0010
0001
0100
0001
0100
0001
1000
0100
,
1000
0001
0010
0001
0100
0001
0001
0001
,
0100
0100
0100
0001
0001
0001
0100
0001
,
0100
0001
0001
0100
0000
1000
0100
1000
,
0100
1000
0010
1000
0010
1000
0001
0010
,
0001
1000
0100
1000
0010
1000
1000
0100
,
0010
0010
0001
1000
1000
0010
0100
0010
,
0100
0010
0100
0002
0000
0003
0000
1000
,
0000
0000
0100
0000
0000
0010
0000
0000
0100
0000
0000
0000
0001
0000
0001
0000
,
0000
0100
0200
0000
0300
0000
1000
0001
,
1000
0000
0001
0000
0000
0000
0100
0000
0000
0000
0002
0000
2003
0000
3020
0030
,
0200
0302
0003
2000
3000
0200
0310
0000
0001
0000
0000
0000
0000
0000
0100
0000
,
0010
0100
1000
1000
0001
0010
0100
0100
,
1000
0001
0010
0100
0010
0200
0000
2300
,
0000
3020
0000
0230
0000
0302
0000
0023
,
0000
0230
0000
0300
0000
2002
0000
0000
,
0000
0000
0000
3003
0000
1001
0000
0000
,
1001
0000
0000
0000
0000
0000
1000
0100
,
0010
0001
0100
0010
1000
0100
0010
0001
,
0001
0010
0010
0100
0100
1000
0010
0100
,
0100
0001
0001
0100
0010
1000
0100
0010
,
0010
0100
2000
0000
3000
0000
0100
0010
,
0001
1000
0010
0100
0001
0010
0100
1000
,
0010
0100
0001
0010
0100
2000
0000
0000
,
3000
0002
0000
0003
1000
0001
1000
0001
,
1000
0001
0220
0000
0330
0000
0001
0010
,
0100
1000
0010
0100
0001
0010
0100
1000
,
1000
0100
0100
0010
0010
0001
0100
0010
,
0010
1000
1000
0010
0100
0001
0010
0100
,
0100
0010
0002
0000
0003
0000
0010
0100
,
1000
0001
0100
0010
1000
0100
0010
0001
,
0100
0010
1000
0100
0010
0002
0000
0000
,
0003
2000
0000
3000
0001
1000
0001
1000
,
0001
1000
0220
0000
0330
1001
0000
0000
,
0000
1001
0000
0000
0000
0000
0000
0000
0000
1001
0000
0000
0000
0000
0000
0000
,
0000
0000
0000
0000
0000
1001
0000
0000
,
0000
0000
0000
1001
0000
0000
0000
0000
0000
0000
0000
0000
0000
0000
0000
0000
0000
0000
0000
0000
0000
0000
0000
0000
0000
0000
0000
0000
0000
0000
0001
0000
0000
0000
1000
0000
0000
0000
0001
0000
0000
0000
1000
0000
0000
0000
0001
0000
,
0000
0000
1000
0000
0000
0000
0000
0000
0000
0000
0000
0000
0000
0000
0000
0200
0000
0000
0000
0000
0000
0000
0000
0000
0000
0000
0000
0000
0000
0000
0300
0000
0000
0000
0000
0000
0000
0000
0000
0000
0000
0000
0000
0000
0000
0000
0000
0000
;

//---------------dance-single - ----------------
#NOTES:
     dance-single:
     :
     Easy:
     7:
     0.471,0.465,0.115,0.143,0.170:
0000
0000
0000
0000
,
0000
0000
0000
0000
0000
0000
0000
0000
0000
0000
0000
0000
0000
0000
0000
0000
0000
0000
0000
0000
0000
0000
0000
0002
,
0000
0000
0000
0000
0000
2003
0000
0000
0000
0000
0000
3002
0000
0000
0000
0000
0000
2003
0000
0000
0000
0000
3000
0000
,
1001
0000
0000
1001
0000
0000
0000
0000
,
1001
0000
0000
1001
0000
0000
0120
0000
,
2030
0000
0000
0000
0000
0000
3001
1000
,
0001
0000
1000
0001
1000
0001
2000
0000
,
3000
0010
1000
0010
1000
0010
1000
0000
,
0001
0100
0001
0100
0001
0100
0001
0000
,
1000
0001
1000
0001
1000
0001
1000
0000
,
0100
0010
0100
0010
0100
0010
0100
0000
,
1000
1000
0001
0001
,
0010
0010
0100
0100
,
1000
0000
1000
0001
0000
1000
0001
0000
,
0010
0100
0000
0010
0100
0000
0100
0000
,
1000
1000
0001
0001
,
0010
0010
0100
0100
,
1000
0000
0001
1000
0000
0001
1000
0000
,
0002
0003
0000
0000
0000
1000
0100
1000
,
0000
0001
0100
0001
0000
1000
0100
1000
,
0000
0001
0100
0001
0000
1000
0000
0001
,
0000
1000
0000
0010
0000
0100
0000
0010
,
0000
0100
0000
0001
0000
1000
0001
1000
,
0000
0001
1000
0001
0000
0010
0100
0010
,
0000
0100
0010
0100
0000
1000
0000
0001
,
0000
1000
0000
0001
0000
1000
1000
0001
,
0001
1000
1000
0001
0000
0000
0000
0100
,
0000
0000
0010
0000
0000
0100
0000
0000
0010
0000
0000
0000
1000
0000
1000
0000
,
0000
0010
0020
0000
0030
0000
1000
0000
,
0001
0001
0000
0001
0000
2000
3002
2003
,
3002
2003
3002
0103
0010
0000
0000
1000
,
0000
0010
0000
0100
0000
0001
0000
0010
,
0000
0100
0000
1000
0100
0020
0000
0032
,
0000
0203
0000
0320
0000
2030
0000
3200
,
0000
0320
0000
0030
0000
0002
0000
0000
,
0000
0000
0000
0000
0003
1001
0000
0000
,
1001
0000
0000
0000
0000
0000
0001
0010
,
0001
0010
0000
0001
0010
0001
0000
1000
,
0100
1000
0100
1000
0100
1000
0000
0010
,
1000
0010
1000
0010
1000
0010
0000
1000
,
0001
1000
0002
0000
0003
0000
0001
0100
,
0001
0100
0000
0010
1000
0010
0000
1000
,
0001
1000
0001
1000
0001
1000
0000
0100
,
0000
0010
0000
0100
0000
0010
0100
0010
,
0100
0010
0200
0000
0300
0000
1000
0100
,
1000
0100
0000
1000
0100
1000
0000
0001
,
0010
0001
0010
0001
0010
0001
0000
0100
,
0001
0100
0001
0100
0001
0100
0000
0001
,
1000
0001
2000
0000
3000
0000
1000
0010
,
1000
0010
0000
0100
0001
0100
0000
0001
,
1000
0001
1000
0001
1000
0001
0000
0010
,
0000
0100
0000
0010
0000
0100
0010
0100
,
0010
0100
0020
0000
0030
1001
0000
0000
,
0000
1001
0000
0000
0000
0000
0000
0000
0000
0000
1001
0000
0000
0000
0000
0000
,
0000
0000
0000
0000
0000
1001
0000
0000
,
0000
0000
0000
1001
0000
0000
0000
0000
0000
0000
0000
0000
0000
0000
0000
0000
0000
0000
0000
0000
0000
0000
0000
0000
0000
0000
0000
0000
0000
0000
1000
0000
0000
0000
0001
0000
0000
0000
1000
0000
0000
0000
0001
0000
0000
0000
1000
0000
,
0000
0001
0000
0000
0000
0000
0000
0000
0000
0000
0000
0000
0000
0000
0000
0000
0000
0000
0000
0000
0000
0000
0000
0000
;
