#TITLE:Dame!;
#SUBTITLE:Samurai X Ending 7 Cover Latino;
#ARTIST:Miko Chan;
#TITLETRANSLIT:;
#SUBTITLETRANSLIT:;
#ARTISTTRANSLIT:;
#GENRE:;
#CREDIT:Magna Trick;
#BANNER:DMBN.jpg;
#BACKGROUND:DMBG.jpg;
#LYRICSPATH:;
#CDTITLE:Magna Trick title!.png;
#MUSIC:Dame! .mp3;
#OFFSET:0.120000;
#SAMPLESTART:49.000000;
#SAMPLELENGTH:14.000000;
#SELECTABLE:YES;
#BPMS:0.000000=157.000000
,89.500000=78.500000
,91.500000=157.000000
,204.000000=78.500000
,228.000000=157.000000
,246.000000=314.000000
,248.000000=157.000000
,317.000000=78.500000
,319.000000=157.000000
,341.000000=157.399994
;
#STOPS:
;
#BGCHANGES:0.063=Dame.avi=1.000=0=0=1=====,
345.000=DMBG.jpg=1.000=0=0=1=====,
99999=-nosongbg-=1.000=0=0=0 // don't automatically add -songbackground-
;
#KEYSOUNDS:;
#ATTACKS:;

//---------------dance-single - ----------------
#NOTES:
     dance-single:
     :
     Hard:
     11:
     0.494129,0.654892,0.150984,0.480403,0.147552,504.000000,482.000000,22.000000,70.000000,0.000000,0.000000,0.494129,0.654892,0.150984,0.480403,0.147552,504.000000,482.000000,22.000000,70.000000,0.000000,0.000000:
0000
0000
0000
0000
0010
0000
0000
0100
,
0000
0000
0001
0000
0010
0000
0000
0100
,
0000
0000
1000
0000
0001
1000
0001
0100
,
0010
1000
0100
0010
0000
0001
0100
0001
,
0010
0100
1000
0001
0000
0000
1000
0001
,
1000
0010
0100
0220
0000
0000
0000
0000
,
0000
0000
0000
0330
,
0001
1000
0001
1001
0000
0001
0010
0100
,
1000
0100
0010
0001
0100
0100
0010
0010
,
2000
0000
3000
0001
0000
0010
0100
1000
,
0010
0100
0010
0001
0010
1000
0010
0100
,
0020
0000
0000
1030
0000
0100
1000
0010
,
2000
0000
3001
0001
0010
0001
0100
0001
,
2000
0000
3000
0010
0200
0000
0302
0000
,
2003
3200
0320
0031
,
1000
0010
1000
0000
0002
0000
0013
0000
,
0100
1000
0001
0000
0200
0000
0310
0000
,
1000
0001
0020
0000
0230
0000
1300
0000
,
0001
0100
0020
0000
2030
0000
3001
0000
,
0010
0100
1000
0001
0002
0000
0103
0000
,
0010
1000
0200
0010
0320
0000
2030
0000
,
3010
0100
2000
3000
0001
0000
0100
0000
,
0010
0000
0100
0000
0001
0000
2000
0000
0000
0000
0000
0000
0000
3000
1001
0000
,
0000
0100
0001
0100
1000
0100
0001
0100
,
0000
1000
0100
1000
0010
0200
0000
0000
,
0000
0301
0100
1000
0100
0001
0010
0001
,
1000
0010
1000
0001
0200
0000
0300
0110
,
0000
1000
0001
1000
0020
0000
0000
0130
,
0000
0001
0010
0001
0200
0000
0000
0300
,
0000
0010
1000
0001
1000
0100
0010
0001
,
1000
0010
0000
0200
0000
0301
0001
1001
,
0000
0100
0001
0100
1000
0100
0001
0100
,
0000
0001
0001
0010
0100
2000
0000
0000
,
3000
0001
1000
0100
0010
0100
1000
0010
,
0100
0010
0001
0010
2000
0000
3100
0000
,
0001
1000
0010
0100
0002
0000
0003
0010
,
0001
0100
0100
0010
2000
0000
3001
1000
,
0200
0000
0000
0000
0010
0000
0000
0000
0301
0000
0000
0100
0000
0000
1000
0000
,
0002
0000
0013
0000
0100
1000
0001
0000
,
0100
0000
0000
0010
0000
0000
2000
0000
0000
0000
0000
3000
0001
0000
0000
0000
,
1000
0000
0000
0100
0000
0000
0010
0000
0100
0000
1000
0000
0001
0000
0010
0000
,
0012
0000
1000
0000
1000
0000
1003
0010
,
0100
0001
0100
0010
1000
0001
1000
0010
,
0100
0000
0001
1000
0000
0100
0000
0011
,
0000
1100
0000
0001
0001
0001
0001
0010
,
0110
0001
0100
0020
0000
1030
0000
0100
,
0000
0000
0010
0001
1000
0000
0020
0000
0000
0000
0000
0000
1030
0000
0000
0000
,
1001
0000
0001
0000
0010
0100
1000
0001
,
0000
0000
0100
0001
1000
0000
0100
0000
0010
0000
0020
0000
0000
0030
0000
0000
,
1001
0000
0000
0000
1000
0001
0020
0000
0000
0000
0030
0000
0100
0000
1100
0000
,
0000
0001
0100
0001
1000
0010
0200
0300
,
1001
0000
0000
0000
0000
0000
0001
0000
0000
0000
1000
0000
0000
0100
0000
0000
0010
0000
0000
0001
0000
0000
0100
0000
0010
0000
0000
0100
0000
0000
0001
0000
,
2000
0000
0000
0000
0000
0000
3100
0000
0020
0000
0000
0000
0000
0000
0000
0000
0000
0000
0000
0000
0000
0000
0000
0000
0000
0000
0000
0000
0000
0000
0000
0030
,
0001
0000
0000
0000
0000
0000
1000
0000
0000
0000
0001
0000
0000
0100
0000
0000
0010
0000
0000
0100
0000
0000
0001
0000
1000
0000
0100
0000
0000
0000
0010
0000
,
0002
0000
0000
0000
0000
0003
1000
0000
0200
0000
0000
0000
0000
0000
0000
0000
0000
0000
0000
0300
0010
0000
0000
0000
0001
0000
0000
0001
0000
0000
0001
0000
,
2000
0000
3000
0100
0000
0010
0000
0001
1000
0100
0000
0010
0001
0000
0000
1000
,
0000
0000
0001
0000
1000
0000
0010
0000
0100
0000
1000
0000
0100
0000
0010
0000
1000
0000
0000
0001
0000
0000
0010
0000
0000
0000
0200
0000
0000
0000
0000
0000
,
1300
0000
0001
0000
0001
0010
0100
0010
,
0100
2000
0000
3002
0000
0000
0013
0000
,
0100
0100
0010
0010
0001
0100
0000
0020
,
0000
0000
0000
0000
0000
0000
0031
0000
1000
0000
0000
0100
0000
0000
0020
0000
,
0000
0030
0000
0000
0002
0000
0000
0000
,
0000
0003
1001
0000
0000
0000
0100
0000
0001
0000
0100
0000
1000
0000
0100
0000
,
0001
0100
0000
1000
0100
0001
0010
0200
,
0000
0000
0300
1000
0100
1000
0001
0010
,
0001
1000
0010
1000
0001
0100
0020
0000
,
0030
1000
0000
0100
1000
0001
0020
0000
,
0030
0100
0000
1000
0001
0100
0020
0000
,
0000
0000
0030
0100
0001
0100
2000
0000
,
3100
0001
0010
0100
0000
2000
0001
0000
,
3001
1001
0000
0100
0001
0100
1000
0100
,
0001
0100
0000
1000
0100
0001
0010
0200
,
0000
0000
0300
1000
0100
1000
0100
0010
,
0001
0010
0001
1000
0010
0100
0002
0000
,
0003
1000
0000
0100
1000
0001
0200
0000
,
0000
0310
0000
1000
0100
0010
0002
0000
,
0013
0000
2100
0000
0000
0000
0000
3001
,
0000
0010
0200
0000
0000
0000
0310
0000
,
0001
0000
0000
0000
0100
0000
0000
0010
0000
0000
2000
0000
0000
0000
0000
0000
,
3001
0000
0000
0000
1001
0010
0100
1000
0100
0001
0010
0100
2000
0000
0000
0000
,
3100
0000
0010
0001
0100
0020
0030
1000
,
0100
0000
0010
0001
0100
0010
1000
0000
,
0001
0000
1000
0001
0100
0020
0000
1030
,
0001
0000
0010
0100
0010
0101
0000
1100
,
0000
1001
0000
0110
0000
0000
2002
0000
,
0000
0000
0000
0000
,
0000
0000
0000
3003
;

//---------------dance-single - ----------------
#NOTES:
     dance-single:
     :
     Challenge:
     13:
     0.571581,0.744196,0.356871,0.480403,0.161278,583.000000,531.000000,52.000000,70.000000,0.000000,0.000000,0.571581,0.744196,0.356871,0.480403,0.161278,583.000000,531.000000,52.000000,70.000000,0.000000,0.000000:
// measure 0
0000
0000
0000
0000
1100
0000
0000
0011
,  // measure 1
0000
0000
1001
0000
0110
0000
0000
1001
,  // measure 2
0000
0000
1001
0000
1000
0000
0010
1000
,  // measure 3
0100
0010
0001
0110
0000
1000
0010
1000
,  // measure 4
0100
0001
0100
1000
0001
0000
0010
0001
,  // measure 5
0100
0010
0100
0220
0000
0000
0000
0000
,  // measure 6
0000
0000
0000
0330
,  // measure 7
1000
0001
1000
1001
0000
1000
0100
0010
,  // measure 8
0001
0010
0100
1000
0010
0010
0100
0100
,  // measure 9
0002
0000
1003
0100
0000
0100
0010
0001
,  // measure 10
0100
0010
0100
1000
0100
0001
0100
0010
,  // measure 11
0200
0000
0001
0301
0000
0010
0001
0100
,  // measure 12
0002
0000
1003
1000
0100
1000
0010
1000
,  // measure 13
0002
0000
0103
0100
0020
0000
2030
0000
,  // measure 14
3002
0023
0230
1300
,  // measure 15
0001
0100
0001
0001
2000
0000
3100
0000
,  // measure 16
0010
0001
1000
0000
0020
0000
0130
0000
,  // measure 17
0001
1000
0200
0000
0320
0000
0031
0000
,  // measure 18
1000
0010
0200
0000
0302
0000
1003
0000
,  // measure 19
0100
0010
0001
1000
2000
0000
3010
0000
,  // measure 20
0100
0001
0020
0100
0230
0000
0302
0000
,  // measure 21
0103
0010
0002
0003
1000
0000
0010
0000
,  // measure 22
1001
0000
0010
0000
0100
0000
1002
0000
0000
0000
0000
0000
0000
0003
1001
0000
,  // measure 23
0000
0010
1001
0100
1001
0010
1000
0110
,  // measure 24
0000
0001
0010
0001
0100
0020
0001
0000
,  // measure 25
0000
1030
0010
0001
0010
1000
0100
1000
,  // measure 26
0001
0100
0001
1000
0020
0000
0130
0110
,  // measure 27
0000
0001
1000
0001
0200
0010
0310
0001
,  // measure 28
0000
1000
0100
1000
0020
0100
0100
0030
,  // measure 29
0001
0100
0001
1000
0001
0010
0100
1000
,  // measure 30
0001
0100
0000
0020
0000
1030
1000
1001
,  // measure 31
0000
0010
1001
0100
1001
0010
1000
0110
,  // measure 32
0000
1000
1000
0100
0010
0002
1000
0000
,  // measure 33
1003
1000
0001
0010
0100
0010
0001
0100
,  // measure 34
0010
0100
1000
0100
0002
0000
0013
0110
,  // measure 35
1000
0001
0100
0010
2000
0000
3001
0100
,  // measure 36
0001
1000
0010
0100
0002
0000
1003
0001
,  // measure 37
0020
0000
0000
0000
0100
0000
0000
0000
1030
0000
0000
0010
0000
0000
0001
0000
,  // measure 38
2000
0000
3100
0000
0010
0001
1000
0000
,  // measure 39
0010
0000
0000
0100
0000
0000
0002
0000
1000
0000
1000
0003
0100
0000
0000
0000
,  // measure 40
0010
0000
0010
0001
0010
0001
1000
0100
,  // measure 41
2100
0000
0001
0000
0001
0000
3001
0100
,  // measure 42
0010
1000
0010
0100
0001
1000
0001
0100
,  // measure 43
0010
0000
1001
0001
0000
0010
0000
1100
,  // measure 44
0000
0011
0000
1000
1000
1000
1000
0100
,  // measure 45
0110
1000
0010
0200
0000
0301
0000
0010
,  // measure 46
0000
0000
0100
1000
0001
0000
0200
0000
0000
0000
0000
0000
0301
0000
0000
0000
,  // measure 47
1001
0000
1000
0000
0100
0010
0001
1000
,  // measure 48
0000
0000
0010
1000
0001
0000
0010
0000
0100
0000
0200
0000
0000
0300
0000
0000
,  // measure 49
1001
0000
0000
0000
0001
1000
0200
0000
0000
0000
0300
0000
0010
0000
0011
0000
,  // measure 50
0000
1000
0010
1000
0001
0100
0020
0030
,  // measure 51
1001
0000
0000
0000
0000
0000
1000
0000
0000
0000
0001
0000
0000
0010
0000
0000
0100
0000
0000
1000
0000
0000
0010
0000
0100
0000
0000
0010
0000
0000
1000
0000
,  // measure 52
0002
0000
0000
0000
0000
0000
0013
0000
0200
0000
0000
0000
0000
0000
0000
0000
0000
0000
1000
0000
0000
0000
0000
0000
1000
0000
0000
0000
0000
0000
0000
0300
,  // measure 53
1000
0000
0000
0000
0000
0000
0001
0000
0000
0000
1000
0000
0000
0010
0000
0000
0100
0000
0000
0010
0000
0000
1000
0000
0001
0000
0010
0000
0000
0000
0100
0000
,  // measure 54
2000
0000
0000
0000
0000
3000
0001
0000
0020
0000
0000
0000
0000
0000
0000
0000
0000
0000
0100
0030
1000
0000
0000
0000
1000
0000
0000
1000
0000
0000
1000
0000
,  // measure 55
0002
0000
0003
0010
0000
0100
0000
1000
0001
0010
0000
0100
1000
0000
0000
0001
,  // measure 56
0000
0000
1000
0000
0001
0000
0100
0000
0010
0000
0001
0000
0010
0000
0100
0000
0001
0000
0000
1000
0000
0000
0100
0000
0000
0000
0020
0000
0000
0000
0000
0000
,  // measure 57
0031
0000
1000
0000
1000
0100
0010
0100
,  // measure 58
0010
0002
0000
2003
0100
3100
0010
0000
,  // measure 59
0001
0001
1000
1000
0001
0010
0000
0210
,  // measure 60
0000
0000
0000
0000
1000
0000
1300
0000
0001
0000
0000
0010
0000
0000
0200
0000
,  // measure 61
0000
0300
2000
0000
,  // measure 62
0000
3000
1001
0000
0000
0000
0010
0000
1000
0000
0010
0000
0001
0000
0010
0000
,  // measure 63
1000
0010
0000
0001
0010
1000
0100
0020
,  // measure 64
1000
0000
0031
0001
0010
0001
1000
0100
,  // measure 65
1000
0001
0100
0001
1000
0010
0200
0001
,  // measure 66
0301
1001
0000
0010
0001
1000
0200
0000
,  // measure 67
0310
1000
0000
0001
1000
0010
0200
0001
,  // measure 68
0001
0000
0301
0010
1000
0010
0002
0000
,  // measure 69
0013
0100
1000
0001
0000
0002
1000
1003
,  // measure 70
0100
1001
0000
0010
1001
0100
1001
0010
,  // measure 71
1000
0110
0000
0001
0010
1000
0100
0020
,  // measure 72
0001
0000
0030
0001
0010
0001
0010
0100
,  // measure 73
1000
0100
1000
0001
0100
0010
2000
0001
,  // measure 74
3001
1001
0000
0010
0001
1000
0020
0100
,  // measure 75
0130
0001
0000
0001
0010
0100
2000
0100
,  // measure 76
3100
0000
0012
0000
1000
0000
0000
1003
,  // measure 77
0000
0100
0020
0000
0001
0000
0130
1000
,  // measure 78
0001
0000
0000
0000
0010
0000
0000
0100
0000
0000
2000
0000
0000
0000
3001
1000
,  // measure 79
0100
0010
0001
1000
0110
0100
0010
0001
0010
1000
0100
0010
0012
0000
0000
0000
,  // measure 80
0013
0100
0010
0001
1000
0210
0300
0001
,  // measure 81
0010
0001
0100
1000
0100
0001
0010
0000
,  // measure 82
1001
1000
0001
1000
0010
0210
0000
0301
,  // measure 83
1000
0000
1001
0011
0011
0101
0000
1010
,  // measure 84
0000
1001
0000
0110
0000
0000
2002
0000
,  // measure 85
0000
0000
0000
0000
,  // measure 86
0000
0000
0000
3003
;

//---------------dance-single - ----------------
#NOTES:
     dance-single:
     :
     Medium:
     9:
     0.386283,0.654892,0.116669,0.350008,0.120101,394.000000,377.000000,17.000000,51.000000,0.000000,0.000000,0.386283,0.654892,0.116669,0.350008,0.120101,394.000000,377.000000,17.000000,51.000000,0.000000,0.000000:
0000
0000
0000
0000
0100
0000
0000
0010
,
0000
0000
1000
0000
0100
0000
0000
0010
,
0000
0001
1000
0010
,
0100
0000
0001
0100
0000
0000
0001
0000
,
1000
0100
0010
0001
,
1000
0000
0100
0020
0000
0000
0000
0000
,
0000
0000
0000
0030
,
0001
1000
0001
1001
0000
0001
1000
0000
,
0010
0000
0100
0000
0001
0000
1000
0001
,
1000
0100
0010
0001
,
0010
0001
0010
0000
0001
0000
1000
0000
,
0010
1000
0010
0000
1000
0000
0001
0000
,
0100
0001
0100
0000
0010
0000
1000
0000
,
0001
1000
0001
0000
1000
0000
1000
0000
,
0001
0001
0010
0100
,
1000
0100
1000
0000
0002
0000
0000
0000
,
0023
0000
0230
0000
,
1300
0001
0200
0000
,
0320
0000
2030
0000
,
3000
0001
0020
0000
,
0230
0000
0000
2300
0000
0000
3001
0000
,
0100
0020
0000
0000
0000
0030
0100
0000
,
0001
0000
1000
0000
1000
0000
0002
0000
0000
0000
0000
0000
0000
0003
1001
0000
,
0000
0001
1000
0000
0001
0000
0010
0000
,
0001
0000
1000
0000
0001
1000
0001
0000
,
1000
0000
0100
0000
1000
0100
1000
0000
,
0001
0000
0100
0000
0002
0000
0003
1000
,
0000
0001
1000
0000
0002
0000
0003
0010
,
0000
0100
1000
0000
0200
0000
0000
0000
,
0300
1000
1000
0001
,
0100
0010
0000
0200
0000
0000
0300
0001
,
0000
1000
0001
0000
1000
0000
1000
0100
,
0000
0010
0001
0000
1000
0002
0000
0000
,
0000
0003
1000
0000
0001
0000
0100
0000
,
0010
0000
0010
0000
0200
0000
0300
0001
,
0000
1000
0001
0000
2000
0000
3000
0100
,
0000
0010
0100
0000
0010
0000
0001
0000
,
2000
0000
0000
0000
0000
0000
3000
0000
0100
0000
0000
0010
0000
0000
0001
0000
,
2000
0000
3100
0000
0010
0001
1000
0000
,
0010
0000
0000
0100
0000
0000
0002
0000
0000
0000
0000
0003
1000
0000
0000
0000
,
0001
0000
1000
0001
1000
0001
0010
0100
,
2000
0000
0001
0000
0000
0000
3001
0100
,
0000
0010
0100
0010
0100
0010
1000
0100
,
0010
0000
1001
0000
0000
0000
0000
1100
,
0000
0011
0000
1000
0001
1000
0001
0100
,
0100
0010
0010
0200
0000
0301
0000
0010
,
0000
1000
0001
0200
0000
0000
0301
0000
,
1001
0000
1000
0000
0100
0010
0001
1000
,
0000
0000
0001
0000
0010
0000
0010
0000
0100
0000
0200
0000
0000
0300
0000
0000
,
1001
0000
0001
2000
0000
3000
0001
0011
,
0000
1000
0010
1000
0001
0100
0020
0030
,
1001
0000
0000
0000
0000
0000
1000
0000
0000
0000
0001
0000
0000
0010
0000
0000
0100
0000
0000
1000
0000
0000
0010
0000
0100
0000
0000
0010
0000
0000
1000
0000
,
0002
0000
0000
0000
0000
0000
0013
0000
0200
0000
0000
0000
0000
0000
0000
0000
0000
0000
0000
0000
0000
0000
0000
0000
0000
0000
0000
0000
0000
0000
0000
0300
,
1000
0000
0000
0000
0000
0000
0001
0000
0000
0000
1000
0000
0000
0010
0000
0000
0100
0000
0000
0010
0000
0000
1000
0000
0001
0000
0010
0000
0000
0000
0100
0000
,
2000
0000
0000
0000
0000
3000
0001
0000
0020
0000
0000
0000
0000
0000
0000
0000
0000
0000
0000
0030
0100
0000
0000
0000
1000
0000
0000
1000
0000
0000
1000
0000
,
0002
0000
0003
0010
0000
0100
0000
1000
0001
0010
0000
0100
1000
0000
0000
0001
,
0000
0000
1000
0000
0001
0000
0100
0000
0001
0000
1000
0000
0010
0000
0100
0000
0001
0000
0000
1000
0000
0000
0100
0000
0000
0000
0020
0000
0000
0000
0000
0000
,
0031
1000
0001
0100
,
0010
0000
0100
0000
0001
1000
0001
0000
,
1000
0000
0100
0000
0010
0001
0000
0200
,
0000
0000
0000
0000
0000
0000
0310
0000
1000
0000
0000
0001
0000
0000
0200
0000
,
0000
0300
0000
0000
0020
0000
0000
0000
,
0030
1001
0000
0100
1000
0000
0001
0000
,
0010
0001
0000
1000
0001
0000
1000
0020
,
0000
0000
0030
0100
0001
0000
0100
0000
,
1000
0100
0001
2000
,
3000
0100
0000
0010
0001
0000
2000
0000
,
3000
0001
0000
0100
0001
1000
0200
0000
,
0000
0300
0000
0010
0001
0000
1000
0000
,
0100
0000
0010
0001
0000
2000
0000
0000
,
3000
0001
0000
1000
0001
0000
1000
0000
,
0010
0100
0000
0001
0100
0000
0010
2000
,
0000
3000
0001
0010
,
0100
0000
1000
0000
0100
1000
0200
0000
,
0000
0300
0010
0010
0001
1000
0002
0000
,
0003
1000
0000
0100
1000
0000
0001
0000
,
0100
0000
0012
0000
0000
0000
0000
1003
,
0000
0100
0020
0000
0000
0000
0130
0000
,
0001
0000
0000
0000
0010
0000
0000
0100
0000
0000
2000
0000
0000
0000
0000
0000
,
3001
1001
0000
0002
,
0013
0000
0100
1000
0100
1000
0000
0001
,
1000
0000
0001
0100
0001
0000
0100
0000
,
0010
0000
1000
0010
1000
0010
0000
1000
,
0001
0000
1000
0001
1000
1100
0000
1010
,
0000
0011
0000
0101
0000
0000
2002
0000
,
0000
0000
0000
0000
,
0000
0000
0000
3003
;

//---------------dance-single - ----------------
#NOTES:
     dance-single:
     :
     Easy:
     7:
     0.288242,0.399249,0.020589,0.274516,0.006863,294.000000,291.000000,3.000000,40.000000,0.000000,0.000000,0.288242,0.399249,0.020589,0.274516,0.006863,294.000000,291.000000,3.000000,40.000000,0.000000,0.000000:
0000
0000
0000
0000
,
0000
0000
0000
0000
,
0000
0000
1000
0001
,
1000
0010
0100
0010
,
0100
0001
1000
0001
,
1000
0000
0001
0020
0000
0000
0000
0000
,
0000
0000
0000
0000
,
0000
0030
0000
0000
0000
0000
1000
0000
,
0001
1000
0010
0100
,
0001
0000
0001
0100
,
0010
1000
0100
0010
,
0001
0000
0010
0100
,
1000
0001
0100
0010
,
0010
0000
0100
0001
,
1000
0100
0020
0000
,
0032
0000
0000
0003
2000
0000
0000
0000
,
3020
0000
0000
0000
0230
0000
0000
0300
,
0001
0010
0200
0000
,
2300
0000
3002
0000
,
0000
0003
0100
0000
0200
0000
0000
0000
,
0320
0000
0000
2030
0000
0000
3001
0000
,
0010
0200
0000
0000
0000
0300
1000
0000
,
0001
1000
0001
2000
0000
0000
3000
0001
,
0000
1000
0001
0000
1000
0000
0001
0100
,
0000
0000
0010
0000
0100
0010
0000
0000
,
0000
0100
0001
1000
,
0100
0000
0010
0100
0010
0000
0000
0000
,
0001
0000
1000
0000
0200
0000
0000
0300
,
0010
0001
2000
0000
,
3000
0010
0100
0001
,
1000
0001
0000
2000
0000
0000
3000
0000
,
0001
0000
0001
0000
1000
0000
1000
0001
,
0000
0000
1000
0000
0010
0100
0010
0000
,
0000
0100
0001
1000
,
0100
0000
0100
0000
0020
0000
0000
0030
,
0001
0000
1000
0000
0020
0000
0000
0030
,
0100
0001
1000
0100
,
0020
0000
0000
0000
0000
0130
0000
1000
,
0001
0000
0100
0010
,
0100
0000
0001
1000
0000
0000
0000
0000
,
1001
0000
0001
0000
1000
0001
1000
0001
,
1000
0001
0010
0100
,
1000
0100
1000
0100
1000
0100
1000
0000
,
0100
0010
0001
1000
,
0001
0000
0100
0000
0010
0100
0010
0000
,
0100
0001
1000
0100
,
0010
0001
1000
0010
,
0100
0100
0010
1000
,
0001
0010
0100
0100
,
1000
0001
1000
0010
,
0100
0001
1000
0001
,
1001
1000
0001
0010
,
0200
2300
0000
0000
,
3010
0100
0001
0010
,
0200
0000
0320
0000
0000
0030
0001
0000
,
1000
0010
0010
0200
,
0301
0000
0000
0000
1000
0000
0000
0000
0100
0000
0000
0100
0000
0200
0000
0000
,
0310
0000
0001
0000
1000
0001
1000
0000
,
0010
0000
0100
0000
0001
0100
0001
0000
,
1000
0001
1000
0001
,
0020
0000
0130
1000
,
0002
0000
0000
0000
0000
0003
0000
0000
,
0000
1000
0000
0001
1000
0000
0100
0000
,
1000
0001
0000
0000
0010
0000
0100
0000
,
1000
0001
0100
0010
,
0100
0001
1000
0200
,
0000
0300
0010
0000
0010
0000
0002
0000
,
0000
0003
1000
0000
1000
0000
0020
0000
,
0000
0030
0100
0001
,
1000
0000
0100
0000
0010
0000
0001
1000
,
0001
2000
0000
0000
3001
0000
1000
0000
,
0010
0100
0000
0000
0001
0000
2000
0000
,
0000
3000
0100
0010
,
0001
0100
0100
0020
,
0000
0030
0100
0000
0001
0000
2000
0000
,
0000
3000
0100
0000
0010
0000
0001
0000
,
1000
0000
0020
0000
0000
0000
0000
0030
,
0100
0000
0002
0000
0000
0003
1000
0000
,
0100
0000
0010
0000
0100
0000
1000
0001
,
1000
0002
0000
1003
,
0001
1000
0010
0100
,
0001
0000
1000
0001
1000
0000
0001
0000
,
0010
0000
0100
0000
1000
0100
0000
0000
,
1000
0000
0001
0000
1000
0001
0000
1000
,
0000
0001
0000
1000
0000
0000
2002
0000
,
0000
0000
0000
0000
,
0000
0000
0000
0000
,
0000
0000
0000
0000
,
0000
0000
0000
0000
,
0000
0000
3003
0000
;
