#TITLE:Crossing Field;
#SUBTITLE:Sword Art Online Opening 1;
#ARTIST:LiSA;
#TITLETRANSLIT:;
#SUBTITLETRANSLIT:;
#ARTISTTRANSLIT:;
#GENRE:;
#CREDIT:Magna Trick;
#BANNER:CrossingfieldBN.png;
#BACKGROUND:CrossingfieldB.png;
#LYRICSPATH:;
#CDTITLE:Magna Trick title!.png;
#MUSIC:Crossing Field.mp3;
#OFFSET:-0.194234;
#SAMPLESTART:45.700001;
#SAMPLELENGTH:17.000000;
#SELECTABLE:YES;
#BPMS:0.000000=178.960007
;
#STOPS:
;
#BGCHANGES:0.063=Crossing Field.avi=1.000=0=0=1=====,
260.000=CrossingfieldB.png=1.000=0=0=1=====,
99999=-nosongbg-=1.000=0=0=0 // don't automatically add -songbackground-
;
#KEYSOUNDS:;
#ATTACKS:;

//---------------dance-single - ----------------
#NOTES:
     dance-single:
     :
     Hard:
     9:
     0.493522,0.663732,0.235545,0.022433,0.033649,308.000000,287.000000,21.000000,2.000000,0.000000,0.000000,0.493522,0.663732,0.235545,0.022433,0.033649,308.000000,287.000000,21.000000,2.000000,0.000000,0.000000:
0001
1000
0001
0000
1100
0000
0000
0000
,
0000
0001
0010
0000
,
0100
0000
0000
0000
0000
0000
1000
0100
1000
0000
0000
0000
0000
0000
0000
0000
,
0000
0000
0001
0100
0000
0010
0000
1000
,
0000
0000
0100
0000
0000
0000
0010
0001
1100
0000
0000
0000
0100
0000
0000
0000
,
0100
0100
0011
0010
,
0101
0001
1010
1000
,
1000
0000
1000
1001
0000
0001
1001
1000
,
0001
1000
0001
1000
0010
0100
0000
0010
,
0000
1000
0000
0100
0000
0000
0000
0000
,
0010
0000
0001
0000
0100
0010
0000
1000
,
0000
0001
0000
0010
0000
0000
0000
0000
,
0100
0000
0100
0000
0011
0000
0001
0100
,
0000
0100
0010
0000
0010
1000
0000
1000
,
0000
1000
0001
0000
0010
0000
0100
0000
,
0010
0001
0100
0000
0100
0000
0001
0000
,
0001
0000
1000
0000
0100
1000
0000
0001
,
0000
0001
0000
0010
0000
0000
0100
0000
,
0010
0000
0001
0000
0001
0100
0000
0100
,
0000
0010
0000
0010
0000
0000
1000
0000
,
0100
0000
1000
0000
0010
1000
0001
1000
,
0100
1000
0000
0001
0010
0001
0100
0001
,
1000
0001
0100
0000
0001
1000
0100
0010
,
0100
1000
0001
0100
0010
0100
0001
1000
,
0010
0100
0001
1000
1001
0000
0000
0000
,
0000
0000
0001
0000
0100
0000
0000
0010
,
0000
0000
1000
0000
0100
0000
0000
0010
,
0000
0000
0000
0000
0001
0000
0000
0100
,
0000
0000
0000
0000
0010
1000
0000
0010
,
0000
0010
0000
0010
0000
1000
0100
0000
,
1000
0000
0100
0000
0010
0001
0000
0001
,
0000
0001
0000
1000
0000
1000
0010
0000
,
1000
0000
0000
0000
0001
0000
0000
0000
0001
0000
0000
0000
1000
0000
0000
0000
0000
0000
0000
0000
0000
1000
0000
0000
,
0000
0100
0000
0000
,
0010
0001
0010
0000
0011
0000
0001
0000
,
0100
0010
0100
0010
,
1000
0000
0000
0000
0010
0000
1000
0010
1000
0000
0000
0000
0100
0000
0000
0000
,
0010
0000
0001
0100
0000
0100
0000
0010
,
0000
0010
0000
1000
0001
0000
0001
1000
,
0001
0000
0001
1000
0001
0000
1000
0001
,
1000
0000
1000
0001
1000
0000
0100
0010
,
0000
0001
0000
0010
0000
0100
1000
0000
,
0001
0100
0010
0000
1010
0000
0010
0000
,
1000
0100
0011
0100
,
1010
0000
0000
0000
0010
0000
1000
0001
0100
0000
0000
0000
0001
0000
0000
0000
,
1000
0000
0010
1000
0000
0100
0000
0010
,
0000
0001
0000
0100
0001
0000
0001
0100
,
0001
0000
0001
1000
0001
0000
1000
0001
,
1000
0000
1000
0100
1000
0000
0100
0010
,
0000
0001
0000
0100
0000
0010
1000
0001
,
0100
0010
1000
0001
0100
0000
0010
0000
,
1000
0100
0100
0010
,
0010
0001
0000
0100
0000
0100
0010
1000
,
0000
1000
0100
0010
0000
0010
0001
1000
,
0001
0000
1000
0000
0001
0000
0100
0001
,
0000
0001
0000
0000
0100
0000
0010
1000
,
0000
1000
0000
0000
1100
1100
0000
0011
,
0011
0000
1001
1001
0000
0000
0000
0000
,
0001
1000
0001
1001
,
0001
0010
0000
0001
0000
1000
0000
0010
,
0000
1000
0000
0001
0000
0000
0100
0000
,
0010
0100
0000
0010
0000
1000
0000
0001
,
0000
0010
0000
0220
0000
0000
0000
0000
,
0000
0000
0000
0000
,
0000
0000
0000
0000
,
0000
0000
0000
0330
;

//---------------dance-single - ----------------
#NOTES:
     dance-single:
     :
     Medium:
     5:
     0.398984,0.479362,0.022433,0.022433,0.000000,249.000000,247.000000,2.000000,2.000000,0.000000,0.000000,0.398984,0.479362,0.022433,0.022433,0.000000,249.000000,247.000000,2.000000,2.000000,0.000000,0.000000:
0001
1000
0001
0000
,
0000
1000
1000
0000
,
0010
0000
0100
0000
,
0000
0001
0001
1000
,
1000
0100
0010
0010
,
0010
0010
0001
0001
,
1000
1000
0010
0010
,
0010
0000
0100
0010
0000
0100
0010
0000
,
0000
0000
0000
0000
1000
0010
0000
1000
,
0000
1000
0000
0010
0000
0000
0000
0000
,
0100
0000
0001
0000
0100
0001
0000
0001
,
0000
0001
0000
0100
0000
0000
0000
0000
,
0010
0000
1000
0000
0100
0000
0010
0001
,
0000
0001
0010
0000
0010
0001
0000
0001
,
0000
0010
0001
0000
1000
0000
0001
0000
,
0100
0001
0100
0000
0001
1000
0001
0000
,
1000
0001
1000
0000
0001
1000
0000
1000
,
0000
0100
0000
0010
0000
0000
0000
0000
,
0010
0000
0001
0000
0100
0001
0000
0001
,
0000
0100
0000
0010
0000
0000
1000
0000
,
0100
0000
1000
0000
0001
0000
1000
0001
,
0000
0001
1000
0000
1000
0001
0000
0001
,
0000
1000
0001
0000
0000
0000
0000
0000
,
1000
0000
0100
0000
,
0010
0000
0011
0000
,
0000
0000
0001
0000
0100
0000
0000
0010
,
0000
0000
1000
0000
0100
0000
0000
0010
,
0000
0000
0000
0000
0100
0000
0000
1000
,
0000
0000
0000
0000
0010
0100
0000
0001
,
0000
1000
0000
0001
0000
1000
0001
0000
,
0001
0000
0010
0000
0100
0010
0000
0100
,
0000
0010
0000
0001
0000
0100
0001
0000
,
0100
0000
0000
0000
1000
0000
0000
0001
,
0000
0010
0000
0000
,
0001
1000
0001
0000
0100
0000
0100
0000
,
0010
0010
1000
1000
,
0001
0001
0010
0010
,
0100
0000
1000
0001
0000
1000
0000
0001
,
0000
0001
0000
0100
0010
0000
1000
0010
,
1000
0000
0100
1000
0100
0000
0001
0100
,
0001
0000
0010
0001
0010
0000
1000
0010
,
0000
1000
0000
0001
0000
0000
0000
0000
,
0001
1000
0001
0000
1000
0000
1000
0000
,
0001
0001
0100
0100
,
0010
0010
1000
1000
,
0001
0000
0010
0001
0000
0010
0000
0100
,
0000
0010
0000
0001
0100
0000
0100
0010
,
1000
0000
1000
0100
0010
0000
0010
0001
,
0100
0000
0100
0010
1000
0000
0001
1000
,
0000
0001
0000
1000
0000
0000
0000
0000
,
0001
1000
0001
1000
0001
0000
0001
0000
,
1000
1000
0010
0010
,
0100
0010
0000
0100
0000
0010
0100
0010
,
0000
1000
0010
1000
0000
0001
1000
0001
,
0010
0000
0100
0000
0010
0000
0001
0100
,
0000
0100
0000
0000
0010
0000
1000
0100
,
0000
0100
0000
0000
0010
0001
0000
1000
,
0100
0000
0010
0001
0000
0000
0000
0000
,
0000
0000
0000
1000
,
1000
0001
0001
0100
,
0100
0010
0010
1000
,
1000
0001
0001
0010
,
0100
0000
0100
0220
0000
0000
0000
0000
,
0000
0000
0000
0000
,
0000
0000
0000
0000
,
0000
0000
0000
0330
;

//---------------dance-single - ----------------
#NOTES:
     dance-single:
     :
     Easy:
     4:
     0.291627,0.368039,0.011216,0.011216,0.000000,182.000000,181.000000,1.000000,1.000000,0.000000,0.000000,0.291627,0.368039,0.011216,0.011216,0.000000,182.000000,181.000000,1.000000,1.000000,0.000000,0.000000:
0000
0000
0000
0000
,
0000
1000
1000
0000
,
0001
0000
0100
0000
,
0000
0010
0010
1000
,
1000
0100
0010
0010
,
0010
0010
0001
0001
,
0100
0100
0010
0010
,
0010
0000
1000
0001
0000
1000
0001
0000
,
0000
0000
1000
1000
,
1000
1000
0001
0001
,
0001
0001
0010
0010
,
0010
0010
0100
0100
,
1001
1000
0001
1000
,
0000
0001
0000
0000
0100
0000
0000
0010
,
0000
1000
0000
0000
,
0100
0000
0010
0000
,
0001
0000
0100
0100
,
0100
0100
0010
0010
,
0010
0010
1000
1000
,
1000
1000
0001
0001
,
0001
0010
0100
1000
,
0000
0001
0000
0000
0100
0000
0000
0010
,
0000
1000
0000
0000
,
0010
0000
0100
0000
,
0001
0000
0010
0000
,
0000
0000
0100
0000
0100
0000
0000
1000
,
0000
0000
0001
0000
0001
0000
0000
0100
,
0000
0000
0000
0000
0010
0000
0000
0010
,
0000
0000
1000
1000
,
0001
0001
0010
0000
,
0100
0100
1000
1000
,
0001
0001
0100
0000
,
0010
0000
0000
0000
1000
0000
0000
0001
,
0000
1000
0000
0000
,
0001
0001
1000
0000
,
0000
1000
1000
0000
,
0001
0000
0010
0000
,
0000
0100
0100
1000
,
1000
0001
0100
0000
,
0010
0000
1000
0000
,
0001
0000
0010
0010
,
0001
0001
0100
0000
,
0010
1000
0010
0000
,
0000
0100
0100
0000
,
0001
0000
1000
0000
,
0000
0001
0001
0010
,
0010
0000
0100
0000
1000
0000
0000
0100
,
0000
0000
1000
0000
,
0100
0000
0000
0000
1000
0000
0001
0100
,
0000
0001
0000
1000
0000
0000
0000
0000
,
0100
1000
0001
0000
,
0000
0100
0100
0010
,
0010
1000
0000
0010
0000
0000
0000
1000
,
0000
0000
0000
0100
0000
0000
0000
0000
,
0010
0000
0001
0000
0100
0000
0001
1000
,
0000
0001
0000
0000
1000
0000
0001
1000
,
0000
0001
0000
0000
1000
0000
0000
1000
,
0000
1000
0000
0000
,
0000
0000
0000
0001
,
0001
0010
0010
0100
,
0100
1000
1000
0001
,
1000
0010
0100
0001
,
0100
0000
0010
0200
0000
0000
0000
0000
,
0000
0000
0000
0000
,
0000
0000
0000
0000
,
0000
0000
0000
0000
0000
0300
0000
0000
;

//---------------dance-single - ----------------
#NOTES:
     dance-single:
     :
     Challenge:
     15:
     0.751500,1.253716,0.594470,0.493523,0.308452,469.000000,416.000000,53.000000,44.000000,0.000000,0.000000,0.751500,1.253716,0.594470,0.493523,0.308452,469.000000,416.000000,53.000000,44.000000,0.000000,0.000000:
// measure 0
1000
0001
1000
0000
1002
0000
0000
0000
,  // measure 1
0000
2003
3200
0000
,  // measure 2
0320
0000
0000
0000
0000
0000
0031
1000
0020
0000
0000
0000
0000
0000
0000
0000
,  // measure 3
0000
0000
2030
3020
0000
0230
0000
0302
,  // measure 4
0000
0000
0023
0000
0000
0000
0031
1000
1001
0000
0000
0000
0001
0000
0000
0000
,  // measure 5
0001
0001
0101
0100
,  // measure 6
0110
0010
1010
1000
,  // measure 7
1000
0000
1000
1001
0000
0001
1001
1000
,  // measure 8
0001
1000
0001
1000
0200
0320
0001
0032
,  // measure 9
0100
0203
0010
0320
1000
0130
1000
0001
,  // measure 10
0200
1000
2300
0001
3002
0023
0100
0230
,  // measure 11
0001
0302
1000
2003
0100
3010
0001
1000
,  // measure 12
1001
0001
1001
1000
1001
0001
0101
0100
,  // measure 13
0010
0110
0010
1000
1010
1000
0100
1100
,  // measure 14
1000
0001
1001
1000
0001
1000
0010
1000
,  // measure 15
1001
0001
0100
0001
1001
1000
0100
1000
,  // measure 16
1001
0000
0001
0000
1000
0001
1000
0001
0110
0000
0110
0000
0010
0000
2000
0100
,  // measure 17
3010
0200
0310
0020
0031
0100
0010
1000
,  // measure 18
0200
0000
1300
0000
2000
0000
3100
0000
2000
0000
3020
0000
0130
0000
0020
0100
,  // measure 19
1030
0200
0310
0200
0310
1000
2000
3100
,  // measure 20
0020
0031
0002
0103
0200
0301
1001
1000
,  // measure 21
0010
1010
0010
0100
0110
0010
0100
0101
,  // measure 22
0001
1000
1001
0001
1000
0001
0010
0100
,  // measure 23
1001
0001
0100
1000
1001
0001
0010
1000
,  // measure 24
1001
0000
0100
0000
0010
0000
0001
0000
1000
0000
0100
0000
1001
0000
0000
0000
0000
0000
1000
0000
0000
0100
0000
0000
,  // measure 25
0000
0100
1100
0000
0010
0000
0100
0010
,  // measure 26
0000
0010
0100
0000
0001
0000
0001
1000
,  // measure 27
0000
1000
1001
0000
1000
0000
0010
0100
,  // measure 28
0000
0000
0100
0000
0110
0000
0000
0000
0100
0001
0100
0001
0100
0001
0100
0001
,  // measure 29
0100
0001
0100
0001
0100
0001
0100
0001
1000
0100
1000
0100
1000
0100
1000
0100
,  // measure 30
1000
0100
1000
0100
1000
0100
1000
0100
0010
0001
0010
0001
0010
0001
0010
0001
,  // measure 31
0010
0001
0010
0001
0010
0001
0010
0001
1000
0010
0100
0001
1001
0000
0000
0000
,  // measure 32
0011
0000
0000
0000
0110
0000
0000
0000
1100
0000
0000
0000
2002
0000
0000
0000
0000
0000
3003
0000
0000
0220
0000
0000
,  // measure 33
0000
0000
0330
0000
2002
0000
0000
0000
0000
0000
3003
0001
1000
0000
0000
0000
,  // measure 34
1000
0001
0010
0000
1001
0000
1000
0000
,  // measure 35
0010
0100
0010
0100
,  // measure 36
0001
0000
0000
0000
0100
0000
0001
0100
0001
0000
0000
0000
0010
0000
0000
0000
,  // measure 37
0100
0000
1000
0010
0000
0010
0000
0100
,  // measure 38
0000
0100
0000
0001
1000
0000
1000
0100
,  // measure 39
1000
0000
0010
1000
0010
0000
0001
0010
,  // measure 40
0001
0000
0100
0001
0100
0000
0010
0100
,  // measure 41
0000
1000
0000
0100
0000
0010
0001
0000
,  // measure 42
1000
0000
0010
0000
0100
0001
1000
0100
0010
0000
0000
0000
0001
0000
0000
0000
,  // measure 43
0010
0100
1100
0010
,  // measure 44
0101
0000
0000
0000
0100
0000
0001
1000
0010
0000
0000
0000
1000
0000
0000
0000
,  // measure 45
0001
0000
0100
0001
0000
0010
0000
0100
,  // measure 46
0000
1000
0000
0010
1000
0000
1000
0100
,  // measure 47
1000
0000
0010
1000
0010
0000
0001
0010
,  // measure 48
0001
0000
0100
0001
0100
0000
0010
0100
,  // measure 49
0000
1000
0000
0010
0000
0100
0001
1000
,  // measure 50
0010
0000
0100
0000
0001
1000
0010
0100
0001
0000
1000
0000
0100
0000
0010
0000
,  // measure 51
0001
0010
0010
0100
,  // measure 52
0100
1000
0000
0110
0000
0001
0100
0101
,  // measure 53
0000
0001
0010
0011
0000
0100
1000
0001
,  // measure 54
1000
0000
0001
0000
1000
0000
0010
1000
,  // measure 55
0000
1000
0000
0000
0010
0000
0100
0001
,  // measure 56
0000
0000
0001
1000
0001
0000
0000
0000
0011
0000
0011
0000
0000
0000
1100
0000
,  // measure 57
1100
0000
0000
0000
0000
0000
1001
0000
0000
1001
0000
0000
0000
0000
0000
0000
0000
0000
0000
0000
0000
0001
0010
0100
,  // measure 58
1000
0001
0010
0100
1000
0100
0010
0001
0100
0000
0000
0000
1001
0000
0000
0000
,  // measure 59
1000
0100
0000
1000
0000
0001
0000
0100
,  // measure 60
0000
0001
0000
1000
0000
0000
0010
0000
,  // measure 61
0100
0010
0000
0100
0000
0001
0001
1000
,  // measure 62
0100
0010
0100
0010
0100
0010
0220
0000
0000
0000
0000
0000
0000
0000
0000
0000
,  // measure 63
0000
0000
0000
0000
,  // measure 64
0000
0000
0000
0000
,  // measure 65
0000
0000
0000
0330
;
