#TITLE:Crazy Rainbow;
#SUBTITLE:One Piece Opening 8;
#ARTIST:Tackey & Tsubasa;
#TITLETRANSLIT:;
#SUBTITLETRANSLIT:;
#ARTISTTRANSLIT:;
#GENRE:;
#CREDIT:Magna Trick;
#BANNER:CRBN.jpg;
#BACKGROUND:CRBG.jpg;
#LYRICSPATH:;
#CDTITLE:Magna Trick title!.png;
#MUSIC:Crazy Rainbow.mp3;
#OFFSET:-0.182710;
#SAMPLESTART:50.000000;
#SAMPLELENGTH:11.980000;
#SELECTABLE:YES;
#BPMS:0.000000=95.000000
,18.000000=47.500000
,19.500000=95.000000
,20.500000=190.000000
,219.500000=95.000000
,228.000000=190.000000
,276.000000=95.000000
,292.000000=190.000000
,356.000000=95.000000
,359.500000=190.000000
,408.500000=47.500000
,409.875000=190.000000
;
#STOPS:
;
#BGCHANGES:0.063=Crazy Rainbow.avi=1.000=0=0=1=====,
416.000=CRBG.jpg=1.000=0=0=1=====,
99999=-nosongbg-=1.000=0=0=0 // don't automatically add -songbackground-
;
#KEYSOUNDS:;
#ATTACKS:;

//---------------dance-single - ----------------
#NOTES:
     dance-single:
     :
     Hard:
     14:
     0.679552,1.076217,0.366425,0.233179,0.266491,714.000000,659.000000,55.000000,35.000000,0.000000,0.000000,0.679552,1.076217,0.366425,0.233179,0.266491,714.000000,659.000000,55.000000,35.000000,0.000000,0.000000:
0000
0000
0000
0000
,
0000
0000
0000
1000
0100
0010
0001
0010
,
0100
1000
0000
1010
0000
0101
0000
0000
0001
0000
0100
0000
0010
0000
1000
0000
,
0010
0100
0000
0101
0000
1010
0000
0000
1001
0000
0000
0000
1001
0000
0000
0000
,
1001
0000
0000
0000
0000
0000
0110
0000
0000
0000
0110
0000
0010
0000
0000
0000
1000
0010
1000
0000
0001
0010
0001
0000
0100
0010
0000
0101
0000
0000
0110
0000
,
0110
1010
0000
1000
0000
0100
0010
0100
,
1000
0100
0000
0010
0000
0001
0100
0010
,
0100
0001
0000
0100
0000
0010
1000
0100
,
1000
0010
0000
0100
0000
0001
0010
0001
,
0100
0001
1000
0010
0100
0001
1000
0010
,
0100
0001
1000
0100
0010
0001
0010
0100
,
0000
1000
0000
0001
0000
1000
0100
0010
,
0001
0010
0100
1000
0001
0100
0010
1000
,
0000
0001
0001
0000
1000
1000
0000
0100
,
0100
0000
0010
0010
0000
0001
0001
0001
,
0000
0010
0010
0000
0100
0100
0000
1000
,
1000
0000
0000
0000
0001
0000
0001
0000
0000
0000
0010
0100
0010
0100
1000
0001
,
1000
0010
0100
0000
0001
0000
2000
0000
3000
0000
0002
0000
2003
0000
0000
0000
,
3200
0000
0320
0000
0032
0000
0203
0002
,
0300
0003
0000
0002
0000
0203
2300
0000
,
3002
0000
0203
0000
0320
0000
1030
1001
,
0000
0010
1000
0001
0001
1000
0010
0001
,
0001
1000
0010
0001
0001
0100
1000
0010
,
0010
0100
1000
0010
0010
0100
1000
0010
,
0110
1001
0110
1001
,
0000
1000
0001
0010
0010
1000
0001
0010
,
0010
1000
0001
0010
0010
1000
0100
0001
,
0001
1000
0100
0001
0001
0010
1000
0001
,
0001
0010
1000
0001
0001
0010
1000
0100
,
0010
0001
0100
1000
1000
0001
0100
1000
,
1000
0001
0100
1000
1000
0001
0010
0100
,
1000
0001
0001
0001
0001
1000
1000
1000
,
1000
0000
0010
0100
0010
0100
0010
0100
0010
1000
0100
0010
0100
0010
0100
0010
,
0100
1001
0000
0110
0000
1001
0001
1000
,
1001
2000
3020
0230
,
0301
1001
0000
0010
0000
1000
0100
0010
,
0021
0230
2300
3002
,
0103
0110
0000
0010
0000
1000
0100
1000
,
0001
0000
0100
0000
0001
1000
0010
0000
,
1000
0001
0000
0010
0001
0000
1000
0000
,
0100
0000
0010
0000
0000
0000
0001
0000
0010
0000
0100
1000
0100
1000
0001
0010
,
0001
0010
0100
0000
1000
0000
0100
0000
0010
0000
0001
0000
0010
0000
0100
0000
,
1100
1000
0001
0010
0001
0100
0010
1000
,
0010
1010
0000
0001
0000
0010
0001
0010
,
0110
0000
1000
0000
0100
1000
0010
0100
,
0001
1001
0000
0010
0000
0001
0010
0001
,
0010
0010
0100
1000
0100
1000
0001
0000
,
0100
0010
0000
0100
1000
0000
0100
0000
,
0010
1000
0000
0100
0010
0000
1000
0010
,
0000
0002
0000
0000
0000
2003
0000
0000
,
0000
0000
3002
0000
0000
0000
0000
0000
0000
0000
0200
0003
0000
0000
0000
0000
,
0300
0010
1000
0010
0000
0100
0001
0100
,
0000
0001
0010
0001
0000
1000
0100
1000
,
0000
0001
1000
0010
0000
1000
0001
0010
,
0000
0001
1000
0100
0000
1000
0001
0110
,
0001
1000
0010
0000
1000
0001
0010
0000
0001
1000
0001
1000
0000
0100
0000
0000
,
1000
0001
0010
0000
0001
1000
0010
0000
1000
0001
1000
1100
0000
0011
0101
0000
,
1001
0010
1000
0010
1000
0001
0100
0001
,
1000
0100
1000
0001
0010
0100
0010
0000
,
0001
1000
0010
1000
0001
0010
0001
1000
,
0100
1000
0001
0100
0001
1000
0100
0010
,
0001
0100
0001
1000
0100
0010
0001
1000
,
0010
0100
0001
1000
0100
0010
0001
0000
,
1000
0100
0010
0001
0100
0001
0100
0001
,
1000
0100
0010
0001
0100
0001
0100
0001
,
1000
0100
0010
0001
0100
0001
0100
0001
,
1001
0000
0000
0110
0000
0000
1001
0000
,
0220
0000
0000
0000
,
0000
0000
0000
0000
0000
0000
0000
0330
,
0001
0000
1000
0001
0000
0100
0000
0001
0000
0010
0000
0001
0000
1000
0000
0200
,
0000
0000
0300
0000
0010
0000
0001
1000
0000
0100
0000
0010
0000
0001
0000
2000
,
0000
0000
3000
0000
0010
0000
1000
0001
0000
0010
0000
0100
0010
0001
0000
1000
,
0010
0000
0100
0001
0000
1000
0000
0100
0010
0000
0001
0010
0000
0100
1000
0000
,
1001
0000
1000
0000
0100
1000
0001
0011
,
0000
0100
0000
0010
0000
0001
0000
1000
,
1100
0000
0001
0000
0001
0100
1000
0110
,
0000
0001
0000
0010
0000
1000
0000
0100
,
0011
0000
0001
0000
0010
0100
0010
0001
,
0000
0100
0000
1000
0100
0010
0000
1000
,
0100
0000
0010
0001
0000
0010
0000
0100
,
0010
0000
0000
0000
0001
0000
1000
0000
0010
1000
0010
1000
0001
0100
0001
0100
,
0010
1000
0100
0010
0001
0001
1000
0110
,
0000
0010
0000
0100
0000
0100
0000
1000
,
0110
0000
1000
0000
0100
0010
0001
1010
,
0000
0010
0000
0100
0000
1000
0000
0011
,
1000
0000
0001
0000
1000
0010
0100
0001
,
0000
1000
0000
0100
0010
0001
0000
0010
,
0100
0000
1000
0100
0000
1000
0000
0100
,
0010
0000
0010
0100
0000
0010
0001
0000
,
0020
0000
0000
0000
0000
0000
0000
0000
0230
0000
0000
0000
0000
0000
0000
0000
2300
0000
0000
0000
0000
0000
0000
0000
3002
0000
0000
0013
0100
0000
0000
0000
,
0000
1001
0001
1000
0000
0001
1000
0000
,
0010
0000
0010
0000
0100
0000
0100
0001
,
0000
1001
0000
1000
0000
0100
0010
0000
,
0010
0000
0100
0000
0100
0000
1000
0001
,
0000
1001
0000
0100
0000
0010
0100
0000
,
0100
0000
0001
0000
0001
0000
1000
0100
,
0000
1001
0000
0010
0000
0010
0001
0000
,
1000
0000
0000
0000
1000
0000
0000
0000
0010
1000
0010
0000
1000
0010
1000
0100
,
0010
0001
1000
0000
0100
0000
0000
0000
1000
0000
0010
0000
0000
0000
0100
0000
,
0001
0000
1000
0010
0000
1000
0100
0010
,
0000
0001
0010
0000
0100
1000
0000
0001
,
0010
0000
0100
1000
0000
0010
1000
0001
,
0000
0000
0000
0000
1000
0001
1000
0000
0001
1000
0001
0000
1000
0001
0000
1001
0000
0000
0000
0000
0000
0000
0000
0011
0000
0000
0000
1100
0000
0000
0000
0000
,
0000
0000
0000
0220
0000
0000
0000
0000
0000
0000
0000
0000
0000
0000
0000
0000
0000
0000
0000
0000
0000
0000
0000
0000
0000
0000
0000
0000
0000
0000
0000
0000
,
0000
0000
0000
0000
0000
0000
0000
0330
0000
0000
0000
0000
0000
0000
0000
0000
0000
0000
0000
0000
0000
0000
0000
0000
0000
0000
0000
0000
0000
0000
0000
0000
;

//---------------dance-single - ----------------
#NOTES:
     dance-single:
     :
     Challenge:
     16:
     0.813749,1.284517,0.739512,0.119921,0.426385,855.000000,744.000000,111.000000,18.000000,0.000000,0.000000,0.813749,1.284517,0.739512,0.119921,0.426385,855.000000,744.000000,111.000000,18.000000,0.000000,0.000000:
// measure 0
0000
0000
0000
0000
,  // measure 1
0000
0000
0000
0000
0000
0000
0001
0000
0010
0000
0100
0000
1000
0000
0100
0010
,  // measure 2
0001
0100
0000
0101
0000
1010
0000
0000
1000
0000
1010
0000
0100
0000
1000
0100
,  // measure 3
0010
1000
0000
1010
0000
0101
0000
0000
1001
1000
0000
0000
1001
0001
0000
0000
,  // measure 4
1001
0000
1001
0000
0000
0000
0110
0000
0000
0000
0110
0000
0110
0000
0000
0000
0001
0100
0001
0000
1000
0100
1000
0000
0010
0100
0000
1010
0000
0000
0110
0000
,  // measure 5
0110
0101
0000
0001
0000
0010
0100
0010
,  // measure 6
0001
0010
0000
0100
0000
1000
0010
0100
,  // measure 7
0010
1000
0000
0010
0000
0100
0001
0010
,  // measure 8
0001
0000
0000
0100
0000
0000
0000
0000
0000
0010
0000
0000
0000
0000
0000
1000
0000
0000
0100
0000
0000
1000
0001
0000
,  // measure 9
1000
0001
0001
0100
0010
1000
0001
0100
,  // measure 10
0010
1000
0001
0010
0100
1000
0100
0010
,  // measure 11
0000
1001
0000
1000
0001
0001
0010
0100
,  // measure 12
1000
0100
0010
0001
1000
0010
0100
0001
,  // measure 13
0000
1100
1100
0000
0101
0101
0000
0011
,  // measure 14
0011
0000
1010
1010
0000
1001
1100
1010
,  // measure 15
0000
0110
0110
0000
1001
1001
0000
0101
,  // measure 16
0101
0000
0000
0000
1100
0000
1100
0000
0000
0000
0100
0010
0100
0010
0001
1000
,  // measure 17
0001
0100
0010
0000
1000
0000
0001
0000
0100
0000
0010
0000
1000
0000
0100
0000
,  // measure 18
0010
0010
0100
0100
1000
0010
0100
0200
,  // measure 19
0300
1001
0000
1000
0001
0010
0001
1000
,  // measure 20
1000
0000
0100
0000
0100
0000
0010
0000
0001
0000
1000
0001
1000
0000
0001
1000
,  // measure 21
0001
0100
0001
1000
1000
0001
0100
1000
,  // measure 22
1000
0001
0100
1000
1000
0010
0001
0100
,  // measure 23
0100
0010
0001
0100
0100
0010
0001
0100
,  // measure 24
0110
1001
0110
1001
,  // measure 25
0000
0001
1000
0100
0100
0001
1000
0100
,  // measure 26
0100
0001
1000
0100
0100
0001
0010
1000
,  // measure 27
1000
0001
0010
1000
1000
0100
0001
1000
,  // measure 28
1000
0100
0001
1000
1000
0100
0001
0010
,  // measure 29
0100
1000
0010
0001
0001
1000
0010
0001
,  // measure 30
0001
1000
0010
0001
0001
1000
0100
0010
,  // measure 31
0001
0000
1000
0100
0010
0001
1000
0100
0010
0001
0100
0010
1000
0001
0100
0010
,  // measure 32
1000
0001
0100
0010
0100
0010
0100
0010
0100
0001
0010
0100
0010
0100
0010
0100
,  // measure 33
0010
1001
0000
0110
0000
1001
1000
0001
,  // measure 34
1001
0000
0002
0000
0103
0010
1000
0010
,  // measure 35
1000
1001
0000
0100
0000
0001
0010
0100
,  // measure 36
1200
0000
0320
0000
0031
1000
0001
1000
,  // measure 37
0010
0110
0000
0100
0000
0001
0010
0001
,  // measure 38
1000
0000
0010
0000
1000
0001
0100
0000
,  // measure 39
0001
1000
0000
0100
1000
0000
0001
0000
,  // measure 40
0010
0000
0100
0000
0000
0000
1000
0000
0100
0000
0010
0001
0010
0001
1000
0100
,  // measure 41
1000
0100
0010
0000
0001
0000
0010
0000
0100
0000
1000
0000
0100
0000
0010
0000
,  // measure 42
0011
0001
1000
0100
1000
0010
0100
0001
,  // measure 43
0100
0101
0000
1000
0000
0100
1000
0100
,  // measure 44
0110
0000
0001
0000
0010
0001
0100
0010
,  // measure 45
1000
1001
0001
0001
1000
0100
0100
1000
,  // measure 46
0100
0010
0010
0001
0010
0001
1000
0000
,  // measure 47
0010
0100
0000
0010
0001
0000
0010
0000
,  // measure 48
0100
0000
0001
0100
0001
0000
1000
0100
1000
0000
0001
1000
0001
0000
0100
0010
,  // measure 49
0100
0020
0000
0000
0000
2030
0000
0000
,  // measure 50
0000
0000
3002
0000
0000
0000
0000
0000
0000
0000
0023
0000
0030
0100
1000
0000
,  // measure 51
0000
0100
0001
0100
0000
0010
0010
0010
,  // measure 52
0000
1000
0100
1000
0000
0001
0001
0001
,  // measure 53
0000
1000
0001
0100
0000
0001
1000
0100
,  // measure 54
0000
1000
0001
0010
0000
0001
1000
0110
,  // measure 55
1001
0001
0100
0000
1001
1000
0100
0000
1001
0001
1000
1001
0000
0110
0000
0000
,  // measure 56
1001
1000
0100
0000
1001
0001
0100
0000
1001
1001
0001
0011
0000
1100
1010
0000
,  // measure 57
1001
0100
0001
0100
0001
1000
0010
1000
,  // measure 58
0001
0010
0001
1000
0100
0010
0100
0000
,  // measure 59
1001
0001
0100
0001
1000
0100
1000
0001
,  // measure 60
0010
0001
1000
0010
1000
0001
0010
0100
,  // measure 61
1001
0010
1000
0001
0010
0100
1000
0001
,  // measure 62
0100
0010
1000
0001
0010
0100
1000
0001
,  // measure 63
0001
0010
0100
1000
0010
1000
0010
1000
,  // measure 64
0001
0010
0100
1000
0010
0100
0001
0100
0001
0100
0001
0100
0010
1000
0100
0010
,  // measure 65
0001
0010
0100
1000
0010
0100
0001
0100
0001
0100
0001
0100
0001
0100
0010
1000
,  // measure 66
1001
0100
0001
0110
1000
0100
1001
0000
,  // measure 67
0220
0000
0000
0000
,  // measure 68
0000
0000
0000
0000
0000
0000
0000
0330
,  // measure 69
1000
0000
0001
1000
0000
0010
0000
1000
0000
0100
0000
1000
0000
0001
0000
0020
,  // measure 70
0000
0000
0030
0000
0100
0000
1000
0001
0000
0010
0000
0100
0000
1000
0000
0002
,  // measure 71
0000
0000
0003
0000
0100
0000
0001
1000
0000
0100
0000
0010
0100
1000
0000
0001
,  // measure 72
0100
0000
0010
0000
1000
0000
0010
0000
1000
0000
0001
0000
0100
0000
0001
0000
0100
0000
0010
0000
1000
0000
0100
0000
0010
0001
1000
0100
0010
0001
0100
0010
,  // measure 73
1001
0000
0001
0000
0010
0001
1000
1100
,  // measure 74
0000
0010
0000
0100
0000
1000
0000
0001
,  // measure 75
0011
0010
0010
0100
1000
0010
0001
0110
,  // measure 76
0000
1000
0000
0100
0000
0001
0000
0010
,  // measure 77
1100
0000
1000
0000
0100
0010
0100
1000
,  // measure 78
0000
0010
0000
0001
0010
0100
0000
0001
,  // measure 79
0010
0000
0100
1000
0000
0100
0000
0010
,  // measure 80
0100
0000
0000
0000
1000
0000
0001
0000
0100
0001
0100
0001
1000
0010
1000
0010
,  // measure 81
0100
0001
0010
0100
1000
1000
0001
0110
,  // measure 82
0000
0100
0000
0010
0000
0010
0000
0001
,  // measure 83
0110
0000
0001
0000
0010
0100
1000
0101
,  // measure 84
0000
0100
0000
0010
0000
0001
0000
1100
,  // measure 85
0001
1000
1000
0000
0001
0100
0010
1000
,  // measure 86
0000
0001
0000
0010
0100
1000
0000
0100
,  // measure 87
0010
0000
0001
0010
0000
0001
0000
0010
,  // measure 88
0100
0010
0100
0000
0010
0100
0010
0000
0001
1000
0001
0000
1000
0001
1000
0000
,  // measure 89
0200
0000
0000
0000
0000
0000
0000
0000
0320
0000
0000
0000
0000
0000
0000
0000
0032
0000
0000
0000
0000
0000
0000
0000
2003
0000
0000
3100
0010
0000
0000
0000
,  // measure 90
0000
1001
1000
0001
0000
1000
0001
0000
,  // measure 91
0100
0000
0100
0000
0010
0000
0010
1000
,  // measure 92
0000
1001
0000
0001
0000
0010
0100
0000
,  // measure 93
0100
0000
0010
0000
0010
0000
0001
1000
,  // measure 94
0000
1001
0000
0010
0000
0100
0010
0000
,  // measure 95
0010
0000
1000
0000
1000
0000
0001
0010
,  // measure 96
0000
1001
0000
0100
0000
0100
1000
0000
,  // measure 97
0001
0000
0000
0000
0001
0000
0000
0000
0100
0001
0100
0000
0001
0100
0001
0010
,  // measure 98
0100
1000
0011
0000
0011
0000
0000
0000
0101
0000
0101
0000
0000
0000
1010
0000
,  // measure 99
1010
0000
1100
1100
0000
1001
0011
0101
,  // measure 100
0000
0110
0110
0000
1001
1001
0000
1100
,  // measure 101
1100
0000
0011
0011
0000
0110
1001
0110
,  // measure 102
0000
0000
0000
0000
0001
1000
0001
0000
1000
0001
1000
0000
0001
1000
0000
1001
0000
0000
0000
0000
0000
0000
0000
1100
0000
0000
0000
0011
0000
0000
0000
0000
,  // measure 103
0000
0000
0000
0220
0000
0000
0000
0000
0000
0000
0000
0000
0000
0000
0000
0000
0000
0000
0000
0000
0000
0000
0000
0000
0000
0000
0000
0000
0000
0000
0000
0000
,  // measure 104
0000
0000
0000
0000
0000
0000
0000
0330
0000
0000
0000
0000
0000
0000
0000
0000
0000
0000
0000
0000
0000
0000
0000
0000
0000
0000
0000
0000
0000
0000
0000
0000
;

//---------------dance-single - ----------------
#NOTES:
     dance-single:
     :
     Medium:
     12:
     0.538692,0.902633,0.226517,0.253166,0.126583,566.000000,532.000000,34.000000,38.000000,0.000000,0.000000,0.538692,0.902633,0.226517,0.253166,0.126583,566.000000,532.000000,34.000000,38.000000,0.000000,0.000000:
0000
0000
0000
0000
,
0000
0000
0000
0001
0010
0100
1000
0100
,
0010
0100
0000
0100
0000
1000
0000
0000
1000
0000
0001
0000
0100
0000
0010
0000
,
1000
0010
0000
1000
0000
1000
0000
0000
0101
0000
0000
0000
1100
0000
0000
0000
,
0011
0000
0000
0000
0000
0000
1001
0000
0000
0000
1001
0000
0000
0000
0000
0000
1000
0001
1000
0000
0001
1000
0001
0000
0100
0010
0000
1000
0000
0000
1000
0000
,
1001
1001
0000
1000
0000
0001
0000
0100
,
0000
0100
0000
0010
0000
0100
0000
0001
,
0000
0001
0000
0100
0000
0010
0000
0100
,
0000
0001
0000
0001
0000
1000
0000
0100
,
0000
0010
0000
0100
0000
1000
0100
1000
,
0100
1000
0100
1000
0100
1000
0100
1000
,
0000
0001
0000
0100
0000
0001
0100
0001
,
0100
0001
0100
0001
0100
0001
0100
0010
,
0000
1000
1000
0000
1000
1000
0000
0100
,
0100
0000
0100
0100
0000
0010
0010
0010
,
0000
0001
0001
0000
0001
0001
0000
0100
,
0100
0000
0010
0010
0000
0010
0100
0010
,
1000
0001
1000
2000
3000
0002
2003
0000
,
3200
0000
0320
0000
0032
0000
0203
0002
,
0300
0003
0000
0002
0000
0203
0320
0000
,
2030
0000
3200
0000
0320
0000
0031
1001
,
0000
0001
0000
0100
0001
0000
0100
0000
,
0200
0000
0300
0000
0010
0000
1000
0010
,
0000
1000
0000
1000
0001
0000
0010
0000
,
0100
0100
0010
0020
,
0030
0100
0000
1000
0001
0000
0100
0000
,
0200
0000
0300
0000
0010
0000
1000
0001
,
0000
1000
0000
0001
1000
0000
1000
0000
,
0002
0000
0003
0000
0000
0000
0001
0010
,
0000
0100
0000
1000
0001
0000
0100
0000
,
0200
0000
0300
0000
0000
0000
0000
0010
,
0000
1010
0000
0000
0000
0011
0000
0000
,
0000
0101
0000
0000
0000
1100
0000
0000
,
0000
1001
0000
0110
0000
1000
1000
0001
,
0001
2000
3020
0230
,
0301
0001
0000
1000
0000
1000
0000
0010
,
0020
0230
0302
2003
,
3100
0100
0000
0010
0000
0100
0010
0100
,
0010
0000
0001
0000
1000
0001
1000
0000
,
0001
1000
0000
0010
1000
0000
0100
0000
,
0010
0100
0000
0010
0001
0100
0010
0100
,
0001
1000
0000
0001
0000
0100
0010
0100
,
0010
0100
0001
1000
,
0100
0010
0000
0100
0000
0010
0100
0010
,
0100
0010
0001
1000
,
0001
1000
0000
0001
0000
0001
0100
1000
,
0100
0000
1000
0000
0100
0001
0100
0000
,
0001
1000
0000
0001
1000
0000
0001
0000
,
0100
0010
0000
0100
0010
0000
0100
0010
,
0000
2000
0000
0000
0000
3002
0000
0000
,
0000
2003
0000
0000
0000
3200
0000
0000
,
0300
0010
0100
0010
0000
0100
0010
0100
,
0000
1000
0001
1000
0000
0001
1000
0001
,
0000
0010
0001
0010
0000
0001
0010
0001
,
0000
1000
0100
1000
0000
0100
1000
0100
,
1001
0000
0000
0000
1001
0000
0000
0000
1001
0000
0000
1100
0000
0011
0000
0000
,
1001
0000
0000
0000
1001
0000
0000
0000
1001
0000
0000
0101
0000
1010
1001
0000
,
1000
0010
1000
0010
1000
0010
1000
0001
,
1000
0100
1000
0001
0010
0100
0010
0000
,
0001
0100
0001
0100
0001
0010
0001
1000
,
0100
1000
0001
0100
0001
1000
0100
0000
,
1000
0100
0010
0001
0100
0010
1000
0001
,
0010
0100
1000
0100
0010
0001
1000
0000
,
1000
0001
1000
0001
1000
0001
1000
0001
,
1000
0100
0010
0001
0100
0001
0100
0001
,
1000
0100
0010
0001
0100
0001
0100
0001
,
1001
0000
0000
0110
0000
0000
1001
0000
,
0220
0000
0000
0000
,
0000
0000
0000
0000
0000
0000
0000
0330
,
0001
0000
0000
0000
1000
0000
0000
0001
0000
1000
0000
0001
0000
1000
0000
0001
,
0000
0000
0000
0000
0010
0000
0000
0100
0000
0010
0000
0100
0000
0010
0000
0100
,
0000
1000
0001
1000
,
0010
0010
0010
0010
0100
0100
0100
0001
,
1001
1000
0001
0100
,
0010
0100
0010
0100
0000
0010
0000
1000
,
0001
1000
0001
0010
,
0100
0010
0100
0010
0000
0100
0000
1000
,
0001
0000
0100
0000
0010
0000
1000
0001
,
0000
0100
0000
0001
1000
0010
0000
1000
,
0001
0000
1000
0001
0000
1000
0000
0001
,
0010
0000
0001
1000
0000
0001
1000
0000
,
0010
0000
0100
0000
0001
0100
0001
0100
,
0000
0010
0000
1000
0000
0010
0000
1000
,
0010
0000
1000
0000
0100
1000
0100
1000
,
0000
0100
0000
1000
0000
0001
0000
0010
,
0001
0000
0010
0000
0001
0010
0001
0010
,
0000
0001
0000
1000
0001
1000
0000
0001
,
1000
0000
0001
1000
0000
0001
0000
0100
,
0010
0000
0100
0010
0000
0100
0010
0000
,
0020
0000
2030
0000
3002
0000
2003
3000
,
0000
0000
0000
1000
0000
0001
1000
0000
,
0010
0000
0010
0000
0100
0000
0100
0001
,
0000
1001
0000
1000
0000
0100
0010
0000
,
0010
0000
0100
0000
0100
0000
1000
0001
,
0000
1001
0000
0100
0000
0010
0100
0000
,
0100
0000
0001
0000
0001
0000
1000
0100
,
0000
1001
0000
0010
0000
0010
0001
0000
,
1000
0000
1000
0000
1000
0001
1000
0100
,
0010
0100
0010
0000
0001
0010
0000
0100
,
1000
0000
1000
0010
0000
1000
0100
0010
,
0000
0001
0010
0000
0100
1000
0000
0001
,
0010
0000
0100
1000
0000
0010
1000
0001
,
0000
0000
0000
0000
1000
0001
1000
0000
0001
1000
0001
0000
1000
0001
0000
1000
0000
0000
0000
0000
0000
0000
0000
0001
0000
0000
0000
1000
0000
0000
0000
0000
,
0000
0000
0000
0220
0000
0000
0000
0000
0000
0000
0000
0000
0000
0000
0000
0000
0000
0000
0000
0000
0000
0000
0000
0000
0000
0000
0000
0000
0000
0000
0000
0000
,
0000
0000
0000
0000
0000
0000
0000
0330
0000
0000
0000
0000
0000
0000
0000
0000
0000
0000
0000
0000
0000
0000
0000
0000
0000
0000
0000
0000
0000
0000
0000
0000
;

//---------------dance-single - ----------------
#NOTES:
     dance-single:
     :
     Easy:
     6:
     0.392122,0.590183,0.073285,0.086610,0.109927,412.000000,401.000000,11.000000,13.000000,0.000000,0.000000,0.392122,0.590183,0.073285,0.086610,0.109927,412.000000,401.000000,11.000000,13.000000,0.000000,0.000000:
0000
0000
0000
0000
,
0000
0000
0000
1000
0000
0001
0000
1000
,
0000
0001
0000
0001
0000
1000
0000
0000
0000
0000
0001
0000
0000
0000
1000
0000
,
0000
0001
0000
0001
0000
1000
0000
0000
0001
0000
0000
0000
1000
0000
0000
0000
,
0001
0000
0000
1000
0000
0001
0000
0000
0001
0001
1000
1000
0010
0000
0000
0000
,
0000
0001
0000
0001
0000
0001
0000
0001
,
0000
1000
0000
1000
0000
1000
0000
1000
,
0000
0001
0000
1000
0000
0001
0000
1000
,
0000
0001
0000
1000
0000
0001
0000
1000
,
0000
0010
0000
0010
0000
0100
0000
0100
,
0000
0010
0000
0100
0000
0010
0000
0100
,
0000
0001
0000
0001
0000
0100
0000
0100
,
0000
0001
0000
0100
0000
0001
0000
0100
,
0000
0010
0000
0000
0000
1000
0000
0000
,
0000
0001
0000
0000
0000
0010
0000
0000
,
0000
0100
0000
0000
0000
1000
0000
0000
,
0000
0001
0000
0000
0000
0100
0000
0000
,
0000
0010
0000
0010
0000
1000
0000
1000
,
0000
0001
0000
0100
0000
0001
0000
0100
,
0000
0010
0000
0010
0000
1000
0000
1000
,
0000
0001
0000
0100
0000
0001
0000
0100
,
0000
0001
0000
1000
0000
0100
0000
0010
,
0000
0100
0000
0010
0000
0100
0000
1000
,
0000
0001
0000
0100
0000
0001
0000
1000
,
0000
0010
0000
0010
0000
1000
0000
1000
,
0000
0001
0000
0010
0000
0100
0000
0010
,
0000
0001
0000
1000
0000
0001
0000
0100
,
0000
0010
0000
0000
0000
1000
0000
0000
,
0000
0001
0000
0000
0000
0010
0000
0000
,
0000
0100
0000
0000
0000
1000
0000
0000
,
0000
0001
0000
0000
0000
0100
0000
0000
,
0000
0010
0000
0010
0000
0100
0000
0100
,
0000
0010
0000
0010
0000
0100
0000
0010
,
0000
0100
0000
0100
0000
0001
0000
1000
,
0000
0001
0000
1000
0000
0001
1000
0001
,
1000
0001
0000
1000
0000
0100
0000
0010
,
0000
0100
0000
0010
0000
0100
0010
0100
,
0010
0100
0000
0010
0000
0001
0000
0001
,
0000
1000
0000
1000
0000
0010
0000
0100
,
0000
0001
0000
1000
0000
0100
0000
0010
,
0000
0001
0000
0100
0000
0010
0000
1000
,
0000
0100
0000
0100
0000
0001
0000
0100
,
0000
1000
0000
0100
0000
0001
0000
0100
,
0000
0010
0000
0100
0000
1000
0000
1000
,
0000
0010
0000
0001
0000
0010
0000
0100
,
0000
0010
0000
1000
0000
0010
0000
0010
,
0000
1000
0000
1000
0000
0001
0000
0001
,
0000
0010
0000
0100
0000
1000
0000
0001
,
0000
0100
0000
1000
0000
0100
0000
0001
,
0000
0020
0000
0000
0000
0230
0000
0000
,
0000
2300
0000
0000
0000
3020
0000
0000
,
0030
0100
0000
0001
0000
1000
0000
0010
,
0000
0100
0000
0001
0000
1000
0000
0010
,
0000
0100
0000
0001
0000
1000
0000
0010
,
0000
0200
0000
0301
0000
1000
0001
0010
,
0001
0000
0000
0000
1000
0000
0000
0000
1000
0000
0000
1001
0000
1001
0000
0000
,
1000
0000
0000
0000
1000
0000
0000
0000
0001
0000
0000
1001
0000
1001
1001
0000
,
0001
0000
0100
0000
0001
0100
0001
0000
,
0100
0000
0010
0000
1000
0010
1000
0000
,
0001
0000
1000
0000
0100
1000
0100
0000
,
0010
0000
0001
0000
0010
0001
0010
0000
,
0001
0000
1000
0000
0001
1000
0001
0000
,
1000
0000
0010
0000
0100
0010
0100
0000
,
0010
0010
0010
0010
,
0100
0100
0100
0100
,
0001
1000
0001
1000
,
1001
0000
0000
0110
0000
0000
1001
0000
,
0220
0000
0000
0000
,
0000
0000
0000
0000
0000
0000
0000
0330
,
1000
0000
0000
0000
0001
0000
0000
1000
0000
0001
0000
1000
0000
0001
0000
1000
,
0000
0000
0000
0000
0100
0000
0000
0010
0000
0100
0000
0010
0000
0100
0000
0010
,
0000
0001
1000
0001
,
0100
0100
0100
0100
0010
0010
0010
1000
,
1001
0000
0001
1000
,
0010
0100
0001
0001
,
1000
0000
1000
0100
,
0010
0001
0100
0100
,
0010
0000
0001
1000
,
0010
1000
0100
0010
,
0001
0001
1000
1000
,
0100
0010
0100
1000
,
0001
0000
1000
1000
,
0010
0100
0001
1000
,
0100
0000
0010
0010
,
0100
1000
0001
0100
,
0010
0000
0100
0100
,
0001
1000
0100
0010
,
0100
1000
0001
0100
,
0010
0100
0001
1000
,
0200
0000
0320
0000
0032
0000
2003
3000
,
0000
0000
0000
1000
0000
1000
0000
0001
,
0000
0100
0000
0010
0000
1000
0000
0100
,
0000
0000
0000
0010
0000
0001
0000
0100
,
0000
0010
0000
1000
0000
0100
0000
0010
,
0000
0000
0000
0010
0000
0001
0000
0100
,
0000
0010
0000
1000
0000
0100
0000
0010
,
0000
0000
0000
0010
0000
0001
0000
0100
,
0000
0010
0000
1000
0000
0100
0000
0010
,
0000
0100
0000
0000
1000
0000
0000
0001
,
0000
0000
0100
0000
0000
0010
0000
0010
,
0000
1000
0000
0000
0001
0000
0000
0010
,
0000
0000
0100
0000
0000
1000
0000
1000
,
0000
0000
0000
0000
0001
1000
0001
0000
1000
0001
1000
0000
0001
1000
0000
0001
0000
0000
0000
0000
0000
0000
0000
1000
0000
0000
0000
0001
0000
0000
0000
0000
,
0000
0000
0000
0220
0000
0000
0000
0000
0000
0000
0000
0000
0000
0000
0000
0000
0000
0000
0000
0000
0000
0000
0000
0000
0000
0000
0000
0000
0000
0000
0000
0000
,
0000
0000
0000
0000
0000
0000
0000
0330
0000
0000
0000
0000
0000
0000
0000
0000
0000
0000
0000
0000
0000
0000
0000
0000
0000
0000
0000
0000
0000
0000
0000
0000
;
