#TITLE:Coolest;
#SUBTITLE:Sakamoto Desu Ga Opening;
#ARTIST:customiZ;
#TITLETRANSLIT:;
#SUBTITLETRANSLIT:;
#ARTISTTRANSLIT:;
#GENRE:;
#CREDIT:Magna Trick;
#BANNER:COOLBN.jpg;
#BACKGROUND:COOLBG.jpg;
#LYRICSPATH:;
#CDTITLE:Magna Trick title!.png;
#MUSIC:Coolest.mp3;
#OFFSET:-0.006729;
#SAMPLESTART:54.000000;
#SAMPLELENGTH:14.000000;
#SELECTABLE:YES;
#BPMS:0.000000=188.000000
,99.000000=94.000000
,113.500000=188.000000
;
#STOPS:
;
#BGCHANGES:0.063=Coolest.avi=1.000=0=0=1=====,
259.500=COOLBG.jpg=1.000=0=0=1=====,
99999=-nosongbg-=1.000=0=0=0 // don't automatically add -songbackground-
;
#KEYSOUNDS:;
#ATTACKS:;

//---------------dance-single - ----------------
#NOTES:
     dance-single:
     :
     Hard:
     14:
     0.836237,1.078853,0.598670,0.066519,0.249446,528.000000,474.000000,54.000000,6.000000,0.000000,0.000000,0.836237,1.078853,0.598670,0.066519,0.249446,528.000000,474.000000,54.000000,6.000000,0.000000,0.000000:
0000
0000
0000
0000
,
0001
0010
0100
1000
0001
0010
0100
1000
,
0000
1000
0010
0100
0001
0000
0110
0000
,
1001
0000
0010
1000
0001
0100
0010
1000
,
0000
1001
0000
1001
0000
0110
0110
0000
,
0010
1000
0001
0100
0010
1000
0001
0100
,
0010
1000
0001
0100
0010
1000
0001
0100
,
0010
0010
1000
1000
0001
0001
0100
0100
,
0000
0010
1010
0000
0101
0000
0001
0000
,
1000
0000
0001
1000
1000
0001
0001
1000
,
1000
0001
0001
1000
0010
0000
0110
0000
,
1001
0000
0010
1000
0100
1000
0010
1000
,
0100
1000
0010
0100
0010
0000
1010
0000
,
0110
0000
1000
0100
0001
0100
1000
0100
,
0001
0100
0010
0100
0001
0000
0110
0000
,
1001
0000
1000
0100
0010
0001
0010
0100
,
1000
0001
0100
0010
1000
0000
0101
0000
,
1010
0000
0010
1000
0001
1000
0100
1000
,
0001
0010
0001
1000
0001
0000
0100
0000
,
0010
0100
1000
0100
0010
0001
0010
1000
,
0010
0100
0010
1000
0100
0000
0010
0001
,
0100
0000
0010
1000
0100
0000
0010
0001
,
0100
0000
0000
0000
0010
0000
1000
0000
0100
0000
0010
0001
0010
0001
0010
0001
,
1000
0000
0000
0000
0001
0000
1000
0010
0100
0000
0100
0000
0001
0000
1000
0000
,
0000
0000
1000
0100
0010
0000
0001
0100
0010
0000
0100
0000
0100
0010
0100
0000
,
0100
0010
0100
0000
0000
0000
0000
0001
0001
1000
0100
0100
1000
1000
1000
0000
,
0010
0010
0010
0000
0010
1000
0001
0100
0010
1000
0100
0000
0100
0010
0001
0010
,
0100
1000
0001
0010
0100
1000
0001
0010
0100
1000
0001
0000
1000
0010
0200
0300
,
0200
0300
0002
0003
0002
0003
1100
0000
0000
0000
1010
0000
0000
0000
0011
0000
,
0000
0101
0001
1000
0001
1000
0001
0100
,
0010
0100
0010
1000
0001
0100
0010
0000
,
0000
0010
1000
0100
0010
0010
0010
0001
,
0010
0100
1000
1001
0000
0110
0000
1001
,
0000
0110
0000
1001
0000
0010
1000
0001
,
0000
0010
1000
0001
0100
0010
1000
0001
,
0000
0001
0001
1000
1000
0010
0010
0100
,
0100
0001
0001
0010
0010
0010
0010
0010
,
0010
0000
0010
0000
0010
0000
0100
0010
0100
0010
0100
0010
0100
0010
0100
0010
,
0100
0010
0100
0010
0100
0010
0001
0000
0000
0000
0001
0000
1000
0000
0000
0000
,
1000
0010
0100
1000
0001
0010
1000
0000
,
0100
0010
1000
0001
0000
0101
1000
0100
,
0000
1010
0100
0001
0100
0001
1000
0010
,
0100
0001
0000
1001
0001
0010
0110
0000
,
0100
1000
0001
1100
0010
1000
0101
0000
,
0001
0010
0100
0110
0000
1100
1000
0010
,
0000
0000
0101
0000
0001
0000
0010
0000
0100
0010
0100
0000
0010
0000
0100
1000
,
0100
1000
0001
0100
0001
0100
0010
0000
0000
0000
1000
0000
0001
0000
0000
0000
,
1000
0001
0010
0100
1000
0001
0101
0000
,
1000
0100
0001
0010
0000
0011
0001
0100
,
0000
0000
1010
0000
1000
0000
0100
0000
0100
0000
0010
0000
0001
0000
0100
0010
,
0100
0010
0100
0010
0100
0000
1001
0000
0010
0000
0100
0000
1001
0000
0000
0000
,
0010
1000
0001
0110
0001
1000
0110
0000
,
0001
1000
0010
0101
0010
1001
0000
1010
,
0100
1001
0000
1001
0010
0100
0010
0100
,
0010
0100
0010
1001
0000
0100
0000
0010
,
0001
0010
1000
0010
0100
0010
0001
0010
,
1000
0010
0100
0010
0000
0001
0100
0000
,
0100
0010
0000
1000
0000
0001
0100
1000
,
0100
0010
0100
0001
0000
0100
0010
1000
,
0100
0010
1000
0001
0000
1100
0000
0011
,
0000
1001
0000
0001
0100
1000
0010
1000
,
0100
0001
0100
1000
0010
0001
0010
0000
,
0010
0000
1000
0000
0000
0000
1000
0001
1000
0001
1000
0000
0001
0000
0001
0000
,
0100
0000
0100
0000
0010
0000
0000
0000
0010
1000
0001
0100
0010
1000
0001
0000
,
0000
0010
0000
0110
1001
0110
2002
3003
;

//---------------dance-single - ----------------
#NOTES:
     dance-single:
     :
     Challenge:
     17:
     0.999366,1.186738,0.509978,0.088692,0.715078,631.000000,585.000000,46.000000,8.000000,0.000000,1.000000,0.999366,1.186738,0.509978,0.088692,0.715078,631.000000,585.000000,46.000000,8.000000,0.000000,1.000000:
// measure 0
0000
0000
0000
0000
0000
0000
0000
0000
1000
0001
1000
0001
1000
0001
1000
0001
,  // measure 1
0010
0100
0010
0100
0000
0000
1000
0000
0000
1000
0000
0000
0001
0000
0000
0001
0000
0000
0010
0000
0000
0100
0000
0000
,  // measure 2
0000
1000
1000
0001
0001
0000
0110
0000
,  // measure 3
1001
0000
0010
0010
0001
0001
1000
1000
,  // measure 4
0000
1000
0001
0000
0000
0001
1000
0000
0000
0000
1001
0000
0110
0000
0000
0000
,  // measure 5
0100
0001
0100
0010
0100
0001
0100
0010
0100
0001
0100
0010
0100
0001
0100
0010
,  // measure 6
1000
0001
1000
0010
1000
0001
1000
0010
1000
0001
1000
0010
1000
0100
0010
0001
,  // measure 7
0100
0000
0100
0001
1000
0100
0010
0000
0001
1000
0100
1000
0001
0100
0001
0000
,  // measure 8
0010
0100
0010
0100
0010
0000
0000
0000
1001
0000
0000
0000
2000
0000
0000
0000
,  // measure 9
3002
0000
1003
0001
0001
1000
1000
0001
,  // measure 10
0001
1000
1000
0001
0100
0000
0110
0000
,  // measure 11
1001
0000
0100
0001
0010
0001
0100
0001
,  // measure 12
0010
0001
0100
0010
0110
0000
0101
0000
,  // measure 13
0110
0010
0001
0010
1000
0010
0001
0010
,  // measure 14
1000
0010
0100
0010
1000
0000
0110
0000
,  // measure 15
1001
0000
0001
0010
0100
1000
0100
0010
,  // measure 16
0001
1000
0010
0100
0001
0001
1001
1000
,  // measure 17
1001
0000
0100
0001
1000
0001
0010
0001
,  // measure 18
1000
0100
1000
0001
1000
0000
0010
0000
,  // measure 19
0100
0010
0100
0001
0100
0000
0010
0000
0100
0010
0100
1000
0100
0000
0001
0000
,  // measure 20
0100
1000
0100
0001
0100
0000
0001
0000
0010
0000
0001
0000
1000
0100
1000
0100
,  // measure 21
0010
0000
0001
0000
0100
0001
0100
0001
1000
0000
0100
0000
0010
0001
0010
0001
,  // measure 22
1000
0000
0001
0000
1000
0010
1000
0010
0100
0000
0100
0010
0100
0010
0100
0010
,  // measure 23
1000
0000
0000
0000
1000
0000
0001
0100
0010
0000
0010
0000
1000
0000
0001
0000
,  // measure 24
0000
0000
0001
0010
0100
0000
1000
0010
0100
0000
0010
0000
0010
1000
0100
0000
,  // measure 25
0010
0001
0100
0000
0010
0000
1000
0100
0100
0010
0001
0001
1000
1000
1000
0000
,  // measure 26
0100
0100
0100
0000
0100
0010
0010
0001
0001
1000
1000
0000
0010
0100
1000
0100
,  // measure 27
0010
1000
0100
0001
0100
0010
1000
0010
0100
0001
1000
0001
0100
0010
0002
0000
,  // measure 28
0023
2030
3200
0311
0000
0101
0000
1100
,  // measure 29
0000
1010
1000
0001
1000
0001
1000
0010
,  // measure 30
0100
0000
0010
0000
0100
0000
0001
1000
0001
1000
0010
0000
0100
0000
0000
0000
,  // measure 31
0010
0100
0001
0010
0100
0100
0100
1000
,  // measure 32
0100
0000
0010
0000
0001
1000
0001
0000
1000
0001
1000
0000
0010
0100
0010
0000
,  // measure 33
0100
0010
0100
0001
0010
0100
1000
0000
0001
0000
0100
0000
0001
0000
1000
0000
,  // measure 34
0000
0000
1001
0000
0001
0000
1001
0000
0010
0000
0100
0000
0001
0010
0001
0000
,  // measure 35
1000
0001
0100
0001
1000
0100
0010
0000
0010
0000
0001
0000
0001
0100
1000
0000
,  // measure 36
1000
0100
0100
0010
0010
0010
0010
0010
,  // measure 37
0010
0000
0010
0000
0010
0000
1000
0001
1000
0001
1000
0001
1000
0001
1000
0001
,  // measure 38
1000
0001
1000
0001
1000
0001
0100
0000
0000
0000
0010
0000
1000
0000
0000
0000
,  // measure 39
0001
0100
0010
0001
1000
0100
0001
0000
,  // measure 40
0010
0100
0001
1000
0000
1010
0001
0010
,  // measure 41
0000
0101
0010
1000
0010
1000
0001
0100
,  // measure 42
0010
0000
1000
0001
0010
0100
1000
0000
1000
0000
0100
0000
0110
0000
0000
0000
,  // measure 43
0010
0001
1000
0011
0100
0001
1010
0000
,  // measure 44
1000
0100
0010
0110
0000
0011
0001
0100
,  // measure 45
0000
0000
1010
0000
1000
0000
0100
0000
0010
0100
0010
0000
0100
0000
0010
0001
,  // measure 46
0010
0001
1000
0010
1000
0010
0100
0000
0000
0000
0001
0000
1000
0000
0000
0000
,  // measure 47
0001
1000
0100
0010
0001
1000
1010
0000
,  // measure 48
0001
0010
1000
0100
0000
1100
1000
0010
,  // measure 49
0000
0000
0101
0000
0001
0000
0010
0000
0010
0000
0100
0000
1000
0000
0010
0100
,  // measure 50
0001
1000
0100
0010
0001
0000
1001
0000
0100
0000
0010
0000
1001
0000
0000
0000
,  // measure 51
0100
0001
1000
0110
1000
0001
0110
0000
,  // measure 52
1000
0001
0100
1010
0100
1001
0000
0101
,  // measure 53
0010
0000
1001
0000
0000
0000
0010
0100
0010
0000
0100
0010
0100
0000
0010
1000
,  // measure 54
0100
0010
0001
0100
0010
1000
0100
0000
0000
0000
0010
0000
0000
0000
0100
0000
,  // measure 55
1000
0100
0001
0100
0010
0100
1000
0100
,  // measure 56
0001
0100
0010
0100
0000
1000
0010
0000
,  // measure 57
0010
0100
0000
0001
0000
1000
0010
0001
,  // measure 58
0010
0100
0001
0000
0010
0100
1000
0000
0000
0000
0010
0000
0100
0000
0001
0000
,  // measure 59
0010
0000
0100
0000
1000
0001
0100
0000
0001
1000
0100
0000
0010
0001
1000
0000
,  // measure 60
0010
1000
0001
0100
0010
1000
0001
0000
0010
0000
0001
0000
0100
0000
0001
0000
,  // measure 61
0010
1000
0010
0011
1100
0011
1100
0000
,  // measure 62
0110
0000
1001
0000
0000
0000
0001
1000
0100
1000
0001
0100
0001
0010
0100
1000
,  // measure 63
0100
0010
0001
0100
0010
0000
0000
0000
0100
0001
1000
0010
1000
0001
0100
0000
,  // measure 64
0001
1000
0100
0000
0000
0000
0100
1000
0010
0100
0001
0010
2002
0000
3003
0000
;

//---------------dance-single - ----------------
#NOTES:
     dance-single:
     :
     Medium:
     12:
     0.674691,0.900776,0.354767,0.121951,0.066519,426.000000,394.000000,32.000000,11.000000,0.000000,0.000000,0.674691,0.900776,0.354767,0.121951,0.066519,426.000000,394.000000,32.000000,11.000000,0.000000,0.000000:
0000
0000
0000
0000
,
1000
0100
1000
0100
1000
0100
1000
0100
,
0000
0010
0001
0010
0001
0000
1001
0000
,
0110
0000
0100
0010
0100
0010
0100
0010
,
0000
1001
0000
1001
0000
1001
0000
0000
,
0100
0001
0100
0001
0100
0001
0100
0001
,
1000
0010
1000
0010
1000
0010
1000
0010
,
0100
0001
0010
0100
1000
0010
0100
0001
,
0000
0001
1000
0000
1001
0000
0100
0000
,
0001
0000
1000
0000
0010
0100
0001
1000
,
0010
0100
0001
1000
0010
0000
0100
0000
,
0110
0000
0100
0000
0001
0010
0100
1000
,
0001
0010
0100
1000
0001
0000
0011
0000
,
1000
0000
1000
0100
0010
0001
1000
0100
,
0010
0001
1000
0100
0010
0000
0002
0000
,
2003
0000
3001
0000
1000
0010
0100
0001
,
1000
0010
0100
0001
1000
0000
0010
0000
,
1000
0001
1000
0001
0010
0001
0010
0001
,
1000
0001
1000
0010
1000
0010
1000
0100
,
1000
0100
1000
0001
0100
0001
1000
0010
,
0100
0001
1000
0010
0100
0000
0002
0000
,
1003
0002
1003
0002
,
1003
0000
0002
0000
1003
0000
0100
0010
,
0100
0000
0010
0100
0010
0100
0010
0100
,
0000
0000
0010
0000
0010
0000
0000
0000
0100
0000
0000
0000
0010
0100
0010
0000
,
0010
0100
0010
0000
0000
0000
0000
1000
0001
0000
0001
1000
0010
0010
0010
0000
,
0100
0100
0100
0000
0100
0001
1000
0000
0100
0000
0100
0000
0010
0100
1000
0000
,
0010
0100
0001
0000
0010
0100
1000
0000
0010
0100
0001
0000
0001
0100
0010
0000
,
0010
1000
1000
1001
0000
0110
0000
1001
,
0000
0110
0000
0001
1000
0001
1000
0010
,
0100
0010
0100
0001
1000
0010
0200
0000
,
0300
0001
1000
0001
1000
0100
0010
0100
,
0010
0001
1000
0010
0000
0010
0000
0100
,
0000
0100
0000
1001
0000
0010
1000
0001
,
0000
0010
0001
1000
0010
0100
0001
1000
,
0000
1000
0100
0010
0001
0010
0100
1000
,
0001
0010
0100
1000
1000
1000
1000
1000
,
1000
1000
1000
2000
0000
0000
0000
3000
,
0000
1001
0000
0110
0000
0000
0110
0000
,
0010
1000
0001
0100
0010
0000
1010
0000
,
0010
0001
0100
0010
0000
0011
0000
1000
,
0000
1010
0000
1000
0001
0100
0001
1000
,
0000
0100
0000
1100
0000
0000
0101
0000
,
0001
1000
0100
1000
0001
0000
0110
0000
,
1000
0010
1000
0001
0000
0011
0000
1000
,
0000
1010
0000
0010
1000
0001
0200
0000
,
0300
0000
0000
0011
0000
0000
1100
0000
,
0100
1000
0001
0010
0100
1000
0001
0000
,
0010
1000
0001
0100
0000
0110
0000
1000
,
0000
1001
0000
0001
1000
0010
1000
0001
,
0000
1000
0000
1100
0000
0000
0011
0000
,
0001
0010
0001
0100
0010
0100
0001
0000
,
1000
0100
1000
0010
0000
0110
0000
0001
,
0000
1001
0000
0010
0100
0001
1000
0100
,
0000
0010
0000
0002
0000
0000
0000
0000
,
0000
1003
0000
0010
0100
0010
0100
0010
,
0100
0010
0100
0001
0000
0100
0010
0000
,
0100
1000
0000
0100
0000
0010
0000
0010
,
0000
1000
0000
1000
0000
0001
1000
0001
,
1000
0001
1000
0001
0000
0010
0000
0100
,
0000
1000
0000
0100
1000
0100
1000
0001
,
0010
0001
0010
0100
1000
0001
0100
0000
,
0010
0100
0000
0010
0010
0100
0100
0100
,
0001
0001
1000
0000
1000
1000
0100
0100
,
0000
0010
0000
0001
0001
1000
2000
0000
,
3000
0000
0000
0000
;

//---------------dance-single - ----------------
#NOTES:
     dance-single:
     :
     Easy:
     6:
     0.414951,0.540466,0.299335,0.011086,0.000000,262.000000,235.000000,27.000000,1.000000,0.000000,0.000000,0.414951,0.540466,0.299335,0.011086,0.000000,262.000000,235.000000,27.000000,1.000000,0.000000,0.000000:
0000
0000
0000
0000
,
0000
0000
0000
0000
,
0000
0000
0000
1001
,
0110
0000
0000
0000
,
0000
0110
0000
0110
0000
0110
0000
0000
,
0010
1000
0010
1000
,
0001
0100
0001
0100
,
0001
1000
0001
1000
0000
1000
0001
1000
,
0000
1000
0001
0000
1000
0000
0000
0000
,
0000
0010
0000
1000
,
0000
0001
0000
0100
,
0000
0010
0000
0001
,
0000
0100
0000
1000
,
0000
0010
0000
0100
,
0000
0001
0000
0010
,
0000
0100
0000
1000
,
0000
0001
0000
0100
,
0010
0100
0010
0100
,
0001
1000
0001
1000
,
0100
1000
0100
1000
,
0001
0010
0001
1000
,
1000
0001
0001
0010
,
0010
0100
0100
1000
,
0001
0000
0100
0000
0010
0100
0010
0100
,
0000
0010
0100
0000
0010
0000
0010
1000
,
0000
0001
0000
0000
0010
0001
0000
1000
,
0000
0100
0000
0000
0010
0010
0000
0001
,
0000
1000
0000
0010
0000
0100
0000
0001
,
0001
1000
1000
1001
0000
1001
0000
1001
,
0000
1001
0000
0010
0000
1000
0000
0001
,
0000
0010
0000
0001
0000
1000
0000
0010
,
0000
1000
0000
0001
0000
0001
0000
1000
,
0000
1000
0000
0100
0000
0100
0000
0100
,
0000
0100
0000
0100
0000
0010
0000
0010
,
0000
0000
0000
0001
0000
0001
0000
0001
,
0000
0000
0000
1000
0000
1000
0000
0010
,
0000
0010
0000
0100
0010
0100
0010
0100
,
0010
0100
0010
0100
0000
0001
0000
1000
,
0000
0001
0000
1000
0100
1000
0100
0000
,
0000
0000
0000
0001
0100
0001
0100
0000
,
0000
0000
0000
0010
0000
1001
0000
0010
,
0000
1001
0000
0010
1000
0010
1000
0010
,
0000
1000
0000
1001
0000
0000
1001
0000
,
0000
0000
0000
1001
0000
0000
1001
0000
,
0000
0000
0000
0000
0000
1001
0000
0000
,
0000
1001
0000
0010
0001
0010
0001
0010
,
0000
0001
0000
1000
0000
0000
0001
0000
,
0000
0000
0000
0110
0000
0000
1001
0000
,
0000
0000
0000
0011
0000
1100
0000
0000
,
0000
1010
0000
0000
0000
0101
0000
0001
,
0000
1000
0000
1001
0000
0000
0110
0000
,
0000
0000
0000
0110
0000
0000
1001
0000
,
0000
0000
0000
0001
0000
0010
0000
0100
,
0000
1000
0000
0001
0100
0010
0100
0001
,
0000
0100
0000
0010
0000
0010
0000
1000
,
0000
1000
0000
0100
0000
0010
0000
0001
,
0000
0010
0000
0100
0000
1000
0000
0001
,
1000
0001
0000
1000
0000
0001
0000
0001
,
0000
1000
0000
1000
0000
0010
0000
0100
,
0000
0001
0000
0010
0000
0010
0000
0010
,
0000
0010
0000
0100
0000
0100
0000
0001
,
0000
0001
0000
0100
0000
1000
0000
0001
,
0000
0100
0000
0010
0100
0010
0100
0010
,
0100
0010
0100
0000
0001
1000
0001
1000
,
0000
0001
0000
1000
0100
1000
0200
0000
,
0300
0000
0000
0000
;
