#TITLE:Connect;
#SUBTITLE:Madoka Magica Opening;
#ARTIST:ClariS;
#TITLETRANSLIT:;
#SUBTITLETRANSLIT:;
#ARTISTTRANSLIT:;
#GENRE:;
#CREDIT:Magna Trick;
#BANNER:COBN.jpg;
#BACKGROUND:COBG.jpg;
#LYRICSPATH:;
#CDTITLE:Magna Trick title!.png;
#MUSIC:Connect.mp3;
#OFFSET:0.008124;
#SAMPLESTART:66.500000;
#SAMPLELENGTH:14.000000;
#SELECTABLE:YES;
#BPMS:0.000000=87.500000
,17.000000=175.000000
;
#STOPS:215.500000=0.171000,
216.000000=0.171000
;
#BGCHANGES:0.063=Connect.avi=1.000=0=0=1=====,
242.000=COBG.jpg=1.000=0=0=1=====,
99999=-nosongbg-=1.000=0=0=0 // don't automatically add -songbackground-
;
#KEYSOUNDS:;
#ATTACKS:;

//---------------dance-single - ----------------
#NOTES:
     dance-single:
     :
     Hard:
     12:
     0.653012,0.810784,0.411509,0.177950,0.172389,411.000000,374.000000,37.000000,16.000000,0.000000,0.000000,0.653012,0.810784,0.411509,0.177950,0.172389,411.000000,374.000000,37.000000,16.000000,0.000000,0.000000:
0000
0000
0000
0000
0000
0000
0000
0000
1000
0000
0001
0000
0100
0000
0001
0000
0020
0000
0000
0030
0000
0000
0100
0000
1000
0000
0010
0000
0000
0000
0100
0000
,
0001
0010
0000
0100
0000
0100
0000
2000
0000
3000
0000
0001
0010
0100
0000
1000
,
0010
0100
0001
0010
0000
0001
0010
0100
1000
0000
0000
1000
0100
0001
0000
0001
,
0100
0000
1000
0000
0000
0000
0011
0000
0000
0000
1100
0000
0000
0000
0002
0000
0000
0000
0000
0000
0000
0000
0000
0000
0000
0003
1000
0000
0001
0000
2000
0000
,
0000
0000
0000
0000
0000
0000
3001
1000
0010
0000
0000
0000
0110
0000
0000
0000
,
0001
1000
0100
1000
0000
0001
0100
0000
,
0001
0100
0010
0000
1001
0000
0110
0000
,
0001
0100
0001
1000
0000
0001
1000
0000
,
1000
0000
1000
0000
0100
1000
0100
1000
0001
0000
0000
0000
0010
0000
0000
0000
,
0001
0010
0100
1000
0000
0100
0010
0000
,
0001
0100
0010
0000
1000
0001
0001
1000
,
1000
0000
0000
0001
0000
0000
1000
0000
0000
0010
0000
0000
0110
0000
0000
0000
0000
0000
0100
0000
0000
0000
0000
0001
,
1000
0100
0110
0010
,
0100
0010
1000
0010
0110
0000
0001
0100
,
0000
0010
0000
1000
1100
0000
0010
0000
,
0001
1000
0100
0000
0011
0000
0001
0011
,
0000
1000
0010
0001
0101
0000
0001
0000
,
0100
0010
0000
1000
1100
0100
0001
0100
,
0000
1000
0000
0001
1001
0000
1000
0000
,
1000
0100
1000
0010
1010
0000
1000
0000
,
0101
0100
0001
1000
1001
0000
0100
0000
,
0010
0001
0000
0010
0110
0000
1000
1001
,
0000
0100
0000
0010
1010
0000
0100
0000
,
0010
0001
0000
0010
0110
0000
1000
1001
,
0000
0100
0010
1000
1001
0000
0100
0000
,
0010
1000
0000
0100
0110
0010
0100
0010
,
0110
0000
1000
0000
1001
0000
0001
1000
,
0010
1000
0001
0000
1010
0000
0100
0000
,
0011
0000
0001
0001
1000
0000
1000
0000
,
1000
0000
1000
0001
1000
0000
1000
0000
,
1000
0000
1000
0000
1000
0010
1000
0100
,
1000
0010
1000
0001
1000
0000
1000
0000
,
1000
0000
1000
1000
1000
0010
1000
1000
,
1000
0100
1000
1000
1000
0001
1000
0010
,
1000
0100
1000
0001
1000
0010
1000
0100
,
1000
0001
1000
0100
1000
0010
1000
0001
,
1000
0100
1000
0010
1000
1000
1000
1000
,
1000
1000
0010
0010
1000
0100
1000
0001
,
1000
1000
1000
0001
1000
1000
0001
1000
,
1000
0001
1000
1000
0001
0001
1000
0010
,
1000
0100
1000
0100
1100
0100
1000
1000
,
0010
1000
0001
1000
1010
1000
0010
1000
,
0001
1000
0010
1000
1000
1000
1000
1000
,
1000
0000
1000
0000
1000
0100
1000
0000
1002
0000
0000
0000
0000
2000
0000
3003
,
0001
0010
0100
1000
0001
0000
0000
0001
,
0100
1000
0000
1000
0100
0001
0000
0010
,
0000
0010
0000
0200
0000
0300
0000
1000
,
0010
0001
0000
0001
0010
1000
0100
0010
,
0000
0100
0001
0100
0020
0000
0030
0010
,
0100
1000
0000
1000
0001
0100
0000
1000
,
0000
0001
0000
0020
0000
0000
0000
0000
,
0000
1030
0001
2000
0000
0000
0000
3000
,
0001
0010
0100
1000
0001
0000
0000
0001
,
0100
1000
0000
1000
0001
0010
0000
1100
,
0011
1001
0000
0000
0000
0100
1000
0001
,
0000
0001
1000
0010
0100
0002
0000
2003
,
0000
3100
0020
0000
0031
0000
0010
0100
,
1000
0001
0010
0000
0100
1000
0000
0010
,
0000
0100
0002
0000
1003
0000
0001
1000
,
0100
0010
0110
0000
0010
0000
1001
0000
,
0010
0220
0000
0330
;

//---------------dance-single - ----------------
#NOTES:
     dance-single:
     :
     Challenge:
     14:
     0.772175,1.114828,0.411509,0.166828,0.394826,486.000000,449.000000,37.000000,15.000000,0.000000,0.000000,0.772175,1.114828,0.411509,0.166828,0.394826,486.000000,449.000000,37.000000,15.000000,0.000000,0.000000:
// measure 0
0000
0000
0000
0000
0001
1000
0010
1000
0100
0010
0100
1000
0100
0010
0001
1000
,  // measure 1
0100
0001
0100
1000
0100
0010
0001
1000
0010
1000
0100
1000
0001
0100
0010
0100
,  // measure 2
0001
0010
0100
1000
0001
1000
0100
0010
0001
1000
0001
0100
0001
0010
0100
1000
,  // measure 3
0001
0100
0001
1000
0010
0100
0001
1000
0100
1000
0100
0010
0001
0100
0100
0200
,  // measure 4
0000
0000
0000
0000
0300
0000
0010
1000
0100
0000
0000
0000
0110
0000
0000
0000
,  // measure 5
0001
0000
0001
0000
0010
0001
1000
0000
0000
0000
1000
0000
0010
0000
0000
0000
,  // measure 6
1000
0000
0010
0000
0100
0000
0001
1000
0010
0000
0000
0000
0110
0000
0000
0000
,  // measure 7
1000
0000
0010
0000
1000
0001
0100
0000
0000
0000
0010
0000
1000
0000
0000
0000
,  // measure 8
0001
0000
0001
0000
0010
0001
0010
0001
1000
0000
0000
0000
0100
0000
0000
0000
,  // measure 9
1000
0000
0100
0000
0010
0001
1000
0000
0000
0000
0010
0000
0100
0000
0000
0000
,  // measure 10
1000
1000
0100
0100
0001
1000
1000
0001
,  // measure 11
0001
0000
0000
0000
1000
0000
0000
0000
0001
0000
0000
0000
0100
0000
0010
0000
0100
0000
0000
0000
0000
0000
0000
0000
0010
0000
0000
0000
0000
0000
0000
1000
,  // measure 12
0001
1000
0000
0000
0000
0000
0000
0000
0010
0000
0000
0000
0000
0000
0000
0000
0110
0000
0000
0000
0000
0000
0000
0000
0100
0000
0000
0000
0000
0000
0000
0000
,  // measure 13
0010
0100
0001
0100
0110
0000
1000
0010
,  // measure 14
0000
0000
0100
0000
0001
0000
0001
0010
0100
0000
0000
0000
0100
0000
0000
0000
,  // measure 15
1000
0001
0010
0100
1100
0000
1000
1100
,  // measure 16
0000
0001
0100
1000
1010
0000
1000
0000
,  // measure 17
0010
0100
0000
0001
0011
0010
1000
0010
,  // measure 18
0000
0001
0000
1000
1001
0001
1000
0000
,  // measure 19
0001
0010
0001
0100
0101
0001
0100
0000
,  // measure 20
1010
0000
0010
0000
1000
0000
0001
0010
0100
0000
0000
0000
0010
0000
0000
0000
,  // measure 21
0100
1000
0001
0100
0110
0000
0001
1001
,  // measure 22
0000
0010
0000
0100
0101
0000
0010
0000
,  // measure 23
0100
0000
1000
0000
0100
0000
0010
0100
0001
0000
0000
0000
1000
0010
0100
0000
,  // measure 24
0000
0010
0100
0001
1001
0000
0010
0000
,  // measure 25
0100
0001
1000
0010
0110
0100
0010
0100
,  // measure 26
0110
0000
0001
0000
1001
0001
1000
0001
,  // measure 27
0100
0001
1000
0000
0101
0000
0010
0000
,  // measure 28
1100
0000
0000
0000
0001
0010
0100
1000
0001
0000
0000
0000
0001
0000
0000
0000
,  // measure 29
0001
0000
0001
1000
0001
0000
0001
1000
,  // measure 30
0001
0010
0001
1000
0001
0100
0001
0010
,  // measure 31
0001
0100
0001
1000
0001
0000
0001
0000
,  // measure 32
0001
0000
0001
0001
0001
0100
0001
0001
,  // measure 33
0001
0010
0001
0001
0001
1000
0001
0100
,  // measure 34
0001
0000
0010
0000
0001
0000
0001
1000
0001
0000
0100
0000
0001
0000
0010
0000
,  // measure 35
0001
0000
1000
0000
0001
0000
0001
0100
0001
0000
0100
0000
0001
0000
1000
0000
,  // measure 36
0001
0000
0010
0000
0001
0100
0001
0010
0001
0000
0001
0000
0001
0000
0001
0000
,  // measure 37
0001
0000
0001
0000
0100
0001
0100
0000
0001
0000
0010
0000
0001
0000
1000
0000
,  // measure 38
0001
0000
0001
0000
0001
0000
1000
0000
0001
0010
0001
0000
1000
0000
0001
1000
,  // measure 39
0001
0000
1000
0000
0001
0100
0001
0000
1000
0000
1000
0000
0001
0000
0100
0000
,  // measure 40
0001
0000
0010
0000
0001
0000
0010
0000
0011
0000
0100
0010
0001
0000
0001
0000
,  // measure 41
0100
0000
0001
0000
1000
0000
0001
0000
0101
0000
0010
0100
0001
0000
0001
0000
,  // measure 42
1000
0000
0001
0000
0100
0000
0001
0000
0001
0100
0001
0100
0001
0100
0001
0010
,  // measure 43
0001
0010
0001
1000
0001
1000
0001
1000
0002
0000
0000
0000
0000
2000
0000
3003
,  // measure 44
1000
0100
0010
0001
1001
0000
0000
1000
,  // measure 45
0010
0001
0000
0001
0010
1000
0000
1100
,  // measure 46
0000
0011
0000
0020
0000
0030
0000
0001
,  // measure 47
0100
1000
0000
1000
0100
0001
0010
1100
,  // measure 48
0000
0010
1000
0010
0200
0000
0300
0100
,  // measure 49
0010
0001
0000
0001
1000
0010
0000
0011
,  // measure 50
0000
1100
0000
2001
0001
0000
0001
0000
,  // measure 51
0001
3001
1000
0002
1000
0000
1000
0003
,  // measure 52
1000
0100
1000
0100
0010
0001
0010
0001
1000
0000
0000
0000
0000
0000
1000
0000
,  // measure 53
0010
0001
0000
0001
1000
0100
0000
0011
,  // measure 54
1100
1001
0000
0000
0000
0010
0001
1000
,  // measure 55
0000
1000
0001
0100
0010
2010
0000
3002
,  // measure 56
0000
0013
0200
0000
1300
0000
0100
0010
,  // measure 57
0001
1000
1100
0000
0001
0101
0000
0100
,  // measure 58
0000
0010
2001
0000
3001
0000
1000
0001
,  // measure 59
0010
0100
0010
0100
2000
0000
0000
0000
3100
0000
0000
0000
0002
0000
0000
0000
,  // measure 60
0103
0220
0000
0330
;

//---------------dance-single - ----------------
#NOTES:
     dance-single:
     :
     Medium:
     9:
     0.548149,0.810784,0.266925,0.189072,0.139023,345.000000,321.000000,24.000000,17.000000,0.000000,0.000000,0.548149,0.810784,0.266925,0.189072,0.139023,345.000000,321.000000,24.000000,17.000000,0.000000,0.000000:
0000
0000
0000
0000
0001
1000
0001
1000
0200
0000
0300
0010
0001
0010
0000
0001
,
0100
0001
0000
1000
0000
1000
0000
0002
0000
0003
0000
1000
0100
1000
0000
0100
,
1000
0100
1000
0001
0000
0100
0001
0100
0001
0000
0000
0010
0001
0010
0000
0001
,
1000
0000
0001
0000
0000
0000
1100
0000
0000
0000
0011
0000
0000
0000
2000
0000
0000
0000
0000
0000
0000
0000
0000
0000
0000
3000
0001
0000
1000
0000
0002
0000
,
0000
0000
0000
0003
0100
0000
0110
0000
,
1000
0001
0000
0100
0000
0001
1000
0000
,
1000
0010
1000
0000
1001
0000
0110
0000
,
1000
0010
1000
0010
0000
1000
0010
0000
,
1000
1000
0001
0001
1000
0000
0100
0000
,
1000
0100
0010
0001
0000
0010
0100
0000
,
1000
0001
1000
0000
0001
0000
1000
0000
,
1000
1000
1001
0010
,
1001
0010
0110
0100
,
0010
0100
0000
0100
0010
0000
0100
0010
,
0000
0100
0000
0001
1000
0000
0100
0000
,
1000
0001
0000
0001
1000
0000
1000
0001
,
0000
0001
1000
0001
1000
0000
1000
0000
,
0010
0100
0000
0001
0001
0010
0010
0100
,
0000
1000
0000
1000
0001
0000
0001
0000
,
0101
0001
0011
0001
,
0101
0001
1001
1000
,
0001
1000
0000
0001
1000
0000
1000
0001
,
0000
0010
0000
0100
0010
0000
0010
0000
,
0100
1000
0000
0001
0100
0000
0001
1000
,
0000
0010
0100
0010
0100
0000
0010
0000
,
0100
0001
0000
0010
0000
0100
0010
0100
,
0010
0001
1000
1000
,
0001
1000
0001
0000
1001
0000
0001
0000
,
1001
0000
1000
1000
0001
0000
0001
0000
,
0001
0000
0001
1000
0001
0000
0001
0000
,
0001
0001
0101
0001
,
0011
0001
0101
0001
,
0001
0000
0001
0100
0001
0000
0001
0000
,
0001
0010
0001
0000
0001
0000
0001
0000
,
0001
1000
0001
1000
0001
0000
0001
0000
,
0001
0000
0001
0100
0001
0000
0001
0000
,
0001
0000
0001
1000
0001
0000
0001
0000
,
0001
0000
0001
0001
0001
0000
0001
0000
,
0001
1000
0001
0000
0001
0000
0001
0100
,
0001
0000
0001
0010
0001
0000
0001
1000
,
0001
1000
0001
1000
0001
0000
0001
0000
,
0001
1000
0001
1000
0001
0000
0001
0000
,
0001
1000
0001
0010
0001
0100
0001
1000
,
0001
0000
0010
0000
0001
0000
1000
0000
2002
0000
0000
0000
0000
0000
0000
3003
,
1000
0100
1000
0100
0020
0000
0030
0001
,
0010
0001
0000
0010
0001
0010
0000
0100
,
0000
0100
0000
2000
0000
3000
0000
0100
,
1000
0100
0000
1000
0100
1000
0100
0010
,
0000
0001
1000
0001
2000
0000
0000
3100
,
0010
0100
0000
0010
0100
0010
0000
0001
,
0000
1000
0000
0200
0000
0000
0000
0000
,
0000
1300
1000
0002
0000
0000
0000
0003
,
1000
0001
1000
0001
1000
0000
0000
1000
,
0010
1000
0000
0001
0100
0001
0000
1001
,
0110
1001
0000
0000
0000
0010
0001
0100
,
0000
0010
1000
0100
0010
0002
0000
2003
,
0000
3020
0000
0000
0030
0000
0100
0000
,
0010
0000
1000
0000
0100
0010
0000
0001
,
0000
0001
2000
0000
3001
0000
1000
0000
,
0001
1001
1000
1001
,
0100
0220
0000
0330
;

//---------------dance-single - ----------------
#NOTES:
     dance-single:
     :
     Easy:
     4:
     0.309823,0.337827,0.144584,0.022244,0.000000,195.000000,182.000000,13.000000,2.000000,0.000000,0.000000,0.309823,0.337827,0.144584,0.022244,0.000000,195.000000,182.000000,13.000000,2.000000,0.000000,0.000000:
0000
0000
0000
0000
,
0000
0000
0000
0000
,
0000
0000
0000
0000
,
0000
0000
0000
0000
,
0000
0000
0001
1000
,
0001
1000
0010
0100
,
0010
0100
0001
0010
,
0001
0010
0100
1000
,
0100
1000
0001
0001
,
1000
1000
0010
0100
,
0010
0100
0001
1000
,
1000
1000
1001
0000
,
1001
0000
0110
0000
,
0000
0000
1000
0000
,
0001
0000
1000
0000
,
0001
0000
0010
0000
,
0010
0000
0100
0000
,
0100
0000
1000
0000
,
1000
0000
0001
0001
,
1000
1000
0001
1000
,
0001
0000
0100
0000
,
0010
0000
0100
0000
,
0001
0000
1000
1000
,
0100
0100
0010
0000
,
0001
0000
0100
0100
,
0010
0010
0100
0010
,
0100
0010
0100
0100
,
0010
0010
0100
0100
,
0010
0010
1000
1000
,
1000
1000
0001
0001
,
0001
0001
0100
0100
,
0100
0100
0010
0010
,
0010
0010
1000
0010
,
1000
0010
0100
0001
,
0100
0001
1000
1000
,
1000
1000
0001
0001
,
0001
0010
0100
1000
,
0001
0010
0100
0100
,
1000
1000
0001
0001
,
0100
0100
0010
1000
,
0001
0100
0010
0000
,
0000
0000
1001
0000
,
0000
0000
0110
0000
,
0000
0000
1100
0000
,
0000
0000
0001
0001
,
1000
1000
0001
1000
,
0001
1000
0001
0001
,
1000
1000
0110
0000
,
0001
1000
0010
0010
,
0100
0100
0001
1000
,
0010
1000
0100
0100
,
0100
0100
0010
0010
,
0010
0001
1000
0000
,
0001
0000
0000
0000
1000
0000
0000
1001
,
0110
1001
0000
0000
0000
0000
0010
0000
,
0000
1000
1000
0001
,
0010
0001
0000
0100
,
0100
0001
0010
0100
,
1000
0001
0000
0000
,
0001
1001
1000
1001
,
0100
0220
0000
0330
;
