#TITLE:Colors;
#SUBTITLE:Code Geass Opening 1;
#ARTIST:FLOW;
#TITLETRANSLIT:;
#SUBTITLETRANSLIT:;
#ARTISTTRANSLIT:;
#GENRE:;
#CREDIT:Magna Trick;
#BANNER:CBN.jpg;
#BACKGROUND:CBG.jpg;
#LYRICSPATH:;
#CDTITLE:Magna Trick title!.png;
#MUSIC:Colors.mp3;
#OFFSET:-0.102601;
#SAMPLESTART:59.000000;
#SAMPLELENGTH:14.000000;
#SELECTABLE:YES;
#BPMS:0.000000=136.020004
;
#STOPS:0.000000=0.220000
;
#BGCHANGES:0.063=Colors.avi=1.000=0=0=1=====,
197.000=CBG.jpg=1.000=0=0=1=====,
99999=-nosongbg-=1.000=0=0=0 // don't automatically add -songbackground-
;
#KEYSOUNDS:;
#ATTACKS:;

//---------------dance-single - ----------------
#NOTES:
     dance-single:
     :
     Hard:
     10:
     0.519550,0.576599,0.011122,0.266925,0.183511,327.000000,326.000000,1.000000,24.000000,0.000000,0.000000,0.519550,0.576599,0.011122,0.266925,0.183511,327.000000,326.000000,1.000000,24.000000,0.000000,0.000000:
0000
0000
0000
0000
,
0000
0000
0000
0000
0001
0000
1000
0000
0100
0001
0000
0100
0000
1000
0000
0010
,
1000
0000
0100
0000
0000
0000
1000
0000
0001
0100
0000
1000
0000
0100
0000
0010
,
1000
0000
0001
0000
0000
0000
0001
0000
0010
0100
0000
1000
0000
0001
0000
0100
,
0010
1000
0001
0001
1000
1000
0000
0001
,
1000
0010
0200
0000
0310
0000
0010
1000
,
0100
1000
0010
0100
0001
0010
0001
0100
,
0010
1000
0002
0000
1003
0001
0200
0000
,
0301
1000
0100
0100
0010
1000
0002
0000
,
0103
0010
2000
0000
3010
0001
0100
0010
,
1000
0001
0001
1000
1000
0100
0010
0001
,
0010
0000
0010
0000
0010
0000
0001
0000
1000
0010
0000
0001
0000
0010
0000
0100
,
0010
0000
1000
0000
0000
0000
1000
0000
0001
0010
0000
1000
0000
0010
0000
0001
,
1000
0002
0003
0000
0010
0000
0100
0000
,
1000
0100
0002
0000
1003
0000
0010
0000
,
0001
0010
2000
0000
3100
0000
0010
0001
,
0100
0010
1000
0000
1000
0001
0000
0001
,
0100
0000
0200
0000
0310
1000
0001
0000
,
0100
0010
2000
0000
3002
0000
0013
1000
,
0010
0000
0000
0000
0200
0000
0000
0300
0010
0000
0000
0000
0001
0000
0100
0000
,
0010
2000
0000
3100
0100
0100
1000
0000
,
0001
0010
0001
0100
0000
0010
1000
0100
,
0000
0100
0001
0010
0000
0100
1000
0010
,
0000
1000
0010
0001
0000
0001
0010
1000
,
0000
1000
0100
0001
1000
0020
0000
0000
,
0031
0001
0100
0010
0000
0010
1000
0100
,
0000
0100
0001
0010
0000
0100
1000
0010
,
0000
0100
0001
0000
1000
0100
0000
0010
,
0000
0010
0000
0100
0010
0010
0010
0100
,
0100
1000
0001
0100
0100
0010
0000
0010
,
1000
0001
0000
0001
1000
0010
0000
0010
,
1000
0100
0010
0001
0010
0100
0000
0100
,
1000
0000
0002
0000
0000
0000
0000
0000
0000
0000
0000
0000
1003
0001
1000
0000
,
0001
1000
0020
0000
0130
0000
0001
0100
,
0010
0100
1000
0100
0010
0100
0001
0100
,
0010
0100
2000
0000
3100
0010
2000
3000
,
1000
0010
0001
0010
0100
0010
2000
0000
,
3010
1000
0200
0300
0010
0001
0100
0010
,
1000
0100
0020
0030
0010
0001
0100
1000
,
0100
0010
2000
3000
1000
0010
0100
0001
,
1000
0000
1000
0000
0001
0000
1000
0000
1000
0000
0100
0010
0100
0000
0010
0100
,
0010
0100
1000
0001
1000
0000
0000
0000
1001
0000
0000
0000
0001
0000
0100
0000
,
0001
0010
0001
0100
0001
1000
0001
0010
,
0001
0100
0010
0000
0010
1000
0001
1000
,
0100
1000
0001
1000
0010
1000
0100
0000
,
0100
0010
0001
0001
1000
2000
0000
3010
,
0000
0010
0100
0001
0001
1000
1000
0100
,
0010
0000
0001
0000
0010
0000
0100
0000
1000
0001
0000
0100
0000
0010
0000
1000
,
0100
0000
0010
0000
0000
0000
0001
0000
0100
1000
0000
0010
0000
0001
0000
0100
,
0010
2000
0000
3000
0000
0000
0000
0000
;

//---------------dance-single - ----------------
#NOTES:
     dance-single:
     :
     Challenge:
     12:
     0.579926,0.631513,0.122340,0.266925,0.305851,365.000000,354.000000,11.000000,24.000000,0.000000,0.000000,0.579926,0.631513,0.122340,0.266925,0.305851,365.000000,354.000000,11.000000,24.000000,0.000000,0.000000:
// measure 0
0000
0000
0000
0000
,  // measure 1
0000
0000
0000
0000
1001
0000
0001
0000
0010
1000
0000
0010
0000
0001
0000
0100
,  // measure 2
0001
0000
0010
0000
1001
0000
0001
0000
1000
0010
0000
0001
0000
0010
0000
0100
,  // measure 3
0001
0000
1000
0000
1001
0000
1000
0000
0100
0010
0000
0001
0000
1000
0000
0010
,  // measure 4
0100
0000
0001
0000
1000
0001
1000
0001
0010
0100
0010
0100
0000
0000
1000
0000
,  // measure 5
0001
0100
0020
0000
0130
0000
0100
0001
,  // measure 6
0010
0001
0100
0010
1000
0100
1000
0010
,  // measure 7
0100
0001
2000
0000
3001
1000
0020
0000
,  // measure 8
1030
0001
0010
0010
0100
0001
2000
0000
,  // measure 9
3010
0100
0002
0000
0103
1000
0010
0100
,  // measure 10
0001
0000
1000
0000
1000
0000
0001
0000
0001
0000
0010
0000
0100
1000
0100
1000
,  // measure 11
0100
0010
0100
0010
0001
0000
1000
0000
0001
0100
0000
1000
0000
0100
0000
0010
,  // measure 12
0100
0000
0001
0000
0000
0000
0001
0000
1000
0100
0000
0001
0000
0100
0000
1000
,  // measure 13
0001
0000
1000
0000
2001
0000
0000
3000
0100
0000
0000
0000
0010
0000
0000
0000
,  // measure 14
0001
0010
2000
0000
3001
0000
0100
0000
,  // measure 15
1000
0100
1000
0100
0020
0000
0000
0000
0031
0000
0000
0000
0100
0000
0010
0000
,  // measure 16
0010
0100
0101
0000
0001
0101
0000
1000
,  // measure 17
1001
0000
0010
0100
0020
0000
0000
0000
0130
0000
0001
0000
2000
0000
0000
0000
,  // measure 18
3010
0100
0002
0000
2003
0000
3100
0001
,  // measure 19
0100
0010
0100
0010
0001
0000
0000
0000
0100
0000
0000
0000
1000
0000
0100
0000
,  // measure 20
0010
0000
0002
0000
0000
0000
0013
0000
0010
0000
0010
1000
0001
0000
0100
0000
,  // measure 21
1001
0010
0100
1000
0000
0100
0001
0010
,  // measure 22
0000
0010
1000
0100
0000
0010
0001
0100
,  // measure 23
0000
0001
0100
1000
0000
1000
0100
0001
,  // measure 24
0000
0001
0010
1000
0001
0200
0000
0000
,  // measure 25
1300
1000
0010
0100
0000
0100
0001
0010
,  // measure 26
0000
0010
1000
0100
0000
0010
0001
0100
,  // measure 27
0000
0010
1000
0000
0001
0010
0000
0100
,  // measure 28
0000
0000
0100
0000
0000
0000
0010
0000
0100
0000
0100
0010
0100
0000
0010
0000
,  // measure 29
0010
0000
0001
1000
0001
0000
0010
0000
0010
0000
0100
0000
0000
0000
0100
0000
,  // measure 30
0001
1000
0000
1000
0001
0100
0000
0100
,  // measure 31
0001
0010
0100
1000
0100
0010
0000
0011
,  // measure 32
0001
0000
2001
0000
0000
0000
0000
0000
0000
0000
0000
0000
3001
1000
0001
0000
,  // measure 33
1000
0000
0001
0100
0020
0000
0000
0000
1030
0000
0000
0000
1000
0000
0010
0000
,  // measure 34
0100
0010
0001
0010
0100
0010
1000
0010
,  // measure 35
0100
0010
0002
0000
0013
0100
0002
0003
,  // measure 36
0001
0100
1000
0100
0010
0100
0002
0000
,  // measure 37
0103
0001
0020
0030
0100
1000
0010
0100
,  // measure 38
0001
0010
0200
0300
0100
1000
0010
0001
,  // measure 39
0010
0100
0002
0003
0001
0100
0010
1000
,  // measure 40
0001
0000
0001
0000
1000
0000
0001
0000
0001
0000
0010
0100
0010
0001
0100
0010
,  // measure 41
0100
0010
1000
0001
1000
0000
0000
0000
1001
0000
0000
0000
1000
0000
0010
0000
,  // measure 42
1000
0100
1000
0010
1000
0001
1000
0100
,  // measure 43
1000
0010
0100
0000
0100
0001
1000
0001
,  // measure 44
0010
0001
1000
0001
0100
0001
0010
0000
,  // measure 45
0010
0100
1000
1000
0001
0002
0000
0103
,  // measure 46
0000
0000
0100
0000
0010
0000
1000
0000
1000
0000
0001
0000
0001
0010
0001
0010
,  // measure 47
0100
1000
0100
1000
0001
0000
0010
0000
0001
1000
0000
0010
0000
0100
0000
0001
,  // measure 48
0010
0000
0100
0000
0000
0000
1000
0000
0010
0001
0000
0100
0000
1000
0000
0010
,  // measure 49
0100
0002
0000
0003
0000
0000
0000
0000
;

//---------------dance-single - ----------------
#NOTES:
     dance-single:
     :
     Medium:
     8:
     0.483007,0.466771,0.022244,0.333656,0.122340,304.000000,302.000000,2.000000,30.000000,0.000000,0.000000,0.483007,0.466771,0.022244,0.333656,0.122340,304.000000,302.000000,2.000000,30.000000,0.000000,0.000000:
0000
0000
0000
0000
,
0000
0000
0000
0000
1000
0000
0001
0000
0100
0010
0000
0100
0000
0010
0000
0000
,
1000
0000
0001
0000
0000
0000
1000
0000
0010
0100
0000
0010
0000
0100
0000
0000
,
0001
0000
1000
0000
0000
0000
1000
0000
0001
0100
0000
0010
0000
0100
0000
0000
,
0001
1000
0001
0001
1000
1000
0000
1000
,
0001
1000
0002
0000
1003
0000
0100
0010
,
0100
0010
0001
1000
0001
1000
0100
0010
,
0100
0010
0002
0000
0000
0003
2000
0000
,
3001
0002
0000
0013
0100
2000
0000
0000
,
3000
0001
0002
0000
0103
0020
0000
0230
,
0000
0301
1000
0001
0001
0010
0100
1000
,
0100
0000
0200
0000
0000
0000
1300
0000
0001
0100
0000
0010
0000
0100
0000
0000
,
0001
0000
1000
0000
0000
0000
0001
0000
0100
0010
0000
0100
0000
0010
0000
0000
,
1000
0002
0003
0000
0100
0000
0010
0000
,
0100
0010
0200
0000
0301
0000
0100
0000
,
0010
2000
0001
3001
,
1000
1000
0001
0000
0001
1000
0000
1000
,
0010
0000
0020
0000
0130
0001
0100
0000
,
0010
1000
0020
0000
2030
0000
3001
1000
,
0002
0000
0023
0000
0100
0000
0100
0030
,
0100
2000
0000
3010
0010
0010
1000
0000
,
1000
0100
1000
0001
0000
0001
0100
0001
,
0000
1000
0100
1000
0000
0001
0010
0001
,
0000
1000
0010
1000
0000
0001
1000
0001
,
0000
1000
0001
1000
0001
0200
0000
0000
,
0310
0010
1000
0010
0000
0100
0001
0100
,
0000
0001
0010
0001
0000
1000
0010
1000
,
0000
0001
1000
0000
1000
0001
0000
0100
,
0000
0100
0000
0010
0100
0200
0000
0010
,
0310
1000
1001
0000
0001
1000
0001
1000
,
0001
0010
0001
0010
0100
1000
0100
1000
,
0010
0010
0100
0001
0100
0010
1000
0010
,
1000
0000
2000
0000
0000
0000
0000
0000
0000
0000
0000
0000
3001
1000
0001
0000
,
1000
0001
2000
0000
3001
0000
1000
1000
,
0010
1000
0001
1000
0100
1000
0010
1000
,
0001
1000
0010
0000
1000
0010
2000
3000
,
0001
0001
1000
0001
0100
0001
0002
0000
,
0103
0001
0200
0300
0010
1000
0010
1000
,
0010
0010
0200
0300
0001
1000
0001
1000
,
0010
0100
0002
0000
0000
0000
0000
1003
,
0001
0002
0000
1000
1003
0010
0100
0100
,
0010
0010
0100
0000
1001
0000
1000
1000
,
0010
1000
0100
1000
0001
1000
0010
1000
,
0100
1000
0001
0000
0001
0001
1000
0001
,
0010
0001
1000
0001
0100
0001
1000
0000
,
0100
1000
0100
0100
0010
0020
0000
0031
,
0000
0001
0100
0001
0001
1000
1000
0001
,
1000
0000
0001
0000
1000
0000
0001
0000
0001
0100
0000
0010
0000
0100
0000
0000
,
0001
0000
1000
0000
0000
0000
1000
0000
0100
0010
0000
0100
0000
0010
0000
0000
,
0001
2000
0000
3000
0000
0000
0000
0000
;

//---------------dance-single - ----------------
#NOTES:
     dance-single:
     :
     Easy:
     5:
     0.313001,0.385373,0.011122,0.166828,0.000000,197.000000,196.000000,1.000000,15.000000,0.000000,0.000000,0.313001,0.385373,0.011122,0.166828,0.000000,197.000000,196.000000,1.000000,15.000000,0.000000,0.000000:
0000
0000
0000
0000
,
0000
1000
0001
0001
,
0001
1000
0001
0001
,
0001
1000
0001
0001
,
0001
0000
1000
0001
1000
0002
0000
0003
,
0000
0000
0100
0000
0100
0000
0010
0100
,
0010
0000
0100
0000
0100
0000
0001
0100
,
0001
0000
1000
0000
1000
0000
0001
1000
,
0001
0000
1000
0000
1000
0000
0010
1000
,
0010
1000
0001
0100
,
0001
1000
0010
1000
,
0010
0000
0100
0001
0100
0001
0100
0001
,
0100
0001
0000
0000
1000
0010
1000
0010
,
1000
0010
0000
0000
0100
0000
0001
0000
,
1000
0001
0001
1000
,
1000
0200
0000
0000
,
0000
0300
0020
0000
0000
0032
0000
0000
,
0203
0320
0000
0000
,
0000
2030
0000
0000
,
0000
3200
0000
0000
,
0000
0310
0000
0010
0010
0000
0001
0000
,
1000
0000
0001
1000
0000
0000
1000
0001
,
0000
0000
0100
0010
0000
0000
0010
0100
,
0000
0000
0010
1000
0000
0000
0001
0100
,
0000
0000
0001
0010
0000
0200
0000
0300
,
1000
0001
1000
0001
0000
0000
0100
0010
,
0000
0000
0010
0100
0000
0000
0100
0001
,
0000
1000
0010
0000
1000
0001
0000
1000
,
0000
0100
0000
0010
0001
0020
0000
0000
,
0030
0000
0001
1000
0001
1000
0000
1000
,
0001
1000
0000
0001
1000
0001
0000
1000
,
0001
1000
0001
1000
0001
1000
0000
0001
,
1000
0002
0000
0000
0000
0003
0000
0000
,
0000
1000
1000
0001
,
0001
0100
0100
0010
,
0010
1000
0001
0100
,
0010
1000
0001
0002
,
0000
0003
0010
0000
0100
0000
0010
0000
,
0001
0100
0001
1000
,
0010
2000
0000
3000
,
0001
0002
0000
0003
,
0100
0100
0110
0010
,
0010
1000
1000
0001
,
0001
0010
0010
0100
,
0100
0001
0001
0100
,
0100
0000
1000
0001
1000
0000
0010
0000
,
1000
0000
1000
0010
1000
0010
1000
0010
,
1000
0010
1000
0000
0001
0000
0001
0000
,
0010
0010
0100
1000
,
0001
2000
0000
0000
3000
0000
0000
0000
;
