#TITLE:Closer;
#SUBTITLE:Naruto Shippuuden Opening 4;
#ARTIST:Inoue Joe;
#TITLETRANSLIT:;
#SUBTITLETRANSLIT:;
#ARTISTTRANSLIT:;
#GENRE:;
#CREDIT:;
#BANNER:CloserBN.png;
#BACKGROUND:CloserB.png;
#LYRICSPATH:;
#CDTITLE:Magna Trick title!.png;
#MUSIC:Naruto Shippuuden OP 4 (TV Size).ogg;
#OFFSET:0.508828;
#SAMPLESTART:39.793571;
#SAMPLELENGTH:18.000000;
#SELECTABLE:YES;
#BPMS:0.000000=166.000000
;
#STOPS:
;
#BGCHANGES:1.500=Naruto Shippuuden Opening 4 (TV Size Video).AVI=1.000=0=0=1=====,
241.500=CloserB.png=1.000=0=0=1=====,
99999=-nosongbg-=1.000=0=0=0 // don't automatically add -songbackground-
;
#KEYSOUNDS:;
#ATTACKS:;

//---------------dance-single - ----------------
#NOTES:
     dance-single:
     :
     Hard:
     11:
     0.612820,0.683852,0.289697,0.011142,0.033427,385.000000,359.000000,26.000000,1.000000,0.000000,0.000000,0.612820,0.683852,0.289697,0.011142,0.033427,385.000000,359.000000,26.000000,1.000000,0.000000,0.000000:
0000
0000
0000
0000
,
0000
0000
0000
0000
,
0000
0000
0000
0000
0000
0000
0010
1000
,
0010
0000
1000
0000
0010
0000
1000
0000
0010
0000
1000
0100
1000
0000
0100
0000
,
1000
0000
0100
0000
1000
0000
0100
0000
1000
0000
0100
0010
0100
0000
0010
0000
,
0100
0000
0010
0000
0100
0000
0010
0000
0100
0000
0010
0001
0010
0000
0001
0000
,
0010
0000
0001
0000
0010
0000
0001
0000
0010
0000
0001
0100
0001
0000
0100
0000
,
0001
0000
0100
0000
0001
0000
0100
0000
0001
0000
0100
0010
0100
0000
0010
0000
,
0100
0000
0010
0000
0100
0000
0010
0000
0100
0000
0010
1000
0001
0000
1000
0000
,
0001
1000
0001
1000
0001
1001
0000
0110
,
1001
0000
0010
1000
0100
1000
0010
0010
,
1000
1000
0100
0010
0001
0010
0100
0100
,
1000
1000
0010
0100
0001
0100
0010
0010
,
1000
1000
0100
0010
0001
0010
0100
0100
,
1000
1000
0001
0100
0010
1000
0110
0110
,
0000
0000
0000
0000
0000
0000
0101
0101
,
0000
0000
0000
0000
0000
0000
1010
1010
,
0000
0000
0000
0000
0000
0000
1100
1100
,
0000
0000
0011
0011
0000
0000
1001
1001
,
0000
0000
0000
0000
0000
0000
1100
1100
,
0000
0000
0000
0000
0000
0000
0011
0011
,
0000
0000
0000
0000
0000
0000
0101
0101
,
0000
0000
1010
1010
0000
0000
1001
0000
,
0010
0000
1000
0001
0100
0010
1000
0000
,
0100
0000
0010
0001
0010
0100
1000
0000
,
0001
0000
0100
0010
0100
0001
1000
0000
,
0100
0010
1000
0010
,
0100
0000
1000
0001
0100
0010
1000
0000
,
0010
0000
0100
0001
0010
0100
1000
0000
,
0001
0000
1000
0001
1000
0010
0000
0110
,
1001
0000
0010
1000
0010
0000
0001
0100
,
0010
1000
0100
0010
1000
0000
0010
0100
,
1000
0010
0100
0001
0010
0000
0010
0001
,
0100
0010
1000
0100
0010
0000
0010
0100
,
1000
0001
0100
0010
0100
0000
0100
0010
,
1000
0100
0010
1000
0001
0000
0001
0100
,
0010
0001
0100
0010
0001
0000
0001
0010
,
1000
0100
1000
0010
0100
0000
0100
0010
,
0100
1000
0100
0010
0001
0010
1000
0100
,
0010
1000
0010
0100
0001
1000
0010
0100
,
1000
0010
0001
1000
0100
0010
0010
1000
,
1000
0100
0100
0010
0010
0001
0001
1000
,
1000
0010
0100
1000
0001
0010
1000
1000
,
0100
0100
0010
0010
0100
0010
0100
1000
,
0001
0100
0010
1000
0001
0100
0000
0010
,
1000
0100
0010
1000
0001
0100
0010
0000
,
0010
0100
1000
0001
0100
0010
0000
0010
,
1000
0100
0000
0100
0010
0001
0000
0001
,
0010
0000
0010
0100
1000
0001
0000
0001
,
0100
0010
0000
0010
1000
0100
0000
0100
,
0010
0000
0010
0100
1000
0001
0000
0001
,
0100
0010
0000
0010
0100
0001
0000
0001
,
1000
0000
1000
0001
1000
0001
0000
0001
,
0010
0100
0000
0100
0010
0001
0000
0001
,
0100
0000
0100
0010
1000
0100
0000
0100
,
1000
0001
0000
0001
0010
0100
0000
0100
,
1000
0000
1000
0001
1000
0001
0000
0001
,
0100
0010
0000
0010
1000
0100
1000
0001
,
0100
0001
1000
0010
1000
0001
0020
0000
,
0000
0000
0000
0000
,
0000
0000
0000
0000
,
0000
0000
0000
0030
0000
0000
0000
0000
;

//---------------dance-single - ----------------
#NOTES:
     dance-single:
     :
     Medium:
     6:
     0.405894,0.541510,0.256270,0.011142,0.000000,255.000000,232.000000,23.000000,1.000000,0.000000,0.000000,0.405894,0.541510,0.256270,0.011142,0.000000,255.000000,232.000000,23.000000,1.000000,0.000000,0.000000:
0000
0000
0000
0000
,
0000
0000
0000
0000
,
0000
0000
0000
0001
,
0001
0001
0001
0100
,
0100
0100
0100
0010
,
0010
0010
0010
1000
,
1000
1000
1000
0100
,
0100
0100
0100
0010
,
0010
0010
0010
0001
,
0001
0000
0001
0000
0001
0100
0000
0100
,
0110
0000
0010
0000
1000
0000
0001
0001
,
1000
0000
0001
0000
0010
0000
0100
0100
,
1000
0000
0010
0000
0100
0000
0001
0001
,
0100
0000
0010
0000
1000
0000
0100
0100
,
0010
0000
0100
0000
1000
0000
1001
0110
,
0000
0000
0000
0000
0000
0000
0110
1001
,
0000
0000
0000
0000
0000
0000
0110
1001
,
0000
0000
0000
0000
0000
0000
1001
0110
,
0000
0000
0110
1001
0000
0000
1001
0110
,
0000
0000
0000
0000
0000
0000
0110
1001
,
0000
0000
0000
0000
0000
0000
1001
0110
,
0000
0000
0000
0000
0000
0000
0110
1001
,
0000
0000
1100
0011
0000
0000
1001
0000
,
0010
0000
0100
0001
0100
0010
1000
0000
,
0100
1000
0010
1000
,
0100
0000
0010
0001
0010
0100
0010
0000
,
0001
1000
0010
0100
,
0001
0000
1000
0100
1000
0001
0010
0000
,
0001
0100
0010
1000
,
0001
0000
1000
0000
0001
1000
0000
1000
,
0001
0000
0000
0110
,
0001
0000
1000
0100
1000
0000
0001
0000
,
0100
0000
0010
0100
0010
0000
1000
0000
,
0100
0000
0010
0100
0010
0000
0100
0000
,
1000
0000
0001
0010
0001
0000
0100
0000
,
0010
0000
0100
0001
0100
0000
0001
0000
,
1000
0000
0100
1000
0100
0000
0010
0000
,
0100
0000
0010
1000
0010
0000
0100
0000
,
1000
0000
0010
0100
0010
0100
0000
0001
,
0000
1000
0000
0100
0000
0010
0000
1000
,
0000
0000
0000
0000
1000
0100
0000
0010
,
0000
0001
0000
0100
0000
0100
0000
0010
,
1000
0000
1000
0001
0000
0001
0000
0100
,
0000
0100
0000
0010
0000
0010
0000
1000
,
0000
0000
0000
0001
0010
0100
0000
0100
,
1000
0010
0000
0010
0000
1000
0000
0000
,
0000
0001
0100
0010
0000
1000
0000
0100
,
0000
0010
0000
1000
0000
0010
0000
0100
,
1000
0000
0000
0000
0000
1000
0000
0001
,
0000
0100
0000
0010
0100
0001
0000
1000
,
0100
0000
0000
0000
0000
0001
0000
0010
,
0000
0100
0000
1000
0100
0010
0000
0010
,
0100
0000
1000
0001
0000
0100
0000
0010
,
0000
0100
0000
0001
0000
1000
0000
0100
,
0010
0000
0000
0000
0000
0100
0000
1000
,
0000
0001
0000
0100
0000
0010
0000
1000
,
0100
0000
0100
0010
0000
0010
0000
0100
,
0000
1000
0000
0001
0000
0100
0000
0010
,
0000
0000
0010
0200
,
0000
0000
0000
0000
,
0000
0000
0000
0300
;

//---------------dance-single - ----------------
#NOTES:
     dance-single:
     :
     Challenge:
     14:
     0.826113,0.923200,0.545967,0.022284,0.116993,519.000000,470.000000,49.000000,2.000000,0.000000,0.000000,0.826113,0.923200,0.545967,0.022284,0.116993,519.000000,470.000000,49.000000,2.000000,0.000000,0.000000:
// measure 0
0000
0000
0000
0020
,  // measure 1
0000
0000
0000
0000
,  // measure 2
0000
0000
1030
0001
0100
0010
1000
0100
,  // measure 3
0001
0000
0100
0000
1000
0000
0100
0000
0001
0000
0100
1000
0010
0000
0001
0000
,  // measure 4
0010
0000
1000
0000
0010
0000
0001
0000
0010
0000
1000
0100
0010
0000
1000
0000
,  // measure 5
0010
0000
0100
0000
0010
0000
1000
0000
0010
0000
0100
1000
0001
0000
0100
0000
,  // measure 6
0010
0000
0100
0000
0001
0000
0100
0000
0010
0000
1000
0100
0010
0000
1000
0000
,  // measure 7
0010
0000
0100
0000
0010
0000
1000
0000
0010
0000
0100
1000
0010
0000
0001
0000
,  // measure 8
0010
0000
1000
0000
0010
0000
0001
0000
0010
0000
1000
0100
0010
0000
1000
0000
,  // measure 9
0010
0100
0010
1000
0010
1001
0000
0110
,  // measure 10
1001
0000
0100
0001
0010
0001
0100
0100
,  // measure 11
0001
0001
0010
0100
1000
0100
0010
0010
,  // measure 12
0001
0001
0100
0010
1000
0010
0100
0100
,  // measure 13
0001
0001
0010
0100
1000
0100
0010
0010
,  // measure 14
0001
0000
0001
0000
1000
0000
0010
0100
0010
0000
0001
0000
0110
0000
0110
0000
,  // measure 15
0010
1000
0010
1000
0010
1000
1010
1010
,  // measure 16
0100
0001
0100
0001
0100
0001
0101
0101
,  // measure 17
0010
0001
0010
0001
0010
0001
0011
0011
,  // measure 18
0100
0000
1000
0000
1100
0000
1100
0000
0001
1000
0001
1000
1001
0000
1001
0000
,  // measure 19
0010
0001
0010
0001
0010
0001
0011
0011
,  // measure 20
0100
1000
0100
1000
0100
1000
1100
1100
,  // measure 21
0010
1000
0010
1000
0010
1000
1010
1010
,  // measure 22
0100
0000
0001
0100
0101
0000
0101
0000
1000
0001
1000
0001
1001
0000
0010
0000
,  // measure 23
1000
0100
0110
0100
1000
0010
0110
0110
,  // measure 24
1000
0100
1100
1000
0010
0001
0011
0011
,  // measure 25
0100
0010
0110
0001
1000
0100
1100
1100
,  // measure 26
0001
0010
0011
0011
0001
1000
1001
1001
,  // measure 27
0010
0100
0101
0010
1000
0100
0110
0110
,  // measure 28
0100
1000
1010
0010
1000
0001
0101
0001
,  // measure 29
1001
1000
1010
0010
0110
0110
0000
0110
,  // measure 30
1001
0000
0100
0001
0100
0001
1000
1000
,  // measure 31
0010
0010
1000
0100
0001
1000
0010
0010
,  // measure 32
0100
0100
1000
0010
0001
1000
0100
0100
,  // measure 33
0010
0010
1000
0100
0010
1000
0010
0010
,  // measure 34
0100
0100
1000
0010
0001
1000
0100
0100
,  // measure 35
0010
0010
1000
0100
0001
1000
0010
0010
,  // measure 36
0100
0100
0001
1000
0010
0010
1000
0100
,  // measure 37
0001
0010
0001
0100
0010
1000
1000
0100
,  // measure 38
0100
0001
0010
0100
1000
0100
0001
0010
,  // measure 39
0100
0001
0100
0010
1000
0001
0100
0010
,  // measure 40
0001
0100
1000
0001
0010
0100
0100
0001
,  // measure 41
0001
0010
0010
0100
0100
1000
1000
0001
,  // measure 42
0001
0100
0010
0001
1000
0100
0001
0001
,  // measure 43
0010
0000
0010
0000
0100
0000
0100
0000
0010
0000
1000
0000
0001
0010
0001
0000
,  // measure 44
1000
0001
0100
0001
1000
0000
0001
0000
1000
0000
0010
0000
0000
0000
0100
0000
,  // measure 45
0001
0001
0010
1000
0001
0100
0010
0010
,  // measure 46
0001
0001
0100
0010
0001
1000
0100
0100
,  // measure 47
0010
0010
1000
0100
0010
1000
0001
0001
,  // measure 48
0100
0100
0010
0001
0100
0010
0001
0001
,  // measure 49
1000
1000
0100
0010
1000
0100
0010
0010
,  // measure 50
0100
1000
0001
0100
0100
0010
1000
0100
,  // measure 51
0010
1000
0010
0100
1000
1000
0001
0100
,  // measure 52
1000
0001
0010
0010
1000
0100
0100
1000
,  // measure 53
0010
0010
1000
0001
0001
0010
0100
0010
,  // measure 54
0001
1000
0010
0100
0100
1000
1000
0001
,  // measure 55
0001
0010
0010
1000
1000
0100
0100
0010
,  // measure 56
1000
0001
0100
0100
0010
0001
0100
0010
,  // measure 57
0100
0000
0001
0000
1000
0000
0010
0000
1000
0000
0100
0000
0010
0001
0010
0100
,  // measure 58
1000
0001
1000
0100
0010
0001
1000
0001
0100
0000
1000
0000
1200
0000
0000
0000
,  // measure 59
0000
0000
0000
0000
,  // measure 60
0000
0000
0000
0000
,  // measure 61
0000
0000
0000
0300
0000
0000
0000
0000
;

//---------------dance-single - ----------------
#NOTES:
     dance-single:
     :
     Easy:
     4:
     0.302431,0.406133,0.022284,0.011142,0.000000,190.000000,188.000000,2.000000,1.000000,0.000000,0.000000,0.302431,0.406133,0.022284,0.011142,0.000000,190.000000,188.000000,2.000000,1.000000,0.000000,0.000000:
0000
0000
0000
0000
,
0000
0000
0000
0000
,
0000
0000
0000
0000
,
0000
0000
0000
0000
,
0000
0000
0000
0000
,
0000
0000
0000
0000
,
0000
0000
0000
0000
,
0000
0000
0000
0000
,
0000
0000
0000
0000
,
0000
0000
0000
0000
,
0110
0000
0100
0000
0001
0000
1000
1000
,
0001
0000
1000
0000
0100
0000
0010
0010
,
0001
0000
0100
0000
0010
0000
1000
1000
,
0010
0000
0100
0000
0001
0000
0010
0010
,
0100
0000
0010
0000
0001
0000
0001
0001
,
0000
0000
0000
0000
0000
0000
0010
0010
,
0000
0000
0000
0000
0000
0000
0100
0100
,
0000
0000
0000
0000
0000
0000
1000
1000
,
0000
0000
0001
0001
0000
1000
1000
0001
,
0000
0000
0000
0000
0000
0000
0010
0010
,
0000
0000
0000
0000
0000
0000
0100
0100
,
0000
0000
0000
0000
0000
0000
1000
1000
,
0000
0000
0001
0001
0000
0000
1001
0000
,
0100
0010
0010
0001
,
0010
0001
0100
0001
,
0010
0100
0100
0100
,
1000
0001
0100
0010
,
1000
0001
0001
1000
,
1000
0010
0100
0001
,
1000
0000
0001
0000
1000
1000
0000
0001
,
0001
0000
0000
0001
,
1000
0001
0001
1000
,
0010
0100
0100
0001
,
0010
0100
0100
0010
,
0001
1000
1000
0010
,
0100
0010
0010
1000
,
0001
0010
0010
0100
,
0010
0100
0100
0010
,
0001
0000
0100
0010
0100
0010
0000
1000
,
0000
0001
0000
0010
0000
0100
0000
0001
,
0000
0000
0000
0000
0001
0010
0000
0100
,
0000
1000
0000
0010
0000
0010
0000
0100
,
0001
0000
0001
1000
0000
1000
0000
0010
,
0000
0010
0000
0100
0000
0100
0000
0001
,
0000
0000
0000
1000
0000
0010
0000
0010
,
0000
0100
0000
0100
0000
0001
0000
0000
,
0000
1000
0010
0100
0000
0001
0000
0010
,
0000
0100
0000
0001
0000
0100
0000
0010
,
0001
0000
0000
0000
0000
0001
0000
1000
,
0000
0010
0000
0100
0010
1000
0000
0001
,
0010
0000
0000
0000
0000
1000
0000
0100
,
0000
0010
0000
0001
0010
0100
0000
0100
,
0010
0000
0001
1000
0000
0010
0000
0100
,
0000
0010
0000
1000
0000
0001
0000
0010
,
0100
0000
0000
0000
0000
0010
0000
0001
,
0000
1000
0000
0010
0000
0100
0000
0001
,
0010
0000
0010
0100
0000
0100
0000
0010
,
0000
0001
0000
1000
0000
0010
0000
0100
,
0000
0000
0100
0020
,
0000
0000
0000
0000
,
0000
0000
0000
0030
;
