#TITLE:Clattanoia;
#SUBTITLE:Overlord Opening 1;
#ARTIST:Oxt;
#TITLETRANSLIT:;
#SUBTITLETRANSLIT:;
#ARTISTTRANSLIT:;
#GENRE:;
#CREDIT:Magna Trick;
#BANNER:CLBN.jpg;
#BACKGROUND:CLBG.jpg;
#LYRICSPATH:;
#CDTITLE:Magna Trick title!.png;
#MUSIC:Clattanoia.mp3;
#OFFSET:0.175476;
#SAMPLESTART:51.799999;
#SAMPLELENGTH:11.980000;
#SELECTABLE:YES;
#BPMS:0.000000=190.000000
,117.500000=95.000000
,135.750000=380.000000
,137.500000=142.500000
,140.000000=190.000000
,255.000000=164.240005
,255.500000=117.620003
,256.000000=94.800003
;
#STOPS:4.500000=1.105000,
132.500000=0.158000,
132.750000=0.158000,
133.000000=0.158000,
133.250000=0.158000,
133.500000=0.158000,
133.750000=0.158000,
136.000000=0.020000,
136.250000=0.020000,
136.500000=0.020000,
136.750000=0.020000
;
#BGCHANGES:0.063=Clattanoia.avi=1.000=0=0=1=====,
256.250=CLBG.jpg=1.000=0=0=1=====,
99999=-nosongbg-=1.000=0=0=0 // don't automatically add -songbackground-
;
#KEYSOUNDS:;
#ATTACKS:;

//---------------dance-single - ----------------
#NOTES:
     dance-single:
     :
     Hard:
     13:
     0.708155,1.243256,0.443587,0.144166,0.227338,447.000000,407.000000,40.000000,13.000000,0.000000,0.000000,0.708155,1.243256,0.443587,0.144166,0.227338,447.000000,407.000000,40.000000,13.000000,0.000000,0.000000:
0000
0000
1000
0100
0010
0001
0010
0100
,
1000
0000
2002
3003
0200
0000
0000
0000
0000
0000
1300
0000
0000
0000
0001
0000
,
0000
1000
0000
0001
0000
0100
0000
0010
,
1000
0000
1001
0000
0100
0010
0000
1000
,
0000
0000
0001
0000
0000
0000
0010
0000
0000
0000
0100
0000
0000
0000
1000
0001
,
1000
0001
1000
0100
0010
0000
0000
0000
0010
0000
0000
0000
0100
0000
0010
0000
,
0010
0000
0010
0100
0100
0000
0100
1000
,
0001
0000
1010
0000
1001
0000
0001
0010
,
0010
0000
0100
1000
1000
0000
0010
0001
,
1000
0000
0011
0000
1001
0000
1000
0001
,
0001
0000
0001
1000
1000
0000
0010
0100
,
0001
0000
0101
0000
1001
0000
1000
0010
,
0010
0000
0000
0000
0100
0000
0001
0000
0001
0000
1000
0000
0001
1000
0001
1000
,
0010
0100
0010
0100
0001
0000
0000
0000
0001
0000
0100
0000
0010
0000
1000
0000
,
0001
0100
0010
1000
0001
0010
0100
1000
,
1000
0000
0001
1000
0000
0100
1000
0001
,
0010
0000
0001
0100
0100
0010
0010
2000
,
0000
3100
0000
0001
0100
1000
0001
0010
,
0001
0000
0000
1000
0010
0100
0100
0000
,
0011
0000
1100
1000
0100
0010
1000
0020
,
0000
0031
0010
0100
1000
0100
0001
2000
,
0000
3001
0000
0001
0001
0100
1000
0001
,
0010
1000
0100
0001
1000
0010
1000
0100
,
0001
0000
0001
1000
0000
0010
0001
0100
,
0100
0000
1000
0001
1000
0100
0100
0020
,
0000
0130
0000
0001
0100
0010
0010
1000
,
1000
0000
0001
0001
0100
0100
0010
0000
,
1000
0001
1000
0110
0000
1001
0000
0110
,
0000
0000
1001
0000
0100
0000
0010
0000
0010
0000
1000
0000
0001
0100
0010
0000
,
1000
0100
0010
0000
0001
1000
0001
0000
1000
0000
0001
0000
0200
0000
0300
0010
,
0100
0000
0001
0001
1000
1000
0100
0100
0020
0000
0030
0000
0001
0001
0010
0100
,
1000
0001
0100
0100
0010
0010
1000
0001
1000
0001
1001
0000
0010
0000
0100
0000
,
1001
0000
0010
0001
0001
0010
0100
1000
0100
0100
0010
0010
0002
0000
1003
0000
,
0001
1000
1001
1100
1010
0011
0101
1001
0001
0001
0000
0100
0100
0000
0010
0020
,
0000
0000
0000
0000
0000
0000
0000
0000
0000
0000
0000
0000
0000
0000
0000
0000
0000
0000
0030
0100
0000
0000
0000
0001
0000
0000
0000
0100
0000
0000
0000
0010
0000
0000
0000
0100
0000
0000
0000
0001
0000
0000
0000
1000
0000
0000
0000
0000
,
0000
0010
0100
0000
0001
0000
1000
0000
,
0100
0000
0010
0001
0010
1000
0010
1001
,
0000
0100
1000
0000
0100
0000
0010
0000
,
1000
0000
0001
0100
1000
0100
0010
1001
,
0000
0001
0000
0010
1000
0010
0100
1001
,
0000
0001
0000
0100
1000
0100
0010
1001
,
0000
0001
0010
0000
0100
0000
0001
0100
,
0000
1000
0010
0000
0100
1000
0001
1001
,
0000
1000
0100
0000
0010
0000
1000
0000
,
0001
0000
0100
1000
0100
0010
0100
1001
,
0000
0100
0010
0000
0001
0000
0100
0000
,
0010
0000
1000
0010
0100
0010
0001
1001
,
0000
1000
0000
0001
0010
0001
0100
1001
,
0000
0100
0000
1000
0010
1000
0100
1000
,
0000
0001
0100
1000
0100
0000
0010
0100
,
0000
0000
0001
0000
0000
0000
1000
0000
0100
0001
0100
0000
0010
0000
1001
0000
,
0000
1000
0010
0001
0010
0000
1000
0100
,
0000
0010
0001
0010
0001
0000
1000
2001
,
0000
0010
0100
0001
,
0010
0000
3100
0000
0001
0100
0010
1001
,
0000
1000
0100
1000
0010
0000
0100
0001
,
0000
0010
0001
0100
0010
0000
1000
0000
,
0011
0011
1100
1100
,
0110
0000
1001
0000
0001
1000
0000
1001
,
0000
0100
0000
0010
1000
0001
0000
1000
,
0010
0100
0000
0001
1000
0010
0000
0100
,
0001
1000
0000
0010
0100
0001
0000
1000
,
0010
0100
0000
0001
0000
1000
0000
0200
,
0000
0000
0000
0000
,
0000
0300
0000
0000
0000
0000
0000
0000
0000
0000
0000
0000
0000
0000
0000
0000
;

//---------------dance-single - ----------------
#NOTES:
     dance-single:
     :
     Challenge:
     15:
     0.819051,1.420864,0.510125,0.144166,0.393683,517.000000,471.000000,46.000000,13.000000,0.000000,0.000000,0.819051,1.420864,0.510125,0.144166,0.393683,517.000000,471.000000,46.000000,13.000000,0.000000,0.000000:
// measure 0
0000
0000
0000
0000
0001
1000
0001
0000
1000
0000
0001
1000
0001
0000
0010
0000
,  // measure 1
0100
0000
2002
3003
0020
0000
0000
0000
0000
0000
0031
0000
0000
0000
1000
0000
,  // measure 2
0100
0010
0000
0001
0100
0010
0100
0100
,  // measure 3
0001
1000
1001
0000
0010
0100
0000
0001
,  // measure 4
1000
0000
0100
0000
0000
0000
0010
0000
0001
0000
1000
0000
0000
0000
0001
0100
,  // measure 5
0001
1000
0001
0010
0100
0000
0000
0000
0100
0000
0000
0000
0010
0000
0100
0000
,  // measure 6
0100
0000
0100
0010
0010
0000
0010
0001
,  // measure 7
1000
0001
0101
0000
1001
0000
1000
0100
,  // measure 8
0100
0000
0010
0001
0001
0000
0100
1000
,  // measure 9
0001
1000
1100
0000
1001
0000
0001
1000
,  // measure 10
1000
0000
1000
0001
0001
0000
0100
0010
,  // measure 11
1000
0001
1010
0000
1001
0000
1000
0100
,  // measure 12
0100
0000
0000
0000
0010
0000
0001
0000
0010
0001
0010
0100
1000
0001
1000
0001
,  // measure 13
0100
0010
0100
0010
1000
0000
0000
0000
1000
0000
0010
0000
0100
0000
0001
0000
,  // measure 14
1000
0010
0100
0001
1000
0100
0010
0001
,  // measure 15
0001
0000
1000
0001
0000
0010
0001
1000
,  // measure 16
0100
0000
1000
0010
0010
0100
0100
0002
,  // measure 17
0000
0013
0000
1000
0010
0001
1000
0100
,  // measure 18
2000
0000
3000
0001
0100
0010
0010
0000
,  // measure 19
1100
0000
0011
0001
0010
0100
0001
0200
,  // measure 20
0000
0000
1300
0000
0100
0000
0010
0001
1000
0000
0001
0000
1000
0010
0100
0000
,  // measure 21
1000
0000
0100
0001
0010
0001
0100
0000
0010
0000
0010
0000
1000
0000
1000
0000
,  // measure 22
0100
0001
0010
1000
0001
0100
0001
0010
,  // measure 23
1000
0000
1000
0001
0000
0100
1000
0010
,  // measure 24
0010
0000
0001
1000
0001
0010
0010
0200
,  // measure 25
0000
0000
0310
0000
1000
0001
1000
0000
0010
0000
0100
0000
0100
0000
0001
0000
,  // measure 26
0001
0000
1000
1000
0010
0010
0100
0000
,  // measure 27
0001
1000
0001
0110
0000
1001
0000
0110
,  // measure 28
0000
0000
1001
0000
0010
0000
0100
0000
0100
0000
0001
0000
1000
0010
0100
0000
,  // measure 29
0001
0010
0100
0000
1000
0001
1000
0000
0001
0000
1000
0000
0020
0000
0030
0100
,  // measure 30
0010
0000
1000
1000
0001
0001
0010
0010
0200
0000
0300
0000
1000
1000
0100
0010
,  // measure 31
0001
1000
0010
0010
0100
0100
0001
1000
0001
1000
1001
0000
0100
0000
0010
0000
,  // measure 32
1001
0000
0100
1000
1000
0100
0010
0001
0010
0010
0100
0100
2000
0000
3001
0000
,  // measure 33
1000
0001
1001
0011
0101
1100
1010
1001
1100
1100
0000
0011
0011
0000
0110
0210
,  // measure 34
0000
0000
0000
0000
0000
0000
0000
0000
0000
0000
0000
0000
0000
0000
0000
0000
0000
0000
0300
0010
0000
0000
0000
1000
0000
0000
0000
0010
0000
0000
0000
0100
0000
0000
0000
0010
0000
0000
0000
1000
0000
0000
0000
0001
0000
0000
0000
0000
,  // measure 35
0000
0100
0010
0000
1000
0100
0010
0000
,  // measure 36
0001
0100
0010
1000
0100
0001
0100
1001
,  // measure 37
0000
0010
0001
0000
0010
1000
0001
0000
,  // measure 38
0100
0001
1000
0010
0001
0010
0100
1001
,  // measure 39
0000
1000
0000
0100
0001
0100
0010
1001
,  // measure 40
0000
1000
0000
0010
0001
0010
0100
1001
,  // measure 41
0000
1000
0100
0010
0010
0001
1000
0100
,  // measure 42
0010
0001
0010
0001
0100
0010
0100
0010
1000
0100
1000
0100
0010
0001
1000
0000
,  // measure 43
0000
0001
0010
0000
0100
1000
0001
0000
,  // measure 44
1000
0100
0010
0001
0010
0100
0010
1001
,  // measure 45
0000
0010
0100
0000
1000
0100
0001
0000
,  // measure 46
0001
0010
1000
0001
0100
0010
1000
1001
,  // measure 47
0000
0001
0000
1000
0100
1000
0010
1001
,  // measure 48
0000
0010
0000
0001
0100
0001
0010
0001
,  // measure 49
0000
1000
0010
0001
0010
0000
0100
0010
,  // measure 50
0000
0000
1000
0000
0000
0000
0001
0000
0010
1000
0010
0100
0010
0001
0100
0000
,  // measure 51
0000
0001
0100
1000
0100
0000
0001
0010
,  // measure 52
0000
0100
1000
0100
1000
0000
0001
1002
,  // measure 53
0000
0100
0010
1000
,  // measure 54
0100
0000
0013
0000
1000
0010
0100
1001
,  // measure 55
0000
0001
0010
0001
0100
0000
0010
1000
,  // measure 56
0000
0100
1000
0010
0100
0000
0001
0000
,  // measure 57
1100
1100
0011
0011
,  // measure 58
1001
1000
1001
0000
1000
1001
0001
1001
,  // measure 59
0000
0010
0100
0001
0100
0010
1000
0010
,  // measure 60
0100
0001
1000
0100
0010
0100
0010
0001
,  // measure 61
0100
0010
1000
0100
0010
0001
0100
0010
1000
0100
0010
0001
0100
0010
1000
0100
,  // measure 62
0010
0100
0010
0001
1000
0001
1000
0100
0010
0000
1001
0000
0000
0000
0020
0000
,  // measure 63
0000
0000
0000
0000
,  // measure 64
0000
0030
0000
0000
0000
0000
0000
0000
0000
0000
0000
0000
0000
0000
0000
0000
;

//---------------dance-single - ----------------
#NOTES:
     dance-single:
     :
     Medium:
     10:
     0.609932,1.101170,0.343780,0.144166,0.138621,385.000000,354.000000,31.000000,13.000000,0.000000,0.000000,0.609932,1.101170,0.343780,0.144166,0.138621,385.000000,354.000000,31.000000,13.000000,0.000000,0.000000:
0000
0000
0001
1000
0001
1000
0001
1000
,
0001
0000
2002
3003
0010
0000
0000
0000
0000
0000
0001
0000
0000
0000
1000
0000
,
0000
0001
0000
1000
0000
0001
0000
1000
,
0001
0000
0001
0000
0000
0100
0000
0010
,
0000
0100
0000
0100
0000
0010
0000
0100
,
0010
0100
0010
0000
0100
0000
0010
0100
,
0100
0000
0100
0010
0010
0000
0010
0000
,
1010
0000
0101
0000
1001
0000
1000
0100
,
0100
0000
0010
0001
0001
0000
0100
0000
,
0011
0000
1100
0000
1001
0000
0001
1000
,
1000
0000
1000
0001
0001
0000
0100
0000
,
0101
0000
1010
0000
1001
0000
0001
0100
,
0100
0000
0010
1000
1000
0000
1100
0000
,
0011
0000
0001
0000
1000
0010
1000
0010
,
1000
0010
1000
0001
1000
0001
0100
0010
,
0010
0000
0000
1000
0000
0010
0000
1000
,
0001
0000
0100
0010
0000
0100
0000
0002
,
0000
0013
0000
0000
0001
1000
0001
1000
,
0001
0000
0000
0001
0100
0010
1000
0000
,
1001
0000
0001
1000
0001
0010
0001
0200
,
0000
0301
0100
0010
0100
0001
0100
0020
,
0000
1030
0000
0000
1000
0001
1000
0001
,
0000
0100
0000
0010
0000
1000
0000
0001
,
1000
0000
0000
0001
0000
0100
0000
0010
,
0010
0000
1000
0001
1000
0001
0001
2000
,
0000
3010
0000
1000
0010
1000
1000
0010
,
0010
0000
1000
1000
0010
0010
1000
0000
,
0010
1000
0001
0110
0000
1001
0000
0110
,
0000
1001
1000
0001
1000
0001
1000
0002
,
0000
0000
0000
0000
0003
0000
0001
0000
0001
0000
1000
0000
0020
0000
0030
0100
,
0100
0000
0010
0000
1000
0000
0001
0000
0200
0000
0300
0000
0100
0010
0100
0010
,
1000
0001
1000
0001
0100
0010
0100
0010
1000
0001
1000
0000
0100
0000
0010
0000
,
0001
0000
1000
0000
0001
0000
0010
0100
0010
0100
0010
0100
2000
0000
3001
0000
,
1000
0001
1001
0011
0101
1100
1010
1001
1000
1000
0000
0010
0010
0000
0100
0200
,
0000
0000
0000
0000
0000
0000
0000
0000
0000
0000
0000
0000
0000
0000
0000
0000
0000
0000
0300
0010
0000
0000
0000
1000
0000
0000
0000
0010
0000
0000
0000
0100
0000
0000
0000
0010
0000
0000
0000
1000
0000
0000
0000
0001
0000
0000
0000
0000
,
0000
0001
1000
0000
0001
0000
0100
0000
,
0010
0000
0100
0000
0001
1000
0000
1000
,
0000
0001
0100
0000
0100
0000
0100
0000
,
0010
0000
1000
0000
0001
0100
0000
0100
,
0000
0001
0000
1000
0001
1000
0000
1000
,
0000
1000
0000
0001
1000
0001
0000
1000
,
0000
1000
0001
0000
0001
0000
0001
1000
,
0000
1000
0001
0000
0100
0010
0000
0100
,
0000
0001
1000
0000
1000
0000
0001
0000
,
0001
0000
0010
0000
0001
1000
0000
1000
,
0000
0001
1000
0000
1000
0000
0001
0000
,
0001
0000
0100
0000
0010
0100
0000
0100
,
0000
0010
0000
0100
0001
1000
0000
1000
,
0000
1000
0000
0001
0010
0100
0000
1000
,
0000
0001
0100
0010
1000
0000
0001
0100
,
0000
0010
1000
0000
0001
0000
1000
0100
,
0000
1000
0100
1000
0100
0000
0010
0001
,
0000
0010
0001
0010
0001
0000
0001
0002
,
0000
1000
1000
1000
,
1000
0000
1003
0000
1000
0001
0000
1001
,
0000
0001
1000
0001
0100
0000
0010
0100
,
0000
0010
0100
0010
1000
0000
0100
0000
,
1100
1100
0011
0011
,
0110
0000
1001
0000
1000
0001
0000
1001
,
0000
0010
0000
0100
0001
0001
0000
0100
,
0001
0001
0000
0100
0001
0001
0000
0100
,
0001
0001
0000
0100
0001
0001
0000
0100
,
0001
0001
0000
1000
0000
0001
0000
0020
,
0000
0000
0000
0000
,
0000
0030
0000
0000
0000
0000
0000
0000
0000
0000
0000
0000
0000
0000
0000
0000
;

//---------------dance-single - ----------------
#NOTES:
     dance-single:
     :
     Easy:
     6:
     0.370712,0.852518,0.055448,0.088717,0.083173,234.000000,229.000000,5.000000,8.000000,0.000000,0.000000,0.370712,0.852518,0.055448,0.088717,0.083173,234.000000,229.000000,5.000000,8.000000,0.000000,0.000000:
0000
0000
0000
0000
,
0000
0000
1001
0000
0000
0001
0000
0001
,
0000
1000
0000
1000
0000
0000
0000
0000
,
0000
0000
0000
0000
0000
0010
0000
0010
,
0000
0100
0000
0100
0000
0000
0000
0000
,
0000
0000
0001
0000
0000
0000
0000
1000
,
0000
0000
0000
0001
0000
0000
1000
0000
,
1000
0000
0001
0000
0000
0000
0000
0100
,
0000
0000
0000
0010
0000
0000
0100
0000
,
0100
0000
0010
0000
0000
0000
0000
1000
,
0000
0000
0000
0001
0000
0000
0010
0000
,
0010
0000
0100
0000
0000
0000
0000
1000
,
0000
0000
0000
0100
0000
0000
0010
0000
,
0010
0000
0001
0000
0000
1000
0000
0001
,
0000
1000
0000
0001
0000
1000
0000
0001
,
0000
0000
0000
0100
0000
0100
0000
0010
,
0000
0000
0000
0010
0000
0010
0000
1000
,
0000
0000
0000
1000
0000
0100
0000
1000
,
0000
0000
0000
0001
0000
1000
0000
0001
,
0000
0000
0000
0100
0000
0001
0000
1000
,
0000
0000
0000
0100
0000
1000
0000
0001
,
0000
0000
0000
0001
0000
0001
0000
1000
,
0000
1000
0000
0001
0000
0001
0000
1000
,
0000
1000
0000
0010
0000
0100
0000
0010
,
0000
0100
0000
0001
0000
0001
0000
1000
,
0000
0000
0000
0100
0000
0010
0000
0100
,
0000
0000
0000
0010
0000
0001
0000
0010
,
0000
0000
0000
0001
0000
0001
0000
0100
,
0000
0100
0000
0010
0000
1000
0000
0002
,
0000
0000
0000
0000
0003
0000
0001
0000
0001
0000
1000
0000
0002
0000
0003
1000
,
1000
0000
0001
0000
1000
0000
0001
0000
2000
0000
3000
0000
1000
0001
1000
0001
,
1000
0001
1000
0001
1000
0001
1000
0001
1000
0001
1000
0000
0100
0000
0010
0000
,
0001
1000
0001
0100
0100
0100
0020
1030
,
0100
0010
0001
0010
0100
1000
0001
1000
0010
0010
0000
0100
0100
0000
0001
2002
,
0000
0000
0000
0000
0000
3003
0000
0000
0000
0000
0000
0000
0000
0000
0000
0000
,
0000
0001
1000
0001
,
1000
0000
0100
0000
,
0010
0100
0010
0100
,
0010
0000
0001
0000
,
0100
0000
0010
0000
,
1000
0000
0100
0100
,
1000
1000
0001
0001
,
0100
0010
0100
0001
,
1000
0000
0001
0000
,
1000
0000
0100
0100
,
0010
0000
0001
0000
,
1000
0000
0010
0010
,
0100
0000
0010
0010
,
0100
0000
0001
0100
,
0010
0100
0001
0100
,
0010
0010
1000
0001
,
0100
0100
0010
0010
,
1000
0000
1000
0000
0001
0000
0001
0002
,
0000
1000
1000
1000
,
1000
0000
1003
0000
1000
1000
0000
0100
,
0000
0010
0100
0000
0010
0000
0100
0010
,
0000
0100
0010
0000
0100
0000
1000
0000
,
0001
0001
1000
1000
,
0110
0000
0110
0000
0110
0000
0010
0100
,
0000
0001
0100
0010
,
1000
0001
0100
0010
,
1000
0001
0100
0010
,
1000
0000
0000
0001
0000
0001
0000
0020
,
0000
0000
0000
0000
,
0000
0030
0000
0000
0000
0000
0000
0000
0000
0000
0000
0000
0000
0000
0000
0000
;
