#TITLE:Chikatto Chika Chika;
#SUBTITLE:Kaguya-Sama Love is War Special Ending;
#ARTIST:Konomi Kohara;
#TITLETRANSLIT:;
#SUBTITLETRANSLIT:;
#ARTISTTRANSLIT:;
#GENRE:;
#CREDIT:Magna Trick;
#BANNER:CCCBN.jpg;
#BACKGROUND:CCCBG.jpg;
#LYRICSPATH:;
#CDTITLE:Magna Trick title!.png;
#MUSIC:Chikatto Chika Chika.mp3;
#OFFSET:-0.235000;
#SAMPLESTART:12.000000;
#SAMPLELENGTH:14.000000;
#SELECTABLE:YES;
#BPMS:0.000000=178.020004
;
#STOPS:
;
#BGCHANGES:0.188=Chikatto Chika Chika.avi=1.000=0=0=1=====,
275.500=CCCBG.jpg=1.000=0=0=1=====,
99999=-nosongbg-=1.000=0=0=0 // don't automatically add -songbackground-
;
#KEYSOUNDS:;
#ATTACKS:;

//---------------dance-single - ----------------
#NOTES:
     dance-single:
     :
     Hard:
     11:
     0.542372,0.615699,0.210338,0.273440,0.000000,361.000000,341.000000,20.000000,26.000000,0.000000,0.000000,0.542372,0.615699,0.210338,0.273440,0.000000,361.000000,341.000000,20.000000,26.000000,0.000000,0.000000:
0000
0000
0000
1000
,
0000
0001
0000
1000
,
0000
0001
0000
0000
,
0000
0000
0000
0100
,
0000
0010
0000
0100
,
0000
0010
0000
0000
,
0000
0100
0000
0000
,
0000
0100
0000
0100
,
0000
1001
0010
1001
,
0100
0000
1001
0001
0000
1000
2000
0000
,
3000
0000
0000
0001
0001
0001
0001
0000
,
0020
0000
0130
0000
1000
0010
0000
0100
,
0001
0010
0000
1000
0100
0010
0000
0001
,
0100
0000
0010
0000
1000
0100
0000
0010
,
0100
0010
0000
0100
0010
0100
0010
0000
,
0000
0000
0001
0000
1000
0001
0000
1000
,
0001
1000
0010
0100
0000
0001
0000
0010
,
0100
0000
1000
0000
1000
0100
1000
0000
,
0001
0010
0000
0001
1000
0010
0000
1000
,
0001
0000
0100
1000
0100
0001
0100
0010
,
0100
0001
0100
0010
1000
0200
0000
0000
,
0300
0000
1000
1000
0001
0001
1000
1000
,
0001
0001
1000
0100
0100
0100
0110
0000
,
0000
0000
0001
0000
0010
0100
0000
1000
,
0100
1000
0001
0000
1000
0100
0000
0010
,
0001
0000
0100
0100
0010
0100
0001
0010
,
0100
0100
1000
1000
0001
1001
0000
0000
,
0000
0000
0010
0000
1000
0001
0000
0010
,
0001
1000
0010
0100
0001
1000
0000
0010
,
1000
0100
0020
0000
0002
0000
0000
0000
,
0000
0033
1001
0000
0000
0000
0110
0000
,
0000
2002
0000
3003
,
0000
0000
1000
0100
0001
0100
1000
0100
,
0001
0100
0010
0100
0010
0100
1000
0010
,
0100
0000
0001
0100
1000
0100
0001
0100
,
1000
0100
0010
0100
0010
0100
0001
0010
,
1000
0000
0010
0001
0010
1000
0010
0001
,
0010
0100
0010
0100
0010
0001
0010
0100
,
1000
1000
0010
0000
0100
0001
0000
0010
,
0001
1000
0001
0010
0100
1000
0020
0000
,
0000
0030
0101
0000
0000
0000
1100
0000
,
0000
0000
2002
0000
0000
0000
0000
3003
,
0000
0020
0000
1030
0100
0001
0100
1000
,
0100
0001
0100
1000
0020
0000
0032
0000
,
0000
0023
0000
1030
0010
0001
0010
1000
,
0010
0001
0010
1000
0100
0010
2000
0000
,
3020
0000
0130
1000
0010
1000
0100
1000
,
1000
1000
0001
1000
0100
1000
0020
0000
,
0130
0000
0001
0010
0011
0000
1000
0010
,
1010
1000
0010
1000
0110
0100
0002
0000
,
0023
0230
0000
0000
,
0000
0300
0010
0001
0010
0001
1000
0100
,
1000
0100
0010
0001
1000
0010
0100
0001
,
0020
0030
1001
0000
0000
0010
1010
1000
,
0000
0001
0101
0100
0001
2002
0000
0000
,
3003
0000
0000
0001
1000
0001
1000
0000
,
0110
0000
0001
1000
0010
1000
0001
0100
,
0001
0010
0100
1000
0001
0100
0010
0100
,
0010
1000
0100
0100
0010
0010
0001
0001
,
1000
1000
0001
1000
0010
0100
0001
0100
,
0010
1000
0100
0001
0010
1000
0010
0001
,
1000
0100
0001
1000
0001
0100
1000
0010
,
0001
1000
0100
1000
0001
0100
1000
0100
,
0001
1000
0010
0010
0010
0010
0010
0010
,
0010
0020
0000
0030
0000
0000
0000
0000
,
0000
0000
0000
2002
,
0000
0000
0000
0000
,
0000
0000
0000
0000
,
0000
0000
0000
0000
0000
0000
0000
3003
;

//---------------dance-single - ----------------
#NOTES:
     dance-single:
     :
     Challenge:
     13:
     0.656555,0.760569,0.347058,0.473261,0.147237,437.000000,404.000000,33.000000,45.000000,0.000000,0.000000,0.656555,0.760569,0.347058,0.473261,0.147237,437.000000,404.000000,33.000000,45.000000,0.000000,0.000000:
// measure 0
0000
0000
0000
0002
,  // measure 1
0003
2000
3000
0020
,  // measure 2
0030
0000
0200
0000
0000
0300
0000
0000
,  // measure 3
0000
0000
0000
0020
,  // measure 4
0030
0200
0300
0002
,  // measure 5
0003
0000
2000
0000
0000
3000
0000
0000
,  // measure 6
0000
0020
0030
0000
,  // measure 7
0000
0020
0030
0020
,  // measure 8
0030
1001
0100
1001
,  // measure 9
0010
0000
1001
1000
0000
0001
0002
0000
,  // measure 10
0003
0000
0000
1000
1000
1000
1000
0000
,  // measure 11
0200
0000
0310
0000
0001
0100
0000
0010
,  // measure 12
1000
0100
0000
0001
0010
0100
0000
1000
,  // measure 13
0010
0000
0100
0001
0100
0000
0000
0000
0001
0000
0010
0000
0100
1000
0100
0010
,  // measure 14
0001
0010
0100
1000
0100
0000
0010
0000
0100
0000
0010
0000
0220
0000
0330
0000
,  // measure 15
0000
0000
1001
0000
0001
1000
0000
0001
,  // measure 16
1000
0001
0100
0010
0000
1000
0000
0100
,  // measure 17
0010
0000
0001
0000
0001
0010
0001
0000
,  // measure 18
1000
0100
0010
1000
0001
0100
1000
0001
,  // measure 19
1000
0000
0010
0100
0010
0000
0001
0000
0010
0000
1000
0000
0010
0000
0100
0000
,  // measure 20
0010
1000
0010
0100
0001
0020
0000
0130
,  // measure 21
1000
0000
0001
0001
1000
1000
0001
0001
,  // measure 22
1000
1000
0001
0010
0010
0010
0220
0000
,  // measure 23
0330
0000
1001
0000
0100
0010
0000
0001
,  // measure 24
0010
0001
1000
0100
0001
0010
0001
0100
,  // measure 25
1000
0000
0001
0010
0001
0000
0010
0000
0100
0000
0010
0000
0001
0000
0100
0000
,  // measure 26
0010
0010
1000
1000
0001
2002
3003
0010
,  // measure 27
0100
0000
0001
1000
0001
0000
0010
0000
0001
0000
0011
0000
0000
0000
0100
0000
,  // measure 28
1000
0001
0100
0010
1000
1100
0000
0010
,  // measure 29
0100
1000
0200
0000
0320
0001
0000
0001
,  // measure 30
0031
0000
0000
1001
0100
0010
0001
0000
0000
0110
1000
0001
,  // measure 31
0100
2002
0000
3003
,  // measure 32
0000
0000
0001
0010
1000
0010
0001
0010
,  // measure 33
1000
0000
0000
0010
0000
0000
0100
0000
0000
0010
0000
0000
0100
0000
0000
0010
0000
0000
0001
0000
0100
0000
0010
0000
,  // measure 34
1000
0000
1000
0010
0001
0010
1000
0010
,  // measure 35
0001
0000
0000
0010
0000
0000
0100
0000
0000
0010
0000
0000
0100
0000
0000
0010
0000
0000
1000
0000
0100
0000
0010
0000
,  // measure 36
0001
0000
0100
1000
0100
0001
0100
1000
,  // measure 37
0100
0010
0100
0010
0100
1000
0100
0010
,  // measure 38
1000
1000
1001
0000
0010
1000
0000
0100
,  // measure 39
1000
0001
1000
0100
0010
0001
0200
0000
,  // measure 40
0010
1300
2020
0000
3030
0000
0022
0000
,  // measure 41
0033
0000
2002
0000
0000
0000
0000
3003
,  // measure 42
1001
0200
0310
0001
0010
1000
0010
0001
,  // measure 43
0010
1000
0010
0001
0200
0010
2300
0000
,  // measure 44
0100
3200
0000
0301
0100
1000
0100
0001
,  // measure 45
0100
1000
0100
0010
0001
0100
0002
0000
,  // measure 46
0203
0010
0310
1000
0100
0001
0010
0001
,  // measure 47
0001
0001
0010
1000
0100
0001
0200
0000
,  // measure 48
0310
0000
0110
0100
0110
0000
1001
1000
,  // measure 49
1001
0000
0001
0000
0101
0000
0100
0000
1100
0000
1000
0001
2000
0000
0000
0000
,  // measure 50
3200
0000
0320
0000
0001
0001
0000
0001
,  // measure 51
0031
0000
0110
1000
0100
1000
0101
0010
,  // measure 52
0001
0010
1100
1000
0001
0100
1001
0001
,  // measure 53
0200
0300
1001
0000
0000
0100
0101
0001
,  // measure 54
0000
0000
1000
0000
1010
0000
0010
0000
1000
0000
1001
0000
0000
0000
0001
0010
,  // measure 55
0100
1000
0100
0010
0001
0000
1000
0000
0001
0000
1000
0000
0001
0000
0000
0000
,  // measure 56
0110
0000
1000
0001
0100
0001
1000
0010
,  // measure 57
1000
0100
0010
0001
1000
0010
0100
0010
,  // measure 58
0100
0001
0010
0010
0100
0100
1000
1000
,  // measure 59
0001
0001
1000
0001
0100
0010
1000
0010
,  // measure 60
0100
0001
0010
1000
0100
0001
0100
1000
,  // measure 61
0001
0010
1000
0001
1000
0010
0001
0100
,  // measure 62
1000
0001
0010
0001
1000
0010
0001
0010
,  // measure 63
1000
0000
0001
0000
0100
0000
0100
0000
0100
0000
0100
1000
0100
0001
0100
1000
,  // measure 64
0100
0001
0200
0000
0000
0000
0300
0000
0000
0000
0000
0000
0000
0100
1000
0000
,  // measure 65
0000
0000
0001
0000
0000
0010
0000
0000
0000
0000
0000
0001
2000
0002
0000
0000
,  // measure 66
0000
0000
0000
0000
,  // measure 67
0000
0000
0000
0000
,  // measure 68
0000
0000
0000
0000
0000
0000
0000
3003
;

//---------------dance-single - ----------------
#NOTES:
     dance-single:
     :
     Medium:
     8:
     0.434198,0.579481,0.283956,0.147237,0.000000,289.000000,262.000000,27.000000,14.000000,0.000000,0.000000,0.434198,0.579481,0.283956,0.147237,0.000000,289.000000,262.000000,27.000000,14.000000,0.000000,0.000000:
0000
0000
0000
0001
,
0000
1000
0000
0010
,
0000
0100
0000
0000
,
0000
0000
0000
0010
,
0000
0100
0000
0001
,
0000
1000
0000
0000
,
0000
0100
0000
0000
,
0000
0100
0000
0100
,
0000
0110
0000
0110
,
0000
0000
0100
0010
0000
0100
0010
0000
,
0000
0000
0000
0001
0001
0001
0001
0000
,
1001
0000
1000
0000
0010
1000
0000
0010
,
0000
0100
0000
0001
0000
1000
0000
0001
,
1000
0000
0001
0000
0010
0100
0000
0010
,
0000
0100
0000
1000
0001
1000
0001
0000
,
0000
0000
0100
0000
0010
0100
0000
0010
,
0100
0001
1000
0001
0000
1000
0000
0100
,
1000
0000
0001
0000
0010
0001
0010
0000
,
0001
1000
0000
0010
0000
1000
0000
0001
,
0100
0000
0001
0100
0001
0100
0010
0100
,
0001
0100
0010
0010
0100
0002
0000
0000
,
0003
0000
1000
1000
0001
0001
1000
1000
,
0001
0001
0100
0010
1000
0100
0010
0000
,
0000
0000
0001
0000
1000
0100
0000
1000
,
0100
1000
0100
0000
0010
0001
0000
0010
,
0001
0000
1000
0000
0001
1000
0000
0001
,
1000
0010
0100
0000
0010
0200
0000
0300
,
0000
0000
0001
0000
1000
0100
0000
1000
,
0001
0010
0001
0000
0010
0100
0000
1000
,
0100
1000
0001
0000
0200
0000
0000
0000
,
0000
0300
0011
0000
0000
0000
1100
0000
,
0000
2002
0000
0000
,
3003
0010
1000
0100
,
0001
0000
0010
0000
1000
0000
0100
0100
,
0100
0001
0010
1000
,
0100
0000
0001
0000
0010
0000
1000
1000
,
1000
0100
0001
0010
,
1000
0100
0001
0010
,
1000
0001
1000
0000
0001
0100
0000
1000
,
0001
0100
1000
0100
0010
0100
0002
0000
,
0000
0003
1100
0000
0000
0000
0011
0000
,
0000
2002
0000
0000
,
3003
0010
0100
0001
,
1000
0100
0011
0011
,
0100
1000
0001
0100
,
0010
1000
1010
1010
,
0001
1000
0010
0100
,
0001
0000
1000
0000
0100
0010
0001
0000
,
1000
1100
0000
0101
,
0000
0011
0000
1010
,
0110
2002
0000
0000
,
3003
1001
0000
0110
,
0000
1100
0000
1010
,
0000
0000
0101
0100
0000
0000
0011
0010
,
0000
0000
0001
0010
0100
2000
0000
0000
,
0000
0000
0000
0001
0001
3001
0001
0000
,
1001
0000
0001
0000
1000
0010
0000
1000
,
0000
0001
0000
0010
0000
0001
0000
1000
,
0001
0000
0100
0010
0100
0010
0100
0010
,
0100
0010
1000
0000
0001
0000
0010
0000
,
0100
0000
0010
0100
0010
0100
0010
0100
,
0010
0100
0010
0000
0001
0000
1000
0000
,
0010
0000
0100
0001
0100
0001
0100
0001
,
0100
0010
1000
1000
0001
0001
0100
0100
,
0010
0020
0000
0000
0000
0030
0000
0000
,
0000
0000
0000
2002
,
0000
0000
0000
0000
,
0000
0000
0000
0000
,
0000
0000
0000
0000
0000
0000
0000
3003
;

//---------------dance-single - ----------------
#NOTES:
     dance-single:
     :
     Easy:
     4:
     0.282454,0.471683,0.147237,0.178787,0.000000,188.000000,174.000000,14.000000,17.000000,0.000000,0.000000,0.282454,0.471683,0.147237,0.178787,0.000000,188.000000,174.000000,14.000000,17.000000,0.000000,0.000000:
0000
0000
0000
0000
,
0000
0000
0000
0000
,
0000
0000
0000
0000
,
0000
0000
0000
1000
,
0000
0001
0000
1000
,
0000
0001
0000
0000
,
0000
0100
0000
0000
,
0000
0100
0000
0100
,
0000
0100
0000
0100
,
0000
0010
0000
0200
,
0000
0300
0000
0000
0000
0000
0000
0000
,
1001
0000
1000
0000
,
0010
0000
0100
0000
,
0001
0000
0010
0000
,
0100
0000
1000
0001
,
0000
0000
0100
0000
,
0010
0000
1000
0000
,
0100
0000
0010
0000
,
0001
0000
1000
0000
,
0010
0000
0100
0000
,
0001
0000
0100
0000
0010
0200
0000
0000
,
0300
0001
0001
1000
,
1000
0000
0000
0001
1000
0000
0002
0000
,
0003
0000
1000
0000
,
0001
0000
0010
0000
,
0100
0000
1000
0000
,
0001
0000
0000
0000
0001
2000
0000
3000
,
0100
0000
0010
0000
,
0001
0000
0100
0000
,
0010
0000
0020
0000
,
0000
0030
1001
0000
0000
0000
1001
0000
,
0000
2002
0000
0000
,
3003
0010
0010
0100
,
0100
0010
0100
0010
,
0010
1000
1000
0001
,
0001
1000
0001
1000
,
1000
0001
1000
0001
,
1000
0001
1000
0001
,
0001
2000
0000
3000
,
0000
0010
0100
0002
,
0000
0003
0010
0000
0000
0000
0100
0000
,
0000
2002
0000
0000
,
3003
1000
0010
1000
,
0010
0100
0001
0001
,
0000
0001
0010
0001
,
0010
0001
0010
0100
,
0000
1000
0001
1000
,
0001
1000
0010
0100
,
0001
1000
1000
0001
,
0001
0100
0010
1000
,
0100
0220
0000
0000
,
0330
1001
0000
1010
,
0000
0101
0000
0011
,
0000
1100
0000
1001
,
0000
0000
1001
0000
0001
2000
0000
0000
,
0000
3000
0000
0001
0000
1000
0001
0000
,
1000
0000
0001
0000
1000
0010
0000
0100
,
0000
0001
0000
1000
0000
0001
0000
1000
,
0001
1000
0100
0010
,
0001
1000
0010
0100
,
0001
0000
1000
0001
1000
0001
1000
0001
,
1000
0001
0010
0000
0100
0000
1000
0000
,
0001
0000
0100
0010
0100
0010
0100
0010
,
0100
0010
0100
0000
0001
0000
1000
0000
,
0200
0000
0000
0300
0000
0000
0000
0000
,
0000
0000
0000
2002
,
0000
0000
0000
0000
,
0000
0000
0000
0000
,
0000
0000
0000
0000
,
3003
0000
0000
0000
;
