#TITLE:Chala Head Chala;
#SUBTITLE:Dragon Ball Z Opening 1 Latino;
#ARTIST:Ricardo Silva;
#TITLETRANSLIT:;
#SUBTITLETRANSLIT:;
#ARTISTTRANSLIT:;
#GENRE:;
#CREDIT:Magna Trick;
#BANNER:CHCBN.jpg;
#BACKGROUND:CHCBG.jpg;
#LYRICSPATH:;
#CDTITLE:Magna Trick title!.png;
#MUSIC:Chala Head Chala.mp3;
#OFFSET:0.184413;
#SAMPLESTART:53.500000;
#SAMPLELENGTH:14.000000;
#SELECTABLE:YES;
#BPMS:0.000000=154.100006
;
#STOPS:
;
#BGCHANGES:0.063=Chala Head Chala.avi=1.000=0=0=1=====,
276.500=ESPECIAL.jpg=1.000=0=0=1=====,
99999=-nosongbg-=1.000=0=0=0 // don't automatically add -songbackground-
;
#KEYSOUNDS:;
#ATTACKS:;

//---------------dance-single - ----------------
#NOTES:
     dance-single:
     :
     Hard:
     13:
     0.510419,0.835643,0.465645,0.223868,0.089547,399.000000,347.000000,52.000000,25.000000,0.000000,0.000000,0.510419,0.835643,0.465645,0.223868,0.089547,399.000000,347.000000,52.000000,25.000000,0.000000,0.000000:
0000
0000
0000
0000
,
0000
0000
0000
0000
,
0000
1001
1001
0000
0000
0000
0001
0000
,
1000
0100
0000
1000
0000
1000
0000
0001
,
0100
0010
0000
0010
0000
0100
0001
0000
,
2000
0000
0000
0000
,
0000
0000
0000
0000
0000
0000
0000
3000
0002
0000
0000
0000
0000
0000
0000
0000
,
0000
0000
0000
0003
1001
0100
0010
1001
,
0010
0100
1001
0010
1000
0000
0001
0000
,
0100
0010
0000
0010
0000
1000
0000
1000
,
0000
0001
0001
0010
0100
1000
0000
0002
,
0000
0000
0000
0103
0010
1000
0000
0002
,
0000
0103
0010
2000
0000
3000
0000
0000
,
0200
0000
0320
0000
,
0032
0000
0000
0103
0100
0010
1000
0001
,
0100
0000
0010
0000
1000
0000
0100
0000
0010
0100
0010
0100
1000
0001
1000
0001
,
0100
0010
1000
0001
0100
0000
0010
0000
1000
0000
0000
0000
0001
0000
0000
0000
,
0100
0010
0000
0010
0000
1000
0001
0100
,
0010
1000
0100
0000
0010
0001
0000
0020
,
0000
0000
0000
0000
0130
0000
0000
0000
1000
0000
0002
0000
0000
0003
0200
0000
,
0000
0010
0310
2000
0000
3000
1010
0000
,
0101
1000
1010
0001
,
1000
0000
0100
0010
0000
0100
0000
2000
,
0000
0000
0000
0000
,
0001
0000
0001
0000
0001
3000
0001
0000
1001
0000
0100
0000
1000
0000
0001
0000
,
0000
0010
1000
0100
1100
0000
1010
0000
,
0101
0011
2002
0000
,
0000
0000
3003
0000
0001
0000
2000
0000
0000
0000
0000
0000
0000
3000
0010
0000
,
0000
0000
0100
0000
0001
0000
0010
0001
0010
0000
0000
0000
0001
0000
0000
0000
,
1000
0000
0001
0000
0100
0010
0000
0200
,
0000
0301
1000
0000
0100
0000
0010
0000
,
0100
1000
0010
0100
0000
1000
0000
0100
,
0001
0010
0000
2000
0000
0000
0000
0000
,
0000
3000
0110
0110
0000
0100
1000
0001
,
0100
0010
1000
0000
0101
0010
1000
0101
,
0000
0000
1001
0000
0101
0010
1000
0101
,
0000
1001
0001
1000
,
0100
0000
0010
0100
0000
1000
0001
0000
,
0100
0010
1002
0000
,
0203
0000
0320
0000
,
2030
0000
0000
3000
2002
0000
0000
0000
,
0000
0000
0000
3003
0100
0100
1000
1000
,
0001
0001
0100
0000
1010
0100
0001
1010
,
0000
0000
1001
0000
1010
0100
0001
1010
,
0000
1001
0110
0100
,
1000
0000
0001
0001
0010
0100
1000
0000
,
1000
0000
0010
0000
0100
0000
0001
0100
,
0000
1000
0100
0001
0010
1000
0100
0001
,
0010
1000
0100
0000
0110
0001
1000
0110
,
0000
0001
1001
0000
0110
0001
1000
0110
,
0000
1000
1001
0000
1001
0000
0010
0000
,
0100
0000
0001
0100
0000
0100
0001
0000
,
1000
0100
1100
1000
,
1010
0010
0011
0001
,
0101
0000
0100
0000
0110
0001
0100
0010
,
1000
0001
0100
0001
0100
0100
0010
0010
,
1000
1000
0001
0001
1001
0100
0010
1001
,
0000
0100
0110
0000
1001
0010
0100
1001
,
0000
0010
0110
0000
1000
0000
0100
0000
,
0010
0000
0100
1000
0000
1000
0100
0000
,
0010
0000
0001
0000
1000
0010
0100
0001
,
0000
0001
0100
1000
0010
0001
0100
1000
,
0010
0001
0100
1000
0010
0000
0001
0000
,
1000
0001
1000
0001
1001
0000
0001
0000
,
1000
0001
1000
0110
0000
0000
0010
0000
,
0100
0000
0000
0000
0010
0000
0100
0010
0100
0000
0000
0000
0010
0000
0000
0000
,
0100
0010
0100
0110
0000
0000
0010
0000
,
1000
0000
0000
0000
0001
1000
0001
0100
0010
1000
0001
0100
0010
1000
0001
0100
,
0010
1000
0001
0100
0010
1000
0100
0010
0001
0000
1000
0001
1000
0001
0020
0000
,
0000
0030
0000
0000
0000
0000
0000
0000
;

//---------------dance-single - ----------------
#NOTES:
     dance-single:
     :
     Challenge:
     16:
     0.798249,1.058000,0.367143,0.125366,0.456691,624.000000,583.000000,41.000000,14.000000,0.000000,0.000000,0.798249,1.058000,0.367143,0.125366,0.456691,624.000000,583.000000,41.000000,14.000000,0.000000,0.000000:
// measure 0
0000
0000
0000
0000
,  // measure 1
0000
0000
0000
0000
0000
0000
0000
0000
0001
0010
0100
1000
0010
0100
0001
1000
,  // measure 2
0100
0010
0001
0100
1001
0000
0000
0000
0010
0000
0000
0000
1000
0000
0001
0000
,  // measure 3
1000
0001
1000
0000
0100
0000
0010
0100
0010
0000
0001
1000
0001
0000
2000
0000
,  // measure 4
0010
0000
3100
0001
0100
0000
0010
0000
1000
0000
0010
0000
1000
0000
0001
0000
,  // measure 5
0002
0100
1000
0100
,  // measure 6
1000
0000
0000
0000
0103
0000
1000
0100
2000
0000
0001
0000
0001
0000
0000
0000
,  // measure 7
0100
0000
0001
3000
1001
0010
0100
1001
,  // measure 8
0100
0010
1001
0100
0001
0000
0001
0001
,  // measure 9
0100
0100
0010
1000
0100
0010
0100
0001
,  // measure 10
0100
1000
0001
0100
0010
0010
0010
1000
,  // measure 11
1000
1000
1000
0001
0001
1000
0100
0010
,  // measure 12
0010
0001
0001
0001
0100
0010
1001
0100
,  // measure 13
1001
0010
0100
0001
1100
0010
0001
0100
,  // measure 14
0011
1000
0001
0100
0100
0010
0010
1000
,  // measure 15
1000
0000
0001
0000
0001
0000
0010
0000
0100
0010
0100
0010
0001
1000
0001
1000
,  // measure 16
0010
0100
0001
1000
1001
0000
0100
0000
0001
0000
0000
0000
0001
0000
0001
0000
,  // measure 17
0100
0100
1000
0001
0001
0010
1000
0100
,  // measure 18
0010
0010
0100
1000
0101
0010
1000
0101
,  // measure 19
0010
1000
0100
0010
0011
0100
1000
0011
,  // measure 20
0100
1000
0010
0010
0010
1000
1001
0001
,  // measure 21
1001
0100
1000
0100
0011
1000
0101
1000
,  // measure 22
0011
0000
1000
0000
0101
0000
1000
0000
0001
0100
0010
1000
0001
0100
0010
1000
,  // measure 23
0001
0100
0010
1000
0001
0100
0010
1000
0100
0010
0100
1000
0001
1000
0100
0010
,  // measure 24
0001
0010
0100
1000
0001
1000
0010
0100
1001
0000
0010
0000
0100
0000
1001
0000
,  // measure 25
0000
0100
0001
0010
0011
0000
0101
0000
,  // measure 26
1010
0000
1100
0000
2001
0000
0100
0100
,  // measure 27
0000
3010
0010
2000
0001
0000
3100
0100
,  // measure 28
0000
0000
0010
0000
0001
0000
0100
1000
0001
0000
0000
0000
1000
0000
0100
0000
,  // measure 29
0001
0010
0100
1000
0010
0010
1000
0020
,  // measure 30
1000
1030
0001
0100
0010
1000
1000
0001
,  // measure 31
0001
0010
0010
0100
1000
0001
0100
0010
,  // measure 32
0100
1000
0100
0002
0010
1000
1000
0010
,  // measure 33
1000
0000
1003
0000
1001
0000
1001
0000
0000
0000
0010
0000
0001
0000
1000
0010
,  // measure 34
1000
0000
0001
0100
0001
0000
1000
0100
0010
0000
0001
0000
0001
0000
0100
0010
,  // measure 35
1000
0000
0001
0100
0010
0000
0000
0000
1000
0000
0001
0000
0100
0000
0010
1000
,  // measure 36
0001
0000
0100
0010
1000
0000
0000
0000
0001
0000
1000
0000
0100
0000
0010
0001
,  // measure 37
0010
0000
0100
0000
1000
0000
0001
0000
0100
0000
0010
0000
1000
0100
1000
0010
,  // measure 38
1000
0010
0100
0001
2001
0000
0100
0000
,  // measure 39
3020
1000
0230
0001
,  // measure 40
0302
0000
1000
0003
2001
0000
0001
0000
,  // measure 41
0000
0000
0000
0000
0001
0000
3000
0000
0010
0001
0010
0000
0001
0100
0001
0000
,  // measure 42
1000
0010
1000
0000
0100
1000
0100
0000
0010
0001
0100
0000
0010
0000
1000
0100
,  // measure 43
0010
0000
0001
0100
0010
0000
0000
0000
1000
0000
0100
0000
0010
0001
0010
0000
,  // measure 44
0100
0000
1000
0010
0100
0000
0000
0000
1000
0000
0100
0000
0001
0010
0100
0000
,  // measure 45
1000
0001
0100
0100
0001
0001
1000
1000
,  // measure 46
0001
0000
1000
0000
0010
0100
0001
1000
0010
0000
0100
0000
0001
0000
0001
0000
,  // measure 47
1000
0001
1000
0001
0101
0100
0101
0001
,  // measure 48
0101
0000
0001
0000
0001
0000
1000
0001
1000
0000
0001
0000
1000
0000
1000
0001
,  // measure 49
0100
0000
0010
1000
0001
0000
0000
0000
0100
0000
0010
0000
1000
0000
0001
0010
,  // measure 50
0100
0000
1000
0001
0010
0000
0000
0000
0100
0000
1000
0000
0001
0100
0010
1000
,  // measure 51
0001
0000
0100
0000
0010
0000
1000
0000
0100
0010
0100
0010
0100
0000
0010
0000
,  // measure 52
0001
0010
0100
1000
0011
0000
0001
0100
,  // measure 53
0101
0000
0100
1000
1100
0000
1000
0010
,  // measure 54
1010
0000
0010
0100
0110
1000
0010
0100
,  // measure 55
0001
0000
1000
0000
0010
0000
1000
0000
0010
1000
0010
0000
0100
0001
0100
0000
,  // measure 56
0001
1000
0001
0000
1000
0001
1000
0000
0100
1000
0010
0000
0100
0000
0001
0010
,  // measure 57
0100
0000
1000
0010
0100
0000
0000
0000
0001
0000
0010
0000
0100
1000
0100
0000
,  // measure 58
0010
0000
0001
0100
0010
0000
0000
0000
0001
0000
0010
0000
1000
0100
0010
0000
,  // measure 59
0001
1000
0010
0010
1000
1000
0001
0001
,  // measure 60
1000
0000
0001
0000
0100
0010
1000
0001
0100
0000
0010
0000
1000
0000
1000
0000
,  // measure 61
0001
0000
0100
0000
0010
0000
1000
0000
0001
0100
0010
1000
0001
0100
0010
1000
,  // measure 62
0001
0100
0010
1000
0001
0100
0010
1000
0001
0000
0000
0000
1000
0000
0000
0000
,  // measure 63
0100
1000
0100
0000
1000
0100
1000
0000
1001
0000
0000
0000
0001
0000
0000
0000
,  // measure 64
1000
0000
0000
0000
0001
0000
1001
0000
1000
0001
1000
0000
0100
0000
0010
0000
,  // measure 65
0001
1000
0001
0000
0100
0000
0010
0100
0020
0000
0000
0000
0100
0000
0000
0000
,  // measure 66
1000
0000
0031
1001
1000
0000
0001
0000
,  // measure 67
0010
0000
0000
0000
1000
0001
1000
0010
0100
1000
0100
0001
0010
0001
1000
0100
,  // measure 68
0001
0100
1000
0010
0001
0010
1000
0001
1000
0000
0001
0100
0010
1000
0200
0000
,  // measure 69
0000
0000
0300
0000
;

//---------------dance-single - ----------------
#NOTES:
     dance-single:
     :
     Medium:
     8:
     0.410638,0.495196,0.474600,0.250732,0.013432,321.000000,268.000000,53.000000,28.000000,0.000000,0.000000,0.410638,0.495196,0.474600,0.250732,0.013432,321.000000,268.000000,53.000000,28.000000,0.000000,0.000000:
0000
0000
0000
0000
,
0000
0000
0000
0000
,
0000
0001
1001
0000
0000
0000
1000
0000
,
0001
1000
0000
0001
0000
0001
0000
1000
,
0001
1000
0000
0001
0000
1000
1000
0000
,
0002
0000
0000
0000
,
0000
0000
0000
0000
0000
0000
0000
0003
2000
0000
0000
0000
0000
0000
0000
0000
,
0000
0000
0000
3000
1001
0000
0000
1001
,
0000
1001
0001
1000
,
0010
0100
0000
0100
0000
0001
0000
0001
,
0000
1000
0000
0100
0010
0100
0000
2000
,
0000
0000
0000
3010
0100
0010
0000
2000
,
0000
3001
0001
0002
0000
0003
0000
0000
,
0020
0000
0230
0000
,
2300
0000
0000
3010
0000
0100
0001
1000
,
0001
0010
0001
1000
0100
0100
0010
0010
,
0001
0001
0001
1000
0100
0000
1000
0000
,
0010
0100
0000
0100
0000
0001
0100
0001
,
0100
0001
1000
0000
0100
1000
0000
0200
,
0000
0000
0000
0000
1300
0000
0000
0000
0001
0000
2000
0000
0000
3000
0020
0000
,
0000
0030
0100
0002
0000
0003
1001
0000
,
1010
0000
0101
1000
,
0001
0000
0010
0100
0000
0010
0000
0002
,
0000
0000
0000
0000
,
1000
0000
1000
0000
1000
0003
1000
0000
0200
0000
0000
0000
0000
0000
0000
0000
,
0300
0010
0001
0000
0011
0000
0101
0000
,
1010
1100
2002
0000
,
0000
0000
3003
0000
1000
0000
0002
0000
0000
0000
0000
0000
0000
0003
0100
0000
,
0000
0010
1000
1000
1000
0000
1000
0000
,
0001
0000
1000
0000
0010
0100
0000
0020
,
0000
1030
0001
0000
0010
0000
0100
0000
,
0010
0001
0010
0001
0000
1000
0000
0010
,
0100
0100
0000
0002
0000
0000
0000
0000
,
0000
0003
0000
1001
0000
0010
0001
0000
,
0010
0001
0010
0000
0101
0000
0000
1010
,
0000
0000
1001
0000
1100
0000
0000
0011
,
0000
1001
1000
0001
,
0010
0000
0100
0010
0000
0001
1000
0000
,
0010
0100
2001
0000
,
3020
0000
0230
0000
,
0302
0000
0000
0003
2002
0000
0000
0000
,
0000
0000
0000
3003
0010
0000
0010
0000
,
0001
1000
0001
0000
1100
0000
0000
0011
,
0000
0000
1001
0000
0101
0000
0000
1010
,
0000
1001
0110
0010
,
1000
0000
0100
1000
0000
0001
0100
0000
,
0001
0000
0100
0000
0010
0000
1000
0010
,
0000
0001
0010
0000
0110
0000
1001
0000
,
0110
0000
1001
0000
0011
0000
0000
1100
,
0000
0000
1001
0000
1010
0000
0000
0101
,
0000
1001
1001
0100
,
0010
0000
1000
0010
0000
0001
0010
0000
,
0100
1000
0011
0000
,
0101
0000
1100
0000
,
1010
0000
0110
1000
,
0001
0000
0100
0000
0010
0010
0100
0100
,
0001
0001
1000
0000
1100
0000
0000
0011
,
0000
0000
1001
0000
0101
0000
0000
1010
,
0000
1001
0001
0010
,
0100
0000
0010
0001
0000
1000
0010
0000
,
0100
0000
0001
0000
0001
0100
0001
0100
,
0000
0010
1000
0001
0100
0010
0100
0010
,
0100
0010
0100
0001
1000
0000
1000
0000
,
0001
1000
0001
1000
0100
0000
1000
0000
,
0001
1000
0000
0110
0000
0000
0100
0000
,
0010
0000
0100
0020
0000
0000
0130
0000
,
0010
0100
0000
0110
0000
0000
0100
0000
,
1000
0000
2001
0001
0000
0000
0000
0000
,
0000
0000
0000
0000
0000
0000
3000
0000
0001
1000
0001
1000
0001
1000
0002
0000
,
0000
0003
0000
0000
0000
0000
0000
0000
;

//---------------dance-single - ----------------
#NOTES:
     dance-single:
     :
     Easy:
     5:
     0.323649,0.464246,0.143275,0.053728,0.000000,253.000000,237.000000,16.000000,6.000000,0.000000,0.000000,0.323649,0.464246,0.143275,0.053728,0.000000,253.000000,237.000000,16.000000,6.000000,0.000000,0.000000:
0000
0000
0000
0000
,
0000
0000
0000
0000
,
0000
0001
0001
0000
0000
0000
1000
0000
,
0001
0000
0100
0000
,
0010
0000
1000
1000
,
0001
0000
0010
0000
,
0100
0000
0010
0000
,
0100
0000
1000
1000
,
0001
0001
0100
0000
,
0010
0000
1000
0001
,
0100
0000
0001
1000
,
0100
0000
0010
0001
,
1000
0000
0010
0010
,
1000
0000
0001
0000
,
0100
0000
0010
0010
,
0100
0100
0001
1000
,
0001
1000
0001
0010
,
0100
1000
0001
0100
,
0010
1000
0001
0000
,
0010
0000
0100
0100
,
1000
0001
0100
0000
,
0010
0000
0100
0100
,
0001
0000
0001
0000
1000
0100
1000
0000
,
0001
0001
1000
1000
,
0001
0100
0001
0000
1000
0000
0000
0000
,
0001
0000
0100
0100
,
0010
0010
1000
0000
,
0001
0000
0010
0000
,
0100
0100
1000
0001
,
0100
0001
1000
0001
,
0100
0001
1000
0001
,
0100
0001
1000
0001
,
0100
0001
1000
1000
,
0001
0000
0001
1000
0000
1000
0001
0000
,
1000
0000
0001
0000
1001
0000
0000
0110
,
0000
0000
0000
0000
1001
0000
0000
0110
,
0000
0000
0000
0010
,
1000
0010
0100
0001
,
0100
0010
2000
0000
,
3002
0000
0023
0000
,
0230
0000
2300
0000
,
0000
0000
3001
0100
,
0001
0100
0001
0000
1010
0000
0000
0101
,
0000
0000
0000
0000
0011
0000
0000
1100
,
0000
0000
0000
1000
,
0001
0000
1000
0000
0010
0100
0010
0000
,
0100
0100
0001
1000
,
0001
1000
0001
0001
,
1000
0000
1000
0000
1001
0000
0000
0110
,
0000
0000
0000
0000
0110
0000
0000
1001
,
0000
0000
0000
1000
,
1000
0001
0001
0010
,
0100
0010
0100
0100
,
1000
1000
0001
0001
,
0100
0100
0010
0010
,
0010
0010
1000
1000
,
0001
0100
0001
0000
1001
0000
0000
0110
,
0000
0000
0000
0000
0110
0000
0000
1001
,
0000
0000
0000
0001
,
0001
0010
0100
1000
,
1000
0001
0100
0010
,
0100
0000
0001
0000
1000
0001
1000
0001
,
1000
0001
1000
0001
1000
0000
1000
0000
,
1000
0001
1000
0001
1000
0000
1000
0000
,
1000
0000
0001
1000
0001
0000
1000
0000
,
1000
0000
0001
1000
0001
0000
0001
0000
,
0001
0000
0001
1000
0001
0000
0001
0000
,
0001
0000
1000
0001
1000
0001
1000
0001
,
1000
0001
1000
0001
1000
0001
0100
0020
,
0000
0030
0000
0000
0000
0000
0000
0000
;
