#TITLE:Burst The Gravity;
#SUBTITLE:Acell World opening 2;
#ARTIST:ALTIMA;
#TITLETRANSLIT:;
#SUBTITLETRANSLIT:;
#ARTISTTRANSLIT:;
#GENRE:;
#CREDIT:;
#BANNER:BTGBN.jpg;
#BACKGROUND:BTGBG.jpg;
#LYRICSPATH:;
#CDTITLE:cdtitleitachi.png;
#MUSIC:Accel World Opening 2 'Burst The Gravity By ALTIMA' HD descarga full.mp3;
#OFFSET:0.034516;
#SAMPLESTART:62.272236;
#SAMPLELENGTH:19.459469;
#SELECTABLE:YES;
#BPMS:0.000000=74.000000
,17.000000=148.000000
;
#STOPS:
;
#BGCHANGES:0.063=1.avi=1.000=0=0=1=====,
201.000=BTGBG.jpg=1.000=0=0=1=====,
99999=-nosongbg-=1.000=0=0=0 // don't automatically add -songbackground-
;
#KEYSOUNDS:;
#ATTACKS:;

//---------------dance-single - ----------------
#NOTES:
     dance-single:
     :
     Challenge:
     15:
     0.820399,0.880682,0.598670,0.454545,0.648559,518.000000,464.000000,54.000000,41.000000,0.000000,0.000000,0.820399,0.880682,0.598670,0.454545,0.648559,518.000000,464.000000,54.000000,41.000000,0.000000,0.000000:
// measure 0
0000
0000
0000
0000
2000
3100
0010
0001
0200
0300
0010
1000
0200
1300
0010
0000
,  // measure 1
2000
3100
0010
0001
2000
3000
0010
1000
0020
0130
0001
0010
0002
0000
0000
0003
,  // measure 2
2000
3100
1000
0010
0200
0300
0101
0000
0022
0033
0000
0001
0020
0130
1000
0001
,  // measure 3
0020
0000
0030
0000
0001
0000
0010
0000
0002
0000
0003
0100
0000
0000
0010
0000
2000
0000
3000
0100
0000
0000
1000
0000
0020
0000
0230
0000
0302
0000
2003
0000
,  // measure 4
3200
0320
0032
2003
3010
0100
0001
1000
0100
1000
0010
0100
0001
0010
0100
1000
,  // measure 5
0010
0100
0001
0000
0100
0000
0001
0000
1001
0000
0100
1000
0100
1000
0010
0000
,  // measure 6
0100
0000
0001
1000
0100
0000
1000
0000
1001
0000
0001
0100
0010
0100
0001
0000
,  // measure 7
1000
0000
0100
1000
0100
0000
1000
0000
0110
0000
0001
1000
0001
1000
0100
0000
,  // measure 8
0010
0000
0001
0000
1001
0000
0001
0000
0101
0000
0001
0000
1000
0100
0010
0001
,  // measure 9
2020
0000
0000
3030
1000
0000
0000
0000
0001
0000
0000
0000
0100
0000
0010
0000
,  // measure 10
1000
0100
0000
1000
0010
0000
1000
0000
,  // measure 11
0010
0000
0100
0000
0101
0000
0010
1000
,  // measure 12
0100
0000
1100
0000
0000
0000
0100
0000
0110
0000
0000
0000
0001
0000
0000
1000
,  // measure 13
0100
0000
0010
0001
1000
0000
0000
0000
1010
0000
1000
0000
1010
0000
0000
0000
,  // measure 14
0010
0100
0001
0100
0001
0010
0001
0000
,  // measure 15
0100
0001
0020
0000
0030
0001
1000
0000
,  // measure 16
0100
0000
0000
0000
1000
0000
0010
0000
0100
0000
0001
0000
0010
0100
1000
0100
,  // measure 17
0010
0100
1000
0100
0010
0000
0001
0000
0110
0000
0001
0000
1000
0000
0100
0000
,  // measure 18
1010
0001
1000
0010
0101
0001
1000
0100
,  // measure 19
1001
0010
0100
0001
1001
0100
0010
0001
,  // measure 20
1010
0000
0010
0000
0100
0000
0001
0000
1001
0000
0100
0000
1000
0000
0000
0100
,  // measure 21
0001
0100
0010
0100
1000
1000
0100
0000
,  // measure 22
1000
0100
1100
0100
0110
0100
1100
0100
,  // measure 23
0100
0010
1010
0000
1001
0000
0100
1000
,  // measure 24
0010
0000
0100
0000
0001
0000
0100
0000
1000
0000
0100
0001
0010
0000
1000
0100
,  // measure 25
0001
0100
1000
0001
1000
0000
0000
0000
0001
0000
0000
0000
1000
0000
0100
0000
,  // measure 26
0000
0010
0000
0001
1000
0010
0000
0100
,  // measure 27
0001
0000
1000
0000
0200
0000
0310
0001
2000
0000
3100
0000
0020
0000
0031
1000
,  // measure 28
0200
0000
0310
0001
2000
0000
3100
0010
0002
0000
1003
0100
0020
0000
0031
0010
,  // measure 29
0200
1300
0100
1000
0200
0300
0010
0001
1000
0000
0010
0100
0010
0000
1000
0001
,  // measure 30
0010
0000
0001
1000
0010
0000
0100
0001
1000
0000
0100
0010
0100
0000
1000
0001
,  // measure 31
0100
0000
0010
0000
1010
0000
0000
0101
0000
0000
1010
0000
1001
0000
0000
0110
,  // measure 32
0000
0000
1001
0000
0001
0000
0010
0000
1000
0000
0010
0000
0001
0100
1000
0100
,  // measure 33
0001
0000
0100
0010
0001
1000
0010
0000
0100
0000
0010
0100
0010
0001
0010
0000
,  // measure 34
0001
0010
0001
0000
0110
0000
0100
0000
1001
0000
0100
0000
1001
0000
0100
0000
,  // measure 35
0011
0000
0100
0000
0001
0010
0100
0000
0011
0000
0001
0000
1000
0000
0010
0100
,  // measure 36
0001
0001
0011
0000
0110
0000
1100
0000
,  // measure 37
0110
0000
0000
0000
2001
0000
0000
0000
0010
0000
0000
0000
3001
0000
1000
0100
,  // measure 38
0010
0000
0010
0001
1000
0000
0010
0000
0100
0000
0001
1000
0200
0000
0310
0000
,  // measure 39
0002
0000
1003
0010
0200
0000
0301
1000
0200
0000
0310
0001
1000
0000
0010
0000
,  // measure 40
0100
0000
0001
0000
0011
0000
0000
0110
0000
0000
1100
0000
0110
0000
0000
1001
,  // measure 41
0000
0000
1100
0000
0100
0000
0010
0000
0100
0000
1000
0000
0010
0100
0001
1000
,  // measure 42
0100
0010
0001
0000
1001
0000
0100
0010
0001
0000
0010
0100
1000
0000
0010
1000
,  // measure 43
0100
0000
0100
0010
0001
0000
0001
0010
0100
0000
1000
0010
0100
0000
0001
1000
,  // measure 44
0100
0000
0010
0001
1000
0000
0010
0100
0001
0000
1000
0000
0001
0010
0001
1000
,  // measure 45
0010
0000
0100
0001
0010
0000
0100
0000
1001
0000
0010
0100
0010
0000
0001
0010
,  // measure 46
0001
0010
0001
0010
0100
0000
0000
0000
1001
0000
0000
0000
1100
0000
0000
0000
,  // measure 47
0010
0000
0100
0001
0010
0000
0100
1000
0010
0000
0100
0001
0010
0000
0000
0000
,  // measure 48
0100
0000
1000
0000
1010
0000
0000
0101
0000
0000
1100
0000
0100
0000
0000
0010
,  // measure 49
0000
0000
0001
0000
1000
0001
1000
0001
1000
0010
0001
0010
1000
0010
0100
1000
,  // measure 50
0100
0010
1000
0100
0002
0000
0000
0000
0000
0000
0000
0000
0000
0000
0000
0000
,  // measure 51
0000
0003
0000
0000
;

//---------------dance-single - ----------------
#NOTES:
     dance-single:
     :
     Hard:
     13:
     0.549572,0.735033,0.277162,0.266075,0.155211,347.000000,322.000000,25.000000,24.000000,0.000000,0.000000,0.549572,0.735033,0.277162,0.266075,0.155211,347.000000,322.000000,25.000000,24.000000,0.000000,0.000000:
0000
0020
0230
0320
,
1030
0100
0010
0001
2000
0000
0010
3000
0100
0000
0020
0030
2002
0000
3003
0000
,
0000
0001
1000
0001
2000
0000
0100
0000
3010
0000
0001
0000
0020
0000
0100
0100
,
0130
0000
0000
0000
0010
0000
0000
0000
0010
0000
0000
0000
0001
1000
0100
0010
,
0001
1000
0001
0100
0001
0010
0001
0100
0001
1000
0001
0100
0001
1000
0001
0100
,
0001
0000
1001
0000
0110
0000
0010
0100
,
0001
0000
1000
0100
1000
0010
0100
0000
,
1001
0000
0110
0000
1001
0000
0100
1000
,
0010
0000
0000
0000
0100
0000
0100
0000
0010
0000
0010
0000
1000
0001
1000
0001
,
1000
0000
0200
0300
2000
3000
0020
0130
,
0002
1003
0000
0100
2000
0000
0001
0000
,
3001
0000
0020
0030
0200
0300
0002
1003
,
0100
1000
0000
0010
0200
0000
0001
0000
,
0301
0001
0001
0000
1000
0100
1000
0000
,
0010
0100
0001
1000
0100
0010
0001
0000
,
1000
0010
0100
0000
0001
0000
1000
0000
,
0100
0000
0000
0000
1000
0000
0000
0010
0000
0000
0100
0000
0001
1000
0001
1000
,
0001
0000
0001
0000
1000
0000
0100
1000
,
0010
0100
0000
0001
2000
0000
0010
0000
,
3010
0010
0100
0000
0001
0000
1000
0100
,
0010
0001
0000
1000
0002
0000
0100
0003
,
0000
1000
0010
0000
1000
0100
0010
0000
,
0001
0010
1000
0010
0001
0100
0010
0001
,
0010
0100
0001
0000
1000
0000
0100
1000
,
0010
0000
0100
0000
0010
0000
1000
0000
0100
0000
0010
0000
0001
0010
0100
1000
,
0001
1000
0010
0100
,
0000
0010
0000
1000
0001
1000
0000
0010
,
0100
0001
1000
0100
0010
0000
0001
0010
,
0100
0000
1000
0100
0010
0001
1000
0100
,
0010
0001
1000
0000
0010
0000
0100
0001
,
0000
1000
0000
0100
1000
0010
0000
0100
,
0010
0100
0001
0000
1000
0000
0010
0000
,
0100
0000
0000
0000
0001
0000
1000
0000
0010
0000
0100
0000
0001
0010
0100
0000
,
1000
0000
0001
0010
0100
0000
0000
0000
1001
0000
0000
0000
0101
0000
0000
0000
,
1100
0000
0001
1000
0010
0100
1001
0000
,
0100
0001
1000
0100
1010
0000
0001
1000
,
0010
0100
0101
0000
1001
0000
0110
0000
,
1001
0000
0220
0000
0000
0330
0000
0001
,
0010
0100
0010
0000
0110
0000
0101
0000
,
1000
0100
0010
0100
1000
0010
0001
0000
,
0010
0100
1001
0000
0100
0000
1000
0000
,
0010
0000
0100
0000
0001
0000
0000
0000
1000
0000
0100
0000
1000
0100
0010
0001
,
1000
0001
1000
0001
1000
0000
0100
0000
1000
0000
0010
0000
0101
0000
0000
0000
,
0010
0100
0001
0010
1001
0000
0100
0010
,
0100
0001
0010
0000
0001
0100
0010
1000
,
0100
0010
0002
0000
1003
0000
0100
1000
,
0100
1000
0110
0000
0101
0000
0101
0000
,
1000
0100
1000
0010
0100
0001
0010
0000
,
0001
0100
0010
0000
1000
0000
1001
0000
,
0010
0000
0100
0010
0100
1000
0100
0010
,
1000
0100
0020
0000
0000
0000
0000
0000
,
0030
0000
0000
0000
;

//---------------dance-single - ----------------
#NOTES:
     dance-single:
     :
     Medium:
     8:
     0.346848,0.451219,0.310421,0.166297,0.000000,219.000000,191.000000,28.000000,15.000000,0.000000,0.000000,0.346848,0.451219,0.310421,0.166297,0.000000,219.000000,191.000000,28.000000,15.000000,0.000000,0.000000:
0000
0000
0000
0000
,
0000
0000
0000
0000
,
0000
0000
1000
0010
0100
0000
0001
0100
,
0001
1000
0010
0200
,
0000
0000
0000
0000
,
0300
0010
0010
1000
,
0001
0100
0110
0001
,
1000
0100
1000
0000
0010
0000
1000
0000
,
1001
0000
1000
0000
0010
0000
0100
0010
,
1000
0000
0100
0000
0100
0000
1000
0010
,
1000
0010
0000
0000
0200
0000
0000
0300
,
0000
0001
1000
0100
,
0000
1000
0000
0100
2000
0000
0000
3000
,
0000
0010
0100
0001
,
1000
0100
1000
0100
1000
0100
1000
0000
,
0001
0100
0000
0010
,
1000
0001
0000
0200
,
0300
0000
0010
0000
1000
0000
0010
0100
,
0001
1000
0000
0000
0002
0000
0000
0003
,
0000
0000
1000
0000
0100
0000
0010
0001
,
1000
0010
0000
0100
0002
0000
0000
0003
,
0000
2000
3000
0010
,
0000
0100
0000
0010
,
0000
1000
0001
1000
,
0100
1000
0010
0100
,
0010
2000
0000
0000
,
3000
0002
0000
0003
,
0000
0000
1000
0000
0001
0000
0100
0010
,
1000
0000
0001
0100
0010
0000
1000
0001
,
1000
0010
0010
1000
,
0100
1000
0010
0100
,
0001
1000
1000
0010
,
0100
0001
1000
0100
,
1000
0000
0010
0100
0001
0000
1000
0100
,
1000
1001
0110
1001
,
1100
1010
0101
1000
,
0100
1001
0110
1001
,
0011
2002
0000
3003
,
1010
0110
0101
2002
,
3003
1100
1010
0110
,
0001
1000
0100
1000
,
0010
0000
0100
0001
0100
0000
0010
1000
,
0010
0100
1001
0100
,
1010
0000
0010
0000
0110
0000
0001
1000
,
0001
1000
0001
0000
1100
0000
0010
0100
,
0010
0100
0020
0000
0000
0030
0000
0000
,
1001
0110
1001
1100
,
0100
0000
1000
0010
0100
0000
0001
1000
,
0100
1000
0010
0000
1000
0000
0001
0000
,
0100
0000
0001
1000
0001
0100
0001
0010
,
0001
0100
0002
0000
0000
0000
0000
0003
;

//---------------dance-single - ----------------
#NOTES:
     dance-single:
     :
     Easy:
     3:
     0.215394,0.394817,0.144124,0.210643,0.000000,136.000000,123.000000,13.000000,19.000000,0.000000,0.000000,0.215394,0.394817,0.144124,0.210643,0.000000,136.000000,123.000000,13.000000,19.000000,0.000000,0.000000:
0000
0000
0000
0000
,
0000
0000
0000
0000
,
0000
1000
0000
0010
,
0010
0010
0000
0200
,
0000
0000
0000
0300
,
0000
0010
0000
0010
,
0000
1000
0000
1000
,
0000
0001
0000
0001
,
0000
1000
1000
2000
,
3000
0020
0000
0000
,
0000
0000
0000
0030
,
0000
0200
0000
0000
,
0000
0000
0000
0300
,
0000
0010
0000
0010
,
0000
0010
0010
0010
,
0000
1000
0000
0001
,
0000
1000
0000
0002
,
0003
1000
0010
2000
,
0000
0000
0000
0000
0000
0000
0000
3000
,
0000
0010
0100
0002
,
0000
0000
0000
0003
,
0000
1000
0000
0010
,
0000
0100
0000
0010
,
0000
1000
0001
1000
,
0010
0100
0001
1000
,
0001
0000
2000
0000
0000
0000
0000
3000
,
0000
0020
0000
0030
,
0000
1001
0000
1001
,
0000
1001
0000
1001
,
1001
1000
0010
0100
,
0001
1000
0100
1000
,
0010
0000
2000
0000
0000
3000
0010
0000
,
0000
0100
0010
0100
,
0001
2000
0000
3000
,
0000
1000
0010
0100
,
0001
1000
0100
1000
,
0010
1001
1001
1001
,
1001
0000
2002
0000
0000
0003
3000
0000
,
1000
0010
0100
0002
,
0003
1000
0010
0100
,
0001
1000
0100
1000
,
0010
0100
0001
2002
,
3003
1000
0001
0100
,
0010
1000
0001
0100
,
0001
0010
0001
0100
,
0001
0000
2000
0000
0000
3000
0000
0000
,
0001
1000
0010
0200
,
0000
0300
0001
0000
1000
0000
0010
0000
,
0100
1001
0100
1100
,
0001
0010
0100
1000
,
0001
0000
2000
0000
0000
0000
0000
3000
;
