#TITLE:Bon Voyage;
#SUBTITLE:One Piece Opening 4;
#ARTIST:Bon-Bon Blanco;
#TITLETRANSLIT:;
#SUBTITLETRANSLIT:;
#ARTISTTRANSLIT:;
#GENRE:;
#CREDIT:Magna Trick;
#BANNER:BonvoyageBN.png;
#BACKGROUND:BonvoyageB.png;
#LYRICSPATH:;
#CDTITLE:Magna Trick title!.png;
#MUSIC:Bon Voyage.mp3;
#OFFSET:-0.116364;
#SAMPLESTART:32.119999;
#SAMPLELENGTH:11.000000;
#SELECTABLE:YES;
#BPMS:0.000000=134.970001
;
#STOPS:
;
#BGCHANGES:0.250=Bon Voyage.avi=1.000=0=0=1=====,
248.000=BonvoyageB.png=1.000=0=0=1=====,
99999=-nosongbg-=1.000=0=0=0 // don't automatically add -songbackground-
;
#KEYSOUNDS:;
#ATTACKS:;

//---------------dance-single - ----------------
#NOTES:
     dance-single:
     :
     Hard:
     11:
     0.487060,0.616770,0.135653,0.198958,0.293916,377.000000,362.000000,15.000000,22.000000,0.000000,0.000000,0.487060,0.616770,0.135653,0.198958,0.293916,377.000000,362.000000,15.000000,22.000000,0.000000,0.000000:
// measure 0
0000
0000
0000
0000
,  // measure 1
0000
0000
0000
0000
,  // measure 2
0000
0000
1001
0000
1000
0000
0100
1000
,  // measure 3
0001
0000
0101
0000
0100
0000
0001
1000
,  // measure 4
0010
0000
1010
0000
1000
0000
0010
1000
,  // measure 5
0100
0000
1100
0000
0001
0000
0001
0010
,  // measure 6
0100
0000
0011
0000
1000
0000
0100
0010
,  // measure 7
0100
0000
0110
0000
0001
0000
1000
0001
,  // measure 8
0100
0000
1001
0000
1000
0000
0001
1000
,  // measure 9
0001
0000
0000
0000
1000
0100
0000
0010
0001
0010
0000
0001
0100
0001
0000
1000
,  // measure 10
0010
1000
0002
0000
0000
2003
0000
0000
,  // measure 11
3100
0000
0200
0000
0000
0320
0000
0000
,  // measure 12
0031
0000
0002
0000
0000
0203
0000
0000
,  // measure 13
0310
0020
0000
0000
,  // measure 14
0000
0030
2000
0000
0000
3200
0000
0300
,  // measure 15
0010
0000
0020
0000
0000
0032
0000
0003
,  // measure 16
0200
0000
0000
0000
0310
0000
0000
0010
0000
0000
1000
0000
0000
1000
0000
0000
,  // measure 17
0001
0000
0001
0000
0010
0000
0000
0100
0000
0000
1000
0000
0022
0000
0033
0000
,  // measure 18
0220
0000
0330
0000
1100
0000
0000
0001
1000
0000
0001
0000
1000
0001
1000
0000
,  // measure 19
0001
0000
0010
0000
0100
0000
0000
0100
0010
0000
0100
0000
0010
0100
0010
0000
,  // measure 20
0001
0000
0010
0000
0001
0000
0000
0001
0100
0000
0001
0000
0100
0001
0100
0000
,  // measure 21
0010
0000
1000
0000
0010
1000
0000
1000
0010
1000
0000
0100
1000
0100
0000
0010
,  // measure 22
0100
0000
0010
0001
1000
0000
0000
0000
0001
0000
0100
0000
0000
0000
0100
0000
,  // measure 23
0000
0010
0000
0010
0000
1000
0000
1000
,  // measure 24
0001
0000
0010
0000
0100
0000
0000
0100
0000
0000
1000
0000
0000
1000
0000
0000
,  // measure 25
0001
0000
0001
0000
0100
0000
0000
0100
0000
0000
0010
0000
0000
0010
0000
0000
,  // measure 26
1000
0001
1000
0000
0001
0000
0000
0000
0001
0000
0010
0000
0000
0000
0100
0000
,  // measure 27
0010
0100
1000
0000
0001
1000
0000
0001
,  // measure 28
0100
0010
1000
0010
0100
0001
0000
1000
,  // measure 29
0000
0100
0000
0010
0000
0001
0000
0010
,  // measure 30
1000
0010
0001
0000
0100
0001
0000
0100
,  // measure 31
0010
1000
0000
0010
0000
1000
0000
0100
,  // measure 32
1000
0001
0100
0001
1000
0100
0000
1000
,  // measure 33
0000
0001
0000
0010
0000
0010
0000
0001
,  // measure 34
1000
0000
0010
0000
1000
0000
0000
1000
0000
0000
1000
0000
0000
0000
0001
0000
,  // measure 35
0100
0000
0010
0000
1000
0000
0000
1000
0000
0000
1000
0000
0000
0000
0010
0000
,  // measure 36
0100
0000
0001
0000
1000
0000
0000
1000
0000
0000
1000
0000
0002
0000
0000
0000
,  // measure 37
0023
0000
0000
0000
0230
0000
0000
1000
0300
0000
1000
0000
0000
0000
1000
0000
,  // measure 38
0001
1000
0001
0000
0100
0001
0000
0100
,  // measure 39
0000
0010
0000
1000
0020
0000
0000
0000
,  // measure 40
0030
0010
1000
0100
0010
0100
0000
0010
,  // measure 41
0100
0010
0000
0001
0100
0000
1001
0000
,  // measure 42
1010
0000
0000
0000
0101
0000
0000
0001
1000
0000
0001
0000
1000
0100
1000
0000
,  // measure 43
0100
0000
0010
0000
0100
0000
0000
0010
0100
0000
0010
0000
0001
0100
0001
0000
,  // measure 44
0100
0000
0001
0000
0100
0000
0000
0010
1000
0000
0010
0000
1000
0100
1000
0000
,  // measure 45
0100
0000
0010
0000
0001
0000
0000
0001
0100
0000
0001
0000
0100
0010
1000
0000
,  // measure 46
0010
0000
1000
0000
0100
0000
0000
0100
1000
0000
0100
0000
0010
0001
0100
0000
,  // measure 47
0001
0000
0100
0000
0001
0000
0000
0001
0100
0000
0010
0000
1000
0100
0010
0000
,  // measure 48
0100
0000
0010
0000
0100
0000
0000
0100
1000
0000
0010
0000
0100
0010
0100
0000
,  // measure 49
0010
0000
1000
0000
0001
1000
0000
1000
0001
1000
0000
0001
0010
0001
0000
0010
,  // measure 50
0100
0000
1000
0000
0001
0000
0000
0001
0100
0000
0010
0000
0000
0000
1000
0000
,  // measure 51
0000
0000
0100
0000
1000
0000
0000
0001
0000
0000
0100
0000
0001
0000
0000
1000
,  // measure 52
0000
0001
2000
0000
3000
0001
0010
0000
,  // measure 53
0100
2000
0000
0000
0000
0000
0000
3000
,  // measure 54
0000
0001
0100
0000
0010
1000
0000
0100
,  // measure 55
0000
0100
0000
0010
0000
0010
0000
0001
,  // measure 56
0000
0100
0010
0000
1000
0000
0001
0001
,  // measure 57
1000
0000
0000
1000
0000
0000
0001
0000
0010
0000
0100
0000
1000
0000
0100
0000
0010
0000
0001
0000
1000
0000
0001
0000
,  // measure 58
0100
0001
1000
0000
1001
0000
0000
0000
0100
0000
0010
0000
0000
0000
0001
0000
,  // measure 59
0000
0010
0000
0100
0000
1000
0000
0001
,  // measure 60
1000
0000
0001
0000
0100
0000
0000
0100
0000
0000
0010
0000
0000
0010
0000
0000
,  // measure 61
1000
0000
1000
0000
0001
0000
0000
0001
0000
0000
0010
0000
0000
0010
0000
0000
,  // measure 62
0110
0000
0000
0000
;

//---------------dance-single - ----------------
#NOTES:
     dance-single:
     :
     Medium:
     6:
     0.364326,0.420525,0.081392,0.009044,0.054261,282.000000,273.000000,9.000000,1.000000,0.000000,0.000000,0.364326,0.420525,0.081392,0.009044,0.054261,282.000000,273.000000,9.000000,1.000000,0.000000,0.000000:
0000
0000
0000
0000
,
0000
0000
0000
0000
,
0000
0000
1001
0000
0001
0000
1000
0001
,
1000
0000
0001
0000
1000
0000
0001
1000
,
0001
0000
1000
0000
0001
0000
1000
0100
,
1000
0000
0001
0000
1000
0000
0001
0100
,
0001
0000
1000
0000
0001
0000
1000
0010
,
1000
0000
0001
0000
1000
0000
0001
0010
,
0001
0000
1000
0000
0001
0000
1000
0001
,
1000
0001
0001
1000
,
1000
0000
0010
0000
0000
0100
0000
0000
,
0001
0000
0001
0000
0000
0010
0000
0000
,
0100
0000
0100
0000
0000
1000
0000
0000
,
0010
0010
0000
0000
,
0000
0000
1000
0000
0000
0100
0000
0000
,
0010
0000
0010
0000
0000
0001
0000
0000
,
0100
0100
0000
0000
,
0000
0010
0000
1001
,
0110
1001
0001
1000
,
1000
0010
0100
0010
,
1000
0100
0100
1000
,
1000
0001
1000
1000
,
1000
0000
0010
0000
0100
0001
0000
0100
,
0000
0100
0000
0010
0000
0010
0000
1000
,
0100
0000
1000
0000
0001
0000
0000
0001
0000
0000
0001
0000
0000
0001
0000
0000
,
1000
0000
1000
0000
1000
0000
0000
1000
0000
0000
1000
0000
0000
1000
0000
0000
,
0010
0010
1000
0000
0001
0100
0000
0010
,
1000
0100
0000
0010
0000
0010
0000
0001
,
0100
0010
1000
0010
0100
0001
0000
1000
,
0000
1000
0000
0001
0000
0001
0000
0010
,
0100
0010
0100
0000
1000
0000
0000
0001
,
0100
0001
0000
1000
0000
0000
0000
0000
,
0010
0100
0010
1000
0100
0010
0000
0010
,
0000
0001
0000
0001
0000
0100
0000
0100
,
0010
0000
1000
0000
0010
0000
0000
0010
0000
0000
0010
0000
0000
0000
0010
0000
,
1000
0000
0100
0000
0010
0000
0000
0010
0000
0000
0010
0000
0000
0000
0001
0000
,
0100
0000
0010
0000
1000
0000
0000
1000
0000
0000
1000
0000
0000
0000
0000
0000
,
0010
0000
0000
0000
1000
0000
0000
0100
0000
0000
0010
0000
0000
0000
0001
0000
,
0100
0001
0000
0000
1000
0100
0000
1000
,
0000
0001
0000
0100
0001
0000
0000
0000
,
0000
0010
0001
0010
0100
0010
0000
0001
,
0100
0001
0000
1000
0010
0000
1001
0000
,
0110
0000
1001
0000
0001
0000
1000
0001
,
1000
0000
0001
0000
1000
0000
0001
1000
,
0001
0000
1000
0000
0001
0000
0010
0001
,
0010
0000
0001
0000
1000
0000
0010
1000
,
0010
0000
1000
0000
0001
0000
0100
0001
,
0100
0000
0001
0000
1000
0000
0100
1000
,
0100
0000
1000
0000
0001
0000
1000
0001
,
1000
0001
1000
1000
,
0001
0000
1001
0000
0001
0000
0100
0001
,
1000
0000
0100
0000
1000
0000
0100
1000
,
0001
0000
1000
0000
0001
0000
0010
0001
,
1000
0000
0001
0000
1000
0000
0010
1000
,
0001
1000
1000
0001
,
0001
0010
0010
0100
,
0100
0000
1000
0000
0001
0000
1000
0001
,
1000
0002
0000
0000
0000
0000
0000
0003
,
0000
0010
0100
0000
0010
0100
0000
0010
,
0000
0001
0000
0001
0000
0100
0000
0100
,
0010
0000
1000
0000
0010
0000
0000
1000
0000
0000
0100
0000
0000
0010
0000
0000
,
0001
0000
0100
0000
0010
0000
0000
0010
0000
0000
0010
0000
0000
0010
0000
0000
,
1001
0000
0000
0000
;

//---------------dance-single - ----------------
#NOTES:
     dance-single:
     :
     Easy:
     2:
     0.155032,0.280350,0.018087,0.063305,0.000000,120.000000,118.000000,2.000000,7.000000,0.000000,0.000000,0.155032,0.280350,0.018087,0.063305,0.000000,120.000000,118.000000,2.000000,7.000000,0.000000,0.000000:
0000
0000
0000
0000
,
0000
0000
0000
0000
,
0000
0000
0000
0001
1000
0000
0000
0000
,
0000
1000
0000
0010
,
0000
0100
0000
0000
,
0000
0001
0000
0000
,
0000
0010
0000
0000
,
0000
0100
0000
0000
,
0000
1000
0000
0000
,
0000
0001
0001
0001
,
0001
1000
0000
0000
,
0000
0000
0000
0000
,
0000
0000
0000
0000
,
0000
0000
0000
0000
,
0000
0000
0000
0000
,
0000
0000
0000
0000
,
0000
0001
0001
1000
,
1000
0010
0010
0100
,
0100
0110
0000
0000
,
1000
0010
0000
0100
,
0000
0001
0000
0010
,
0010
0100
0000
0000
,
0000
1000
0000
0001
,
0000
0100
0000
0010
,
0000
1000
0000
0000
,
0000
0001
0000
0000
,
0000
1000
0000
0001
,
0000
0010
0000
0100
,
0000
0010
0010
0001
,
0000
0100
0100
0010
,
0000
1000
1000
0001
,
0000
0010
0010
0100
,
0000
1000
1000
0001
,
0001
0100
0100
0010
,
0010
1000
0000
0000
,
0000
0010
0000
0000
,
0000
0100
0001
1000
,
0100
0000
0020
0000
0000
0030
0000
0000
,
0000
0001
0001
1000
,
1000
0001
0200
0000
,
0300
0010
0010
1000
,
1000
0001
1000
0001
,
0001
0000
0020
0000
0000
0000
0000
0030
,
0100
1000
0100
1000
,
0010
0000
0200
0000
0000
0300
0002
0000
,
0000
0000
0000
0003
,
0000
1000
0000
0001
,
0000
0010
0000
0100
,
0000
1000
0000
0000
,
0001
0001
0000
0100
,
0100
0000
0020
0000
0000
0000
0000
0030
,
0000
1000
0000
0001
,
0000
0000
0020
0000
0000
0030
0100
0000
,
1000
0001
0000
0000
,
0000
0100
0000
0010
,
0000
1000
0000
0010
,
0000
1000
0000
0001
,
0001
0010
0000
0000
,
0000
0100
0000
0000
,
0000
1000
0000
0000
,
0000
0001
0000
0000
,
0000
1000
0000
0000
,
1001
0000
0000
0000
;

//---------------dance-single - ----------------
#NOTES:
     dance-single:
     :
     Challenge:
     14:
     0.683434,0.869086,0.434091,0.370786,0.624005,529.000000,481.000000,48.000000,41.000000,0.000000,0.000000,0.683434,0.869086,0.434091,0.370786,0.624005,529.000000,481.000000,48.000000,41.000000,0.000000,0.000000:
0000
0000
0000
0000
,
0000
0000
0000
0000
,
0000
0000
0000
0000
0000
0000
0000
1000
0001
0000
0000
0000
0000
0000
0000
0000
0001
0000
0000
0000
0000
0000
0000
0000
0010
0000
0001
0000
1000
0000
0000
0000
,
1000
0000
0000
0000
0000
0000
0000
0010
1000
0000
0000
0000
0000
0000
0000
0000
0010
0000
0000
0000
0000
0000
0000
0000
1000
0000
0001
0000
0100
0000
0000
0000
,
0100
0000
0000
0000
0000
0000
0000
0000
0000
0000
0000
0000
0000
0000
0000
0000
0000
0000
0000
0000
0000
0000
0000
0000
0000
0000
0000
0000
0000
0000
0000
0000
0000
0000
0000
0000
0000
0000
0000
0000
0000
0000
0100
0000
0000
0000
0000
0000
0001
0000
0000
0000
0000
0000
0000
0000
0000
0000
0000
0000
0000
0000
0000
0000
0000
0000
0000
0000
0000
0000
0000
0000
0000
0000
0000
0000
0000
0000
0000
0000
0000
0000
0000
0000
0000
0000
0000
0000
0000
0000
0000
0000
0000
0000
0000
0000
0001
0000
0000
0000
0000
0000
0000
0000
0100
0000
0000
0000
0000
0000
0000
0000
0001
0000
0000
0000
0000
0000
0000
0000
0100
0000
0000
0000
0000
0000
0000
0000
0001
0000
0000
0000
0000
0000
0000
0000
0100
0000
0000
0000
0000
0000
0000
0000
0001
0000
0000
0000
0000
0000
0000
0000
0100
0000
0000
0000
0000
0000
0000
0000
0001
0000
0000
0000
0000
0000
0000
0000
0100
0000
0000
0000
0000
0000
0000
0000
0001
0000
0000
0000
0000
0000
0000
0000
0100
0000
0000
0000
0000
0000
0000
0000
,
0001
0000
0100
0000
0001
0000
0100
0000
0001
0000
0100
0000
0001
0000
0000
0000
0000
0000
0001
0000
0000
1000
0000
0000
0001
0000
0000
1000
0000
0000
0001
0000
0000
0000
0000
0000
1000
0000
0000
0100
0000
0000
0010
0000
0000
0000
0000
0000
,
0010
0000
0000
0000
0000
0000
0000
0100
1000
0000
0000
0000
0000
0000
0000
0000
0001
0000
0000
0000
0000
0000
0000
0000
0010
0000
0100
0000
0010
0000
0000
0000
,
0010
0000
0000
0000
0000
0000
0000
0100
0010
0000
0000
0000
0000
0000
0000
0000
1000
0000
0000
0000
0000
0000
0000
0000
0001
0000
1000
0000
0010
0000
0000
0000
,
0010
0000
0000
0000
0000
0000
0000
0001
1000
0000
0000
0000
0000
0000
0000
0000
0001
0000
0000
0000
0000
0000
0000
0000
1000
0000
0001
0000
1000
0000
0000
0000
,
1000
0000
0000
0000
0001
0010
0000
0100
1000
0001
0000
0001
1000
0010
0000
1000
,
0100
0100
2000
0000
0000
3002
0000
0000
,
0013
0000
0020
0000
0000
0230
0000
0000
,
1300
0000
2000
0000
0000
3020
0000
0000
,
0130
0000
0000
0000
0100
0001
0000
0001
0100
0010
0000
0010
1000
0001
0000
1000
,
0001
0000
0002
0000
0000
0023
0000
0030
,
0100
0000
0200
0000
0000
2300
0000
3000
,
0010
0000
0000
0000
0101
0000
0000
0101
0000
0000
0011
0000
0000
0011
0000
0000
,
1100
0000
1100
0000
1010
0000
0000
1010
0000
0000
1001
0000
0110
0000
0000
0000
,
0011
0000
0000
0000
1100
0000
0000
1000
0001
0000
0010
0000
0001
1000
0010
0000
,
1000
0000
0100
0000
0010
0000
0000
0010
0100
0000
0001
0000
0100
0010
0001
0000
,
1000
0000
0100
0000
1000
0000
0000
1000
0010
0000
0100
0000
0010
1000
0100
0000
,
0010
0000
0001
0000
0100
0001
0000
0001
0100
0010
0000
0010
1000
0100
0000
0010
,
0100
0000
0100
1000
0001
0000
0001
0000
1000
0000
0020
0000
1030
0000
0020
0000
,
1030
0200
1300
0200
1300
0002
1003
0002
,
1003
0000
0100
0000
0011
0000
0000
0011
0000
0000
0101
0000
0000
0101
0000
0000
,
1010
0000
1010
0000
1100
0000
0000
1100
0000
0000
0110
0000
0000
0110
0000
0000
,
0001
1000
1001
0000
1000
0000
0000
0000
1000
0000
0100
0000
0000
0000
0010
0000
,
0100
0010
0001
0000
1000
0001
0000
1000
,
0010
0100
0001
0100
0010
2000
0001
3002
,
0010
0023
0100
0230
1000
2300
0100
3100
,
0001
0100
2000
0000
3010
1000
0000
0010
,
0100
0002
0000
0203
0000
0301
0000
0010
,
0001
1000
0010
1000
0001
0020
0001
0032
,
1000
2003
0100
3200
0010
0320
0001
0031
,
1000
0000
0100
0010
1100
0000
0000
0101
0000
0000
1100
0000
0000
0000
1000
0000
,
0100
0000
0010
0100
0011
0000
0000
1010
0000
0000
0011
0000
0000
0000
1000
0000
,
0001
0000
0010
0100
1001
0000
0000
0110
0000
0000
1001
0000
2000
0000
0000
0000
,
3200
0000
0000
0000
0320
0000
0000
0001
0030
0000
0001
0000
0000
0000
0001
0000
,
1000
0001
1000
0001
0100
0000
0000
0000
0010
0000
2000
0000
0010
0000
3020
0000
,
0100
0000
0000
0230
0000
0000
0001
0000
0000
0301
0000
0000
1000
0000
0100
0000
1000
0000
0001
0000
0100
0000
0001
0000
,
1000
0000
0010
0000
1000
0000
0001
0000
0010
0000
0001
0000
1000
0000
0010
0000
0100
0000
0001
0000
0000
0100
0000
0000
,
0010
0100
0100
0110
1001
0000
1001
0000
,
0100
0000
1000
0000
0100
0000
1000
0000
0100
0000
1000
0000
0100
0000
0000
0000
0000
0000
0000
0000
0000
1000
0000
0000
0001
0000
0000
0000
0000
0000
1000
0000
0000
0000
0000
0000
0001
0000
0000
0010
0000
0000
0001
0000
0000
0100
0000
0000
,
0010
0000
0100
0000
0010
0000
0000
0100
0010
0000
0100
0000
0010
1000
0010
0100
,
0001
0000
1000
0000
0010
0000
0000
0100
0001
0000
0100
0000
0001
0010
0001
0100
,
0010
0000
0100
0000
0001
0000
0000
1000
0010
0000
1000
0000
0010
0100
0001
1000
,
0100
0000
0010
0000
0001
0000
0000
0010
0001
0000
0010
0000
0100
1000
0010
0100
,
0001
0000
0010
0000
0100
0000
0000
1000
0010
0000
0100
0000
0001
0010
0100
1000
,
0010
0000
0100
0000
0010
0000
0000
0010
1000
0000
0100
0000
0010
0100
0010
0001
,
0100
0000
0001
0000
1000
0001
0000
0001
1000
0010
0000
0010
0100
0001
0000
0100
,
0001
0000
0001
0000
1000
0000
0000
1000
0010
0000
0100
0001
0100
0010
1000
0100
,
0010
0000
0010
0000
0001
0000
0000
1000
0100
0000
0010
0001
1000
0010
0100
0001
,
1000
0000
1000
0000
0002
0000
0000
1003
0100
0000
0010
0001
0100
0010
1000
0001
,
0010
0000
0020
0000
0000
0000
0000
0000
0000
0000
0130
1000
0100
0000
1000
0000
,
0001
0000
1000
0000
1000
0000
0001
0000
0100
0000
0001
1000
0010
1000
0010
0000
,
1000
2000
0100
3200
0010
0320
0001
0032
,
0010
0013
1001
0000
0001
0000
1000
1000
,
0001
0000
0000
0001
0000
0000
1000
0000
0100
0000
0010
0000
0001
0000
0010
0000
0100
0000
1000
0000
0001
0000
1000
0000
,
0010
1000
0001
0000
1001
0000
0000
0000
0010
0000
0100
0000
0000
0000
1000
0000
,
0000
0000
0000
0100
0010
0100
0000
0000
0000
0010
0000
0000
0000
0000
0000
0001
0000
0000
0000
0000
0000
0001
0000
0000
,
1000
0000
0100
0010
0011
0000
0000
0011
0000
0000
0101
0000
0000
0101
0000
0000
,
1010
0000
1010
0000
1100
0000
0000
1100
0000
0000
1001
0000
0000
0110
0000
0000
,
1001
0000
0000
0000
;
