#TITLE:Blue Bird;
#SUBTITLE:Naruto Shippuden Opening 3;
#ARTIST:Ikimono-gakari;
#TITLETRANSLIT:;
#SUBTITLETRANSLIT:;
#ARTISTTRANSLIT:;
#CREDIT:Magna Trick;
#BANNER:BluebirdBN.png;
#BACKGROUND:BluebirdB.png;
#LYRICSPATH:Blue Bird.lrc;
#CDTITLE:Magna Trick title!.png;
#MUSIC:Blue Bird.mp3;
#OFFSET:0.393;
#SAMPLESTART:45.300;
#SAMPLELENGTH:12.700;
#SELECTABLE:YES;
#BPMS:0.000=152.000,148.000=151.000,157.000=152.000;
#STOPS:;
#BGCHANGES:0.063=Blue Bird.avi=1.000=0=0=1,
228.000=BluebirdB.png=1.000=0=0=1,
99999=-nosongbg-=1.000=0=0=0 // don't automatically add -songbackground-
;

//---------------dance-single - ----------------
#NOTES:
     dance-single:
     :
     Hard:
     13:
     0.629,0.719,0.340,0.125,0.285: // measure 1
0000
0000
0000
0000
0000
0010
1000
0001
,  // measure 2
0200
0310
2000
3001
,  // measure 3
0100
0010
1000
0100
0000
0100
0010
0001
,  // measure 4
2000
3001
0020
0130
,  // measure 5
1000
0100
0010
0001
0000
1000
0001
0100
,  // measure 6
0020
0000
1030
0000
0001
1000
0100
1000
,  // measure 7
0010
0100
0001
1001
0000
0100
0001
0020
,  // measure 8
0000
0130
1000
0020
0000
1030
0000
0001
,  // measure 9
0000
0000
0100
0000
0010
0000
1000
0001
0100
0000
0010
0000
0100
0000
0110
0000
,  // measure 10
0000
0010
1000
0010
0000
1000
0010
1010
,  // measure 11
0000
0100
0001
0100
0000
0001
0100
0101
,  // measure 12
0000
0001
1000
0100
0010
0001
1000
1001
,  // measure 13
0000
0000
0001
0100
0001
0000
0100
0001
0100
0000
0001
0000
1000
0000
0001
0000
,  // measure 14
1001
0000
0100
0010
0000
1000
0001
1000
,  // measure 15
0001
0001
0010
0001
0000
0100
0010
0001
,  // measure 16
0010
0010
0100
0010
0000
0001
0010
1000
,  // measure 17
0010
0010
0100
0001
0000
0001
1000
0001
,  // measure 18
1001
0000
0010
0100
0000
1000
0100
0001
,  // measure 19
0000
0001
0100
1000
0000
1000
0001
1000
,  // measure 20
1001
0000
1000
0000
0010
0100
0001
1000
,  // measure 21
0000
0000
0010
0100
0010
0100
0010
0100
0010
0100
0010
0000
0100
0000
0010
0000
,  // measure 22
1001
0000
0010
0001
1000
0100
0000
0010
,  // measure 23
0001
0000
0000
1000
0000
0000
0010
0000
0000
0000
0100
0000
0001
0000
1000
0000
,  // measure 24
0100
0000
0010
0001
1000
0100
0000
0010
,  // measure 25
0001
0000
0000
0100
0000
0000
0001
0000
0100
0000
0001
0100
0001
0100
0001
1000
,  // measure 26
0020
0000
1030
0100
0000
0010
0001
0020
,  // measure 27
0000
0000
0000
0030
0100
0000
1000
0000
0001
0000
0000
0000
0001
0000
1000
0000
,  // measure 28
0000
0101
0101
0001
1001
1000
0010
0110
,  // measure 29
0000
0000
0110
0000
1001
0000
1001
0000
1001
0000
1000
0000
0001
0010
0100
0010
,  // measure 30
0100
0000
0001
0000
0100
0000
0000
1000
0100
0000
0001
0000
0100
0000
0000
1000
,  // measure 31
0001
0010
0100
1000
0000
0010
1000
0100
,  // measure 32
0110
0000
0001
0000
0010
0000
0100
0010
,  // measure 33
0000
1001
0000
0010
0000
0001
0100
0010
,  // measure 34
1001
0000
0001
0000
1000
0010
1000
0001
,  // measure 35
0100
1000
0100
0010
0000
1000
0100
0001
,  // measure 36
0000
1000
0010
0001
0000
0110
0000
0020
,  // measure 37
0000
0130
0002
0000
0000
0013
0100
1000
,  // measure 38
1001
0000
0001
0000
0010
0100
1000
0010
,  // measure 39
0100
0001
1000
0100
0000
1000
0100
0010
,  // measure 40
0011
0000
1000
0000
0001
0000
0100
0010
,  // measure 41
0000
1001
0000
0010
0000
0100
0001
1000
,  // measure 42
1001
0000
0001
0000
0100
0010
1000
0001
,  // measure 43
0010
0100
0001
1000
0000
0001
0100
1000
,  // measure 44
0000
0001
0010
1000
0000
0010
0000
0100
,  // measure 45
0000
0000
0010
0000
0100
0000
0000
0000
0100
0010
0100
0000
1000
0000
0001
0000
,  // measure 46
0000
0100
0001
1000
0000
0010
0000
0100
,  // measure 47
0000
0000
0001
0000
1000
0000
0010
0000
1000
0010
1000
0010
1000
0000
1001
0000
,  // measure 48
0000
0001
0100
0101
0000
1000
0010
1010
,  // measure 49
0000
0000
0100
0000
0010
1000
0001
0000
0100
0000
0010
0000
1000
0000
1001
0000
,  // measure 50
0000
1000
0100
0001
0000
0100
0000
1001
,  // measure 51
0000
0010
0001
1000
0000
0010
0000
1001
,  // measure 52
0000
0100
0010
1000
0000
0010
0100
0001
,  // measure 53
0000
0000
1000
0001
1000
0000
0001
1000
0001
0000
0010
0000
0001
0000
1001
0000
,  // measure 54
1000
0000
0100
1000
0100
0000
0010
0001
0010
0000
1001
0000
1001
0000
0220
0000
,  // measure 55
0000
0000
0000
0000
,  // measure 56
0000
0000
0000
0000
,  // measure 57
0000
0000
0000
0000
,  // measure 58
0000
0330
0000
0000
0000
0000
0000
0000
;

//---------------dance-single - ----------------
#NOTES:
     dance-single:
     :
     Challenge:
     15:
     0.699,0.841,0.943,0.133,0.404:
0000
0000
0000
0000
0000
0010
0001
0100
,
0102
0013
1020
1030
,
2100
0100
3010
0100
0000
1000
0001
0100
,
0201
0301
0012
0013
,
0120
0100
2030
0000
3000
0010
1000
0100
,
2100
0000
3010
0000
0102
0010
0103
1000
,
0021
0100
1030
1100
0000
1000
0100
1001
,
0000
0001
0010
1001
0000
1000
0000
0010
,
0000
0000
0000
0010
0000
0000
0110
0000
0000
0001
0010
0100
1000
0000
0000
0010
0000
0000
0100
0000
0000
1001
0000
0000
,
0000
0010
0010
1010
0000
1000
0000
1001
,
0000
0001
0001
0011
0000
1000
0000
1001
,
0000
0010
0010
0110
0000
0100
0100
0110
,
0000
0000
0010
1000
0100
0000
0010
0001
0100
0000
0010
0000
1000
0000
0100
0000
,
1001
0000
0001
0101
0000
0100
0010
1000
,
1010
0010
1000
0100
0000
0010
0001
0100
,
0101
0001
0100
0010
0000
0010
1000
0100
,
1100
0000
1000
0000
0100
0000
0010
0000
0000
0000
0001
0010
0001
0000
0100
0000
,
1001
1000
0001
1000
0000
0010
0100
0001
,
0101
0100
0001
0100
0000
0010
1000
0100
,
0110
0010
0100
0000
1000
0001
0100
0110
,
0000
0000
1000
0100
0010
0001
1000
0100
0010
0000
0001
0000
0001
0000
0001
0000
,
0110
0000
0100
0100
0010
0010
0100
0000
,
0110
0000
0010
0010
1000
1000
0010
0000
,
1010
0000
1000
1000
0001
0001
1000
0000
,
1001
0000
0000
0000
0001
0000
0001
0000
0010
0000
0010
0001
0000
0001
1000
0001
,
1010
1000
1100
1000
1010
1001
1100
0100
,
0110
0011
0110
0100
1100
1010
1001
0110
,
0100
1100
1100
0100
0101
0101
0001
1001
,
1000
0000
1001
0000
1001
0000
1001
0000
1001
0000
0010
1000
0001
0100
0010
1000
,
0100
0000
0010
0000
0001
0000
0000
0001
0010
0000
0010
0000
0100
0000
0000
0100
,
1000
1000
0010
0200
0300
0001
1000
0100
,
0010
0000
0001
0000
0010
0000
0000
0001
0010
0000
0100
0000
0100
0000
0000
1000
,
0001
0100
0100
0010
0000
1000
0100
0010
,
0011
0100
1000
0000
0011
0100
1000
0000
,
0001
1000
0010
0200
0300
0010
0010
1010
,
0000
1000
1000
1010
0000
0010
0000
1000
,
0000
0000
0100
0000
0110
0000
0000
0000
0010
0000
0100
0000
1000
0001
0010
0000
,
1001
0000
0010
0000
0100
0000
0000
0100
0010
0000
1000
0000
1000
0000
0000
0010
,
0001
0010
0010
0001
0000
0001
1000
0010
,
1000
0000
0100
0000
0110
0000
0000
0100
1000
0000
1000
0000
0001
0000
0000
0001
,
0100
0000
0100
0000
0010
0000
1000
0000
0100
0000
0010
0000
0100
0010
0100
0000
,
0110
0001
1000
0000
0110
0001
1000
0000
,
0010
0010
1000
0200
0300
0100
0100
1100
,
0000
1000
1000
1100
0000
0100
0000
1000
,
0000
0010
0110
0000
0000
0001
0001
1001
,
0000
1000
1000
1001
0000
0001
0000
1000
,
0000
0000
0010
0000
0110
0000
0000
0000
0001
1000
0100
0010
0001
0000
1100
0000
,
0010
0101
1000
0110
0001
1010
0100
0011
,
1000
0011
0011
1100
1100
1001
0110
1001
,
0010
0101
0110
0101
0010
2000
3100
0020
,
0031
0011
0110
0011
0100
2000
3010
0200
,
0301
0110
0101
0110
1000
0110
1010
0110
,
0001
0000
1000
0010
0100
0000
0100
0010
1000
0000
1010
0000
1100
0000
0110
0000
,
0001
0000
0000
0000
0000
0000
0010
0000
0000
0001
0000
0000
0100
0000
0000
0000
0000
0000
0100
0000
0000
0001
0000
0000
0010
0000
0100
0000
1000
0000
0001
0000
0010
0000
0100
0000
1000
0000
0000
0000
0000
0000
2002
0000
0000
0000
0000
0000
,
0000
0000
0000
0000
,
0000
0000
0000
0000
,
0000
0000
0000
0000
,
0003
0000
0000
3100
0010
0100
0010
0000
0000
0000
0000
0000
0000
0000
0000
0000
0000
0000
0000
0000
0000
0000
0000
0000
;

//---------------dance-single - ----------------
#NOTES:
     dance-single:
     :
     Medium:
     8:
     0.409,0.452,0.049,0.000,0.066:
0000
0000
0000
0000
,
0000
0000
0000
0000
,
0000
0000
0000
0000
,
0000
0000
0000
0000
,
0000
0000
0000
0000
,
0000
0000
0000
0000
,
0000
0000
0000
0000
0000
0010
1000
0100
,
0000
0010
0001
0100
0000
0001
0000
1000
,
0000
0001
1000
0000
0000
0000
0000
0010
,
0000
1000
0000
0100
0000
0000
0000
0010
,
0000
0001
0100
0001
0000
0000
0000
1000
,
0000
0100
1000
0100
0000
0001
0100
0001
,
0000
0000
0000
1000
0000
0000
0000
0000
,
0010
1000
0100
0010
,
0100
1000
0010
0100
,
1001
0010
0100
0001
,
1001
0000
0010
0000
1000
0100
0010
0100
,
1000
0001
0100
0010
,
1000
0010
1000
0000
0100
0000
0010
0000
,
0001
0010
0001
0000
1000
0000
0001
0000
,
0100
0010
0100
0000
0000
0010
0100
0001
,
1000
0000
0100
0000
1000
0100
1000
0000
,
0001
0000
0100
0000
0010
0100
0010
0000
,
0100
0000
0001
0000
1000
0001
1000
0000
,
0001
0000
0010
0000
0100
0010
0100
0000
,
1000
0001
1000
0001
,
0100
0010
0100
0010
,
1000
0100
1000
0100
0010
0100
0010
0100
,
0010
0001
0010
0001
0010
0000
0001
0000
,
1000
0010
0100
0001
,
1000
0000
0001
0000
0010
0000
0100
1000
,
0100
1000
0010
0100
,
0001
0100
0001
0000
1000
0000
0001
0000
,
0010
0100
0010
0000
0100
0000
1000
0000
,
0001
0100
0001
0000
0100
0000
0010
0100
,
0010
0000
1000
0100
1000
0000
0001
0010
,
0001
0000
1000
0000
0001
0000
0100
0010
,
0100
0001
1000
0001
,
0010
0000
0100
0000
1000
0000
0010
1000
,
0010
1000
0001
0010
,
0100
0010
0100
0000
1000
0000
0001
0000
,
0101
0010
1010
1000
,
1100
0000
0001
0000
0010
0000
0100
0010
,
0001
0000
0100
0010
0001
0000
0100
0010
,
0001
1000
0010
0000
1000
0000
0001
0000
,
0100
0010
1000
0100
,
0010
1000
0010
0000
0100
0000
1000
0000
,
0001
1000
0000
0001
0000
0100
0000
0010
,
0000
0100
0001
1000
0100
0010
0001
0010
,
0000
0100
0000
1000
0000
0000
0000
0001
,
0000
0100
0010
1000
0000
0000
0000
0100
,
0000
0010
1000
0010
0000
0100
1000
0100
,
0000
1000
0000
0001
0000
0100
0010
0100
,
0000
0001
0000
1000
0000
0100
0010
0100
;

//---------------dance-single - ----------------
#NOTES:
     dance-single:
     :
     Easy:
     1:
     0.182,0.227,0.010,0.000,0.000:
0000
0000
0000
0000
,
0000
0000
0000
0000
,
0000
0000
0000
0000
,
0000
0000
0000
0000
,
0000
0000
0000
0000
,
0000
0000
0000
0000
,
0000
0000
0000
0000
,
0000
0000
0000
0000
,
0000
0000
0000
0000
,
0000
0000
0000
0000
,
0000
0000
0000
0000
,
0000
0000
0000
0000
,
0000
0000
0000
0000
,
0001
0000
1000
0000
,
0010
0000
1000
0000
,
0010
0010
1000
0000
,
0001
0001
0010
0000
,
0001
0000
1000
0000
,
0010
0010
0100
0000
,
0010
0000
1000
0000
,
0001
0001
0000
0000
,
1000
0001
0000
1000
,
0000
0010
0000
0100
,
0000
0010
1000
0000
,
0001
0000
0100
0000
,
0001
0100
0001
0100
,
0010
1000
0010
1000
,
0000
0001
0001
1000
,
1000
0010
0100
0000
,
0010
0000
1000
0000
,
0100
0000
0000
0000
,
0010
0000
0001
0000
,
0100
0000
0000
0000
,
1000
0000
0001
0000
,
1000
0000
0000
0000
,
0010
0000
0010
0000
,
0010
0000
0000
0000
,
0100
0000
1000
0000
,
0001
0000
0000
0000
,
0100
0000
0001
0000
,
1000
0000
0000
0000
,
0010
0000
1000
0000
,
0001
0000
0000
0001
,
0001
0000
1000
0000
,
0001
0001
0000
1000
,
1000
0000
0001
0000
,
1000
1000
0000
0010
,
0100
0010
0100
0010
,
0100
0010
1000
1000
,
0001
0001
1000
0000
,
0001
0001
1000
0000
,
1000
1000
0001
0001
,
1000
0010
0010
0100
,
0100
0010
1000
0001
,
1001
0000
0000
0000
;
