#TITLE:Bloody Stream;
#SUBTITLE:Jojo's Bizarre Adventure Battle Tendency Opening;
#ARTIST:Coda;
#TITLETRANSLIT:;
#SUBTITLETRANSLIT:;
#ARTISTTRANSLIT:;
#GENRE:;
#CREDIT:Magna Trick;
#BANNER:BloodystreamBN.jpg;
#BACKGROUND:BloodystreamB.jpg;
#LYRICSPATH:;
#CDTITLE:Magna Trick title!.png;
#MUSIC:Bloody Stream.mp3;
#OFFSET:-1.528147;
#SAMPLESTART:54.250000;
#SAMPLELENGTH:17.000000;
#SELECTABLE:YES;
#BPMS:0.000000=132.009995
,146.500000=264.019989
,149.500000=132.009995
;
#STOPS:
;
#BGCHANGES:0.146=Bloody Stream.avi=1.000=0=0=1=====,
197.000=BloodystreamB.png=1.000=0=0=1=====,
99999=-nosongbg-=1.000=0=0=0 // don't automatically add -songbackground-
;
#KEYSOUNDS:;
#ATTACKS:;

//---------------dance-single - ----------------
#NOTES:
     dance-single:
     :
     Hard:
     12:
     0.503498,0.615769,0.216892,0.347026,0.531384,325.000000,305.000000,20.000000,32.000000,0.000000,0.000000,0.503498,0.615769,0.216892,0.347026,0.531384,325.000000,305.000000,20.000000,32.000000,0.000000,0.000000:
// measure 0
1000
0001
1000
0001
1000
0000
0001
1000
0000
0001
0000
1000
0100
0000
0010
0000
,  // measure 1
0100
0010
0100
0010
0100
0000
0010
0100
0000
0010
0000
0001
0100
0000
0001
0000
,  // measure 2
0100
0001
0100
0001
0100
0000
0010
1000
0000
0010
0000
1000
0100
0000
0020
0000
,  // measure 3
0000
0000
0000
0030
0011
0000
0110
0000
,  // measure 4
1100
0000
0000
0000
1000
0000
0000
0000
0010
1000
0010
0000
1010
0000
0000
0000
,  // measure 5
0001
0000
0000
0000
0100
0000
0000
0000
0001
0100
0001
0000
0101
0000
0000
0000
,  // measure 6
0010
0000
0000
0000
1000
0000
0000
0000
0100
1000
0100
0000
1100
0000
0000
0000
,  // measure 7
0002
0000
0000
0000
2003
0000
0000
0000
3001
0010
0001
0000
0011
0000
0000
0000
,  // measure 8
0001
0000
0010
0000
0100
0000
0010
0001
0000
1000
0000
0001
1000
0000
1000
0002
,  // measure 9
0000
0000
0000
0003
0000
0001
0100
0010
,  // measure 10
2000
0000
3000
2000
0000
0000
0000
3000
,  // measure 11
0010
1000
0000
1000
0100
0000
0100
0010
0000
0010
0001
0100
0010
1000
0100
0010
,  // measure 12
0001
0000
0000
0000
0001
0000
0000
0000
1000
0001
1000
0000
1001
0000
0000
0000
,  // measure 13
1000
0000
0000
0000
0010
0000
0000
0000
0100
0010
0100
0000
0110
0000
0000
0000
,  // measure 14
1000
0000
0000
0000
0100
0000
0000
0000
0001
1000
0001
0000
1001
0000
0000
0000
,  // measure 15
0200
0320
0032
0203
,  // measure 16
0310
0000
0000
0000
0001
0100
0000
0010
0000
0000
1000
0000
0001
0000
1000
0200
,  // measure 17
0000
0000
0000
0000
0000
0000
0000
0300
0000
0000
0100
0000
1000
0000
0010
0000
,  // measure 18
0100
0000
0001
2000
0000
0000
0000
0000
0000
0000
0000
0000
0000
0000
3000
0000
,  // measure 19
0010
1000
0010
1000
0100
1000
0100
0010
0100
0010
0001
0010
0001
0100
0001
0100
,  // measure 20
0010
0000
0000
0000
1000
0000
0010
2000
0000
0000
0000
0000
3001
0000
0000
0000
,  // measure 21
0100
0000
0000
0000
0001
0000
0000
0000
1000
0000
0000
0100
0000
0000
1000
0000
,  // measure 22
0001
0000
0000
0000
0010
0000
0000
0000
0100
0000
0010
0000
0001
0000
0100
0010
,  // measure 23
0100
0010
2000
3001
,  // measure 24
1000
0000
0000
0100
0000
0000
0020
0000
0000
0000
0030
0000
0001
0000
0020
0000
,  // measure 25
0000
0000
0030
0000
0000
0000
0010
0000
0100
0000
0000
1000
0000
0000
0100
0000
,  // measure 26
0101
0110
1010
1001
,  // measure 27
1000
0001
0000
0010
0000
0100
0000
1000
0000
0001
0000
0100
0000
0110
0000
0000
,  // measure 28
0000
0200
0320
0032
,  // measure 29
0013
0000
0100
0000
0010
0001
0000
0100
0000
0000
0010
0000
1000
0000
0100
0000
,  // measure 30
1000
0000
0010
0000
0100
0001
0000
1000
0000
0000
0000
0000
0000
0000
0010
0000
,  // measure 31
1000
0000
0100
0000
1000
0001
0000
1000
0000
0001
0000
0100
0001
0000
0001
0000
,  // measure 32
0100
0000
0010
0000
1000
0010
0000
0200
0000
0000
0300
0000
0000
0000
0000
0000
,  // measure 33
0010
0000
0010
0000
1000
0100
0000
1000
0000
0000
0100
0000
0010
0000
0001
0000
,  // measure 34
0100
0000
0000
0000
0100
0001
0000
0010
0000
0000
0010
0000
0001
0000
0100
0000
,  // measure 35
0020
0000
0000
2000
0000
0000
3030
0000
,  // measure 36
1000
0010
1000
0001
0100
0010
1000
0001
0100
0000
0020
0000
0000
0000
0000
0000
,  // measure 37
0000
0000
0030
0000
0000
0000
1000
0000
1000
0000
0100
0010
0000
0022
0000
0033
,  // measure 38
0001
0000
0010
0000
0100
0000
1000
0000
0010
0000
0100
0010
0000
2020
0000
0000
,  // measure 39
3030
0000
0000
0000
0000
0000
0010
0000
1000
0000
0100
0000
0010
0001
0000
0010
,  // measure 40
0000
0010
0001
0000
0010
0000
0001
0000
0100
0000
0010
0100
0000
0002
0000
0000
,  // measure 41
0000
0003
0000
0000
0000
0000
0001
0000
1000
0000
0100
1000
0000
0001
0000
0000
,  // measure 42
0001
0000
0100
0000
0010
0000
1000
0000
0100
0000
0010
0100
0000
1000
0000
0000
,  // measure 43
0100
0000
0010
0000
1000
0000
0010
0000
0000
0000
0001
0100
0000
1000
0000
0100
,  // measure 44
0000
0001
0000
0010
0000
1000
0010
0000
0000
0000
1001
0000
0000
0000
0000
0000
,  // measure 45
1000
0000
0001
0000
1000
0000
0001
0100
0000
0020
0000
0000
0000
0000
0000
0000
,  // measure 46
0000
0000
0000
0230
0000
0000
0000
0000
,  // measure 47
0000
0000
0300
2002
0000
0000
0000
0000
,  // measure 48
0000
0000
0000
0000
0000
0000
0000
3003
,  // measure 49
0000
0000
0001
1000
0001
1000
0110
0000
0000
0000
0000
0000
0000
0000
0000
0000
;

//---------------dance-single - ----------------
#NOTES:
     dance-single:
     :
     Medium:
     7:
     0.426037,0.455133,0.010845,0.238581,0.341604,275.000000,274.000000,1.000000,22.000000,0.000000,0.000000,0.426037,0.455133,0.010845,0.238581,0.341604,275.000000,274.000000,1.000000,22.000000,0.000000,0.000000:
0001
0000
0010
0000
0001
0000
0000
0010
0000
0100
0000
0000
1000
0000
0001
0000
,
0010
0000
0100
0000
0010
0000
0000
0100
0000
1000
0000
0000
0100
0000
0010
0000
,
0001
0000
1000
0000
0001
0000
0000
0010
0000
0100
0000
0000
1000
0000
0200
0000
,
0000
0000
0000
0300
1000
0000
0100
0000
,
0010
0000
0000
0000
0001
0000
0000
0000
0100
0001
0100
0000
0001
0000
0000
0000
,
1000
0000
0000
0000
0010
0000
0000
0000
1000
0010
1000
0000
0010
0000
0000
0000
,
0100
0000
0000
0000
0001
0000
0000
0000
0010
0001
0010
0000
0001
0000
0000
0000
,
2000
0000
0000
0000
3002
0000
0000
0000
1003
0100
1000
0000
0100
0000
0000
0000
,
1000
0001
0100
0001
1000
0100
1000
1000
,
0001
0000
1000
0000
0010
0100
0001
0100
,
0010
0100
0001
1000
,
0001
0001
1000
1000
0001
1000
0001
1000
,
0001
0000
0000
0000
1000
0000
0000
0000
0001
1000
0001
0000
1000
0000
0000
0000
,
0001
0000
0000
0000
0100
0000
0000
0000
0010
0100
0010
0000
0100
0000
0000
0000
,
0001
0000
0000
0000
0010
0000
0000
0000
1000
0001
1000
0000
0001
0000
0000
0000
,
0020
0230
2300
3020
,
0130
0000
0000
0000
0010
0100
0000
0100
0000
0000
0001
0000
1000
0000
0001
0020
,
0000
0000
0000
0000
0000
0000
0000
0030
0000
0000
0010
0000
0001
0000
0100
0000
,
0010
0000
1000
0002
0000
0000
0000
0000
0000
0000
0000
0000
0000
0000
0003
0000
,
0001
1000
0010
0100
0001
1000
0001
1000
,
0001
0000
0000
0000
0001
0000
0100
0002
0000
0000
0000
0000
1003
0000
0000
0000
,
0010
0000
0000
0000
1000
0000
0000
0000
0001
0000
0000
0010
0000
0000
0001
0000
,
1000
0000
0100
0000
0010
0100
1000
0010
,
0010
0100
1000
1000
,
0001
0000
0000
0010
0000
0000
0200
0000
0000
0000
0300
0000
1000
0000
0200
0000
,
0000
0000
0300
0000
0000
0000
0100
0000
0010
0000
0000
0001
0000
0000
0010
0000
,
0010
0100
1000
0001
,
0001
1000
0000
0100
0000
0010
0000
0001
0000
1000
0000
0010
0000
0100
0000
0000
,
0000
1000
0001
1000
,
0100
0000
0010
0000
0100
0010
0000
0010
0000
0000
0100
0000
0001
0000
0100
0000
,
0001
0000
0100
0000
0010
0100
0000
0100
0000
0000
0000
0000
0000
0000
0100
0000
,
0001
0000
0100
0000
0001
0100
0000
0001
0000
0001
0000
0100
0001
0000
0100
0000
,
0010
0000
0100
0000
0001
0100
0000
0200
0000
0000
0300
0000
0000
0000
0000
0000
,
0100
0000
0100
0000
0001
0100
0000
0001
0000
0000
0010
0000
0100
0000
0010
0000
,
0100
0000
0000
0000
1000
0100
0000
0100
0000
0000
0100
0000
1000
0000
1000
0000
,
0200
0000
0000
0020
0000
0000
0330
0000
,
0001
0001
1000
1000
0100
0200
0000
0000
,
0000
0000
0300
0000
0000
0000
0010
0000
0010
0000
0001
0100
0000
0100
0000
0000
,
1000
0000
0100
0000
1000
0000
0100
0000
0010
0000
0010
0100
0000
0200
0000
0000
,
0300
0000
0000
0000
0000
0000
0100
0000
0010
0000
0100
0000
0010
0001
0000
0001
,
0000
0010
0100
0000
0010
0000
0001
0000
0010
0000
0100
0010
0000
0200
0000
0000
,
0000
0000
0300
0000
0000
0000
1000
0000
0001
0000
1000
0001
0000
0001
0000
0000
,
1000
0000
0001
0000
1000
0000
0001
0000
1000
0000
0001
1000
0000
1000
0000
0000
,
0010
0000
0100
0000
0010
0000
0100
0000
0000
0000
0100
0010
0000
1000
0000
0001
,
0000
1000
0000
0001
0000
0010
0100
0000
0000
0000
1000
0000
0000
0000
0000
0000
,
0001
0000
1000
0000
0001
0000
1000
0010
0000
0200
0000
0000
0000
0000
0000
0000
,
0000
0000
0000
0320
0000
0000
0000
0000
,
0000
0000
0030
2002
0000
0000
0000
0000
,
0000
0000
0000
0000
,
0000
0000
0003
3010
0000
0000
0000
0000
;

//---------------dance-single - ----------------
#NOTES:
     dance-single:
     :
     Easy:
     3:
     0.230835,0.294498,0.032534,0.010845,0.000000,149.000000,146.000000,3.000000,1.000000,0.000000,0.000000,0.230835,0.294498,0.032534,0.010845,0.000000,149.000000,146.000000,3.000000,1.000000,0.000000,0.000000:
0000
0000
0000
0000
,
0000
0000
0000
0000
,
0000
0000
0000
0000
,
0000
0000
0001
1000
,
0001
0000
1000
0000
,
0010
0000
0100
0100
,
0010
0000
1000
0000
,
0001
0001
0010
0010
,
0100
0000
1000
0000
,
0001
0000
0100
0000
,
0010
0000
1000
0000
,
0001
0001
1000
1000
,
0001
1000
0000
0010
,
0000
1000
0000
0100
,
0000
1000
0000
0001
,
0001
0010
0010
0100
,
0100
0000
1000
0000
,
0010
0000
0100
0000
,
0001
0001
0000
0000
,
1000
1000
0001
0001
,
1001
1000
1000
1000
,
0001
0001
0001
0001
,
0010
0010
0010
0010
,
0100
0100
0100
0100
,
1000
1000
1000
1000
,
0010
0010
0010
0010
,
0100
0001
1000
0100
,
0010
0010
0010
0010
,
0000
0001
1000
0001
,
1000
1000
1000
0001
,
1000
0001
0001
0001
,
0100
0010
0100
0010
,
0100
0010
0100
0000
,
0010
0010
1000
0001
,
0100
0000
0001
1000
,
0100
0000
0010
0000
,
0001
0000
0001
0000
1000
0000
0000
0001
,
0000
0000
0000
1000
0000
0001
0000
0001
,
0000
1000
0000
0010
0000
0100
0000
0100
,
0000
0010
0000
1000
0000
0100
0000
0010
,
0000
0001
0000
0010
0000
0100
0000
0100
,
0000
0000
0000
1000
0000
0001
0000
1000
,
0000
0010
0000
0100
0000
0010
0000
1000
,
0000
0100
0000
0100
0000
0010
0000
0010
,
0000
0010
0000
0110
0000
1001
0000
0000
,
0000
0010
0000
1000
0000
0001
0000
0100
,
0000
0010
0000
1000
0000
1000
0000
1000
,
0000
1000
0000
0002
0000
0000
0000
0000
,
0000
0000
0000
0000
,
0000
0000
0000
0003
0000
0000
0000
0000
;

//---------------dance-single - ----------------
#NOTES:
     dance-single:
     :
     Challenge:
     14:
     0.608845,0.966252,0.303648,0.379560,0.650675,393.000000,365.000000,28.000000,35.000000,0.000000,0.000000,0.608845,0.966252,0.303648,0.379560,0.650675,393.000000,365.000000,28.000000,35.000000,0.000000,0.000000:
0001
1000
0100
1000
0001
0000
1000
0001
0000
1000
0000
0001
0010
0000
0100
0000
,
0010
0100
1000
0100
0010
0000
0100
0010
0000
0100
0000
1000
0010
0000
1000
0000
,
0010
0000
0000
1000
0000
0000
0100
0000
0000
1000
0000
0000
0010
0000
0000
0000
0000
0000
0100
0000
0000
0001
0000
0000
0000
0000
0000
0100
0000
0000
0000
0000
0000
0001
0000
0000
0010
0000
0000
0000
0000
0000
0100
0000
1000
0000
0100
0000
,
1000
0100
1000
0100
1000
0100
1000
0100
1000
0100
1000
0100
1000
0100
1000
0100
1000
0100
1000
0100
1000
0100
0000
0000
,
0020
0000
0000
0000
0032
0000
0000
0000
0103
0001
0100
0000
0101
0000
0001
0000
,
1000
0000
0000
0000
0010
0000
0000
0000
1000
0010
1000
0000
1010
0000
0010
0000
,
0100
0000
0000
0000
0001
0000
0000
0000
0010
0001
0010
0000
0011
0000
0001
0000
,
2000
0000
0000
0000
3002
0000
0000
0000
1003
0100
1000
0000
1100
0000
0100
0000
,
0010
0000
0001
0000
0010
0000
0100
1000
0000
0001
0000
1000
0001
0000
0001
2000
,
0001
0000
0010
3000
1000
1000
0010
0100
,
0002
0000
1003
0002
0000
0000
0000
0003
,
0100
0001
0000
0001
0010
0000
0010
0100
0000
0100
1000
0010
0100
0001
0010
0100
,
1000
0000
0000
0000
1000
0000
0000
0000
0001
1000
0001
0000
1001
0000
1000
0000
,
0100
0000
0000
0000
0100
0000
0000
0000
0010
0100
0010
0000
0110
0000
0100
0000
,
1000
0000
0000
0000
0010
0000
0000
0000
1000
0001
1000
0000
1001
0000
0001
0000
,
0020
0230
2300
3020
,
0130
0000
0000
0000
1000
0010
0000
0100
0000
0000
0001
0000
1000
0000
0001
0020
,
0001
0000
0000
0000
0100
0000
0000
0030
0010
0000
0010
0000
0001
0000
0100
0000
,
0010
0000
1000
0002
1000
0000
0000
0000
0100
0000
0000
0000
1000
0000
0003
0000
,
0100
0001
0100
0001
0010
0001
0010
0100
0010
0100
1000
0100
1000
0010
1000
0010
,
0100
0000
0000
0000
0001
0000
0100
0002
0100
0000
0000
0000
0013
0000
0000
0000
,
1000
0000
0000
0000
1000
0000
0000
0000
0001
0000
0000
0010
0000
0000
0001
0000
,
2001
0000
0000
0000
3100
0000
0000
0000
0010
0000
0100
0000
1000
0000
0010
0100
,
0020
0130
0002
1003
,
0001
0000
0000
0010
0000
0000
0200
0000
0000
0000
0300
0000
1000
0000
0200
0000
,
0000
0000
0300
0000
0000
0000
0100
0000
0010
0000
0000
0001
0000
0000
0010
0000
,
1010
0110
0101
1001
,
0001
0101
0000
0110
0000
1010
0000
1100
0000
0110
0000
0011
0000
2002
0000
3003
,
0000
0000
0000
0000
0020
0000
0000
0000
0130
1000
0000
1000
0100
0010
0001
0000
,
0100
0000
0010
0000
0100
0010
0000
1010
0000
0000
1000
0000
0001
0000
0010
0000
,
0001
0000
0100
0000
0010
1000
0000
1100
0000
0000
0000
0000
0000
0000
0100
0000
,
0001
0000
0010
0000
0001
1000
0000
0001
0000
1000
0000
0010
1000
0000
1000
0000
,
0010
0000
0100
0000
0001
0100
0000
0020
0000
0000
0030
0000
0000
0000
0000
0000
,
0100
0000
0100
0000
0001
0010
0000
0011
0000
0000
0010
0000
0100
0000
1000
0000
,
0010
0000
0000
0000
0010
1000
0000
1010
0000
0000
0100
0000
1000
0000
0010
0000
,
0200
0000
0000
0002
0000
0000
0303
0000
,
0001
0100
0001
1000
0010
0100
0001
1000
0010
0000
0200
0000
0000
0000
0000
0000
,
0000
0000
0300
0000
0000
0000
0001
0000
0001
0000
0010
0100
0000
2200
0000
3300
,
1000
0000
0100
0000
0010
0000
0001
0000
0100
0000
0010
0100
0000
0202
0000
0000
,
0303
0000
0000
0000
0000
0000
0100
0000
0001
0000
0010
0000
0100
1000
0000
0100
,
0000
0100
1000
0000
0100
0000
1000
0000
0010
0000
0100
0010
0000
2000
0000
0000
,
0000
3000
0000
0000
0000
0000
1000
0000
0001
0000
0010
0001
0000
1000
0000
0000
,
1000
0000
0010
0000
0100
0000
0001
0000
0010
0000
0100
0010
0000
0001
0000
0000
,
0010
0000
0100
0000
0001
0000
0100
0000
0000
0000
1000
0010
0000
0001
0000
0010
,
0000
1000
0000
0100
0000
0001
0100
0000
0000
0000
1001
0000
0000
0000
0000
0000
,
0001
0000
1000
0000
0001
0000
1000
0010
0000
0200
0000
0000
0000
0000
0000
0000
,
0000
0000
0000
0320
0000
0000
0000
0000
,
0000
0000
0000
0000
0030
0000
1001
0000
0001
0000
0100
0000
0001
0100
0001
0000
,
0100
0000
0001
0000
0100
0001
0100
0000
0001
0000
0100
0000
0001
0100
0001
0000
,
0100
0000
0010
0100
0010
0100
2002
0000
3003
0000
0000
0000
0000
0000
0000
0000
;
