#TITLE:Blood Circulator;
#SUBTITLE:Naruto Shippuden Opening 19;
#ARTIST:ASIAN KUNG FU GENERATION;
#TITLETRANSLIT:;
#SUBTITLETRANSLIT:;
#ARTISTTRANSLIT:;
#GENRE:;
#CREDIT:;
#BANNER:BCBN.jpg;
#BACKGROUND:BCBG.jpg;
#LYRICSPATH:;
#CDTITLE:cdtitleitachi.png;
#MUSIC:Naruto Shippuden Opening 19 V3 English Sub.ogg;
#OFFSET:-0.003370;
#SAMPLESTART:47.599190;
#SAMPLELENGTH:29.863811;
#SELECTABLE:YES;
#BPMS:0.000000=182.830002
,143.000000=91.415001
,157.500000=45.708000
,158.500000=365.660004
,159.500000=182.830002
;
#STOPS:46.000000=0.164000,
46.500000=0.164000,
61.000000=0.164000,
61.500000=0.164000
;
#BGCHANGES:0.063=Naruto Shippuden Opening 19 V3 English Sub.avi=1.000=0=0=1=====,
253.000=BCBG.jpg=1.000=0=0=1=====,
99999=-nosongbg-=1.000=0=0=0 // don't automatically add -songbackground-
;
#KEYSOUNDS:;
#ATTACKS:;

//---------------dance-single - ----------------
#NOTES:
     dance-single:
     :
     Challenge:
     12:
     0.629061,0.812020,0.978539,0.444790,0.033359,396.000000,308.000000,88.000000,40.000000,0.000000,0.000000,0.629061,0.812020,0.978539,0.444790,0.033359,396.000000,308.000000,88.000000,40.000000,0.000000,0.000000:
// measure 0
0000
0000
0000
0000
,  // measure 1
0000
0000
0000
0000
,  // measure 2
0000
0000
0000
0000
0001
0001
1000
1000
,  // measure 3
0010
0010
0100
0100
0010
0010
0100
0100
,  // measure 4
0001
0001
0100
0000
0002
0023
0032
2003
,  // measure 5
3000
1100
0000
1010
0000
0001
0100
0000
,  // measure 6
0202
0000
0303
0000
1000
0100
1000
0100
,  // measure 7
0000
1100
0000
1010
0000
1000
0010
1000
,  // measure 8
0020
0030
1001
0010
,  // measure 9
0101
0010
1001
0100
,  // measure 10
1010
0000
0001
1000
0020
0000
0000
0030
,  // measure 11
0200
0000
0300
0000
0011
1100
0022
0000
,  // measure 12
0033
1100
0010
0110
,  // measure 13
0001
1001
1100
1010
,  // measure 14
0001
0000
1001
0000
0000
0001
1000
0000
,  // measure 15
0001
1000
0011
1100
0022
0000
0033
0000
,  // measure 16
2000
0010
0001
0010
,  // measure 17
3002
0100
1000
0100
,  // measure 18
0200
0000
0000
0003
0001
0000
0010
0000
,  // measure 19
0010
0000
0002
0300
,  // measure 20
1000
0100
1000
2003
,  // measure 21
0100
0000
0010
0000
0001
0000
0002
3000
,  // measure 22
0100
0000
0000
0100
0100
0000
0000
0000
,  // measure 23
2000
0000
0003
3000
0020
0000
0030
0000
,  // measure 24
1001
0000
0110
0000
0100
0010
0000
0100
,  // measure 25
0010
1000
0001
0100
0020
0000
0030
0000
,  // measure 26
1001
0000
0010
0000
1000
0100
0001
0100
,  // measure 27
1000
0100
1000
0100
1000
0000
0110
0000
,  // measure 28
0101
0000
0100
0010
1000
0001
0010
0100
,  // measure 29
0001
0100
0001
0200
0302
0000
0003
0000
,  // measure 30
0010
0000
0001
0010
1000
0010
0001
0000
,  // measure 31
2000
0000
0000
3010
2000
0000
0000
3000
,  // measure 32
0001
1000
0001
1000
0000
1010
0000
0101
,  // measure 33
0000
0100
0010
0000
0200
0000
0000
0300
,  // measure 34
0001
1000
0001
1000
0000
1001
0000
1001
,  // measure 35
0000
0000
1000
0000
0001
0000
1000
0000
0002
0000
0000
0000
0003
1000
0100
0000
,  // measure 36
0000
0001
0100
0000
0000
0100
1000
0000
0110
0000
0101
0000
0001
0000
0100
0000
,  // measure 37
0000
0010
0100
0000
0000
0001
0100
0000
1001
0000
1001
0000
1010
0000
2010
0000
,  // measure 38
0010
3010
0100
0001
1000
0100
1000
0200
,  // measure 39
0010
0000
0300
0000
1000
0000
0000
0000
0010
0000
0000
0000
1001
0000
0000
0001
0200
0000
0000
0300
2002
0000
0000
0000
3000
0000
0000
0000
0000
0000
0000
0000
,  // measure 40
1003
0000
0010
0100
0001
0100
0010
0100
,  // measure 41
0001
0100
0020
0000
0130
0000
1000
0000
,  // measure 42
0100
0000
0100
1000
0010
0100
0001
0010
,  // measure 43
0100
1000
1000
0000
1001
0000
0110
0000
,  // measure 44
0101
0000
0110
0110
0000
1001
1001
0100
,  // measure 45
0010
0100
1000
0000
0000
0000
1001
0000
,  // measure 46
0100
0001
0010
1000
0010
0000
1001
0000
,  // measure 47
0000
0010
1000
0000
0000
0000
1010
0000
,  // measure 48
0101
0000
0100
0010
0000
1000
0001
0100
,  // measure 49
0010
1000
0200
0000
0300
0000
1100
0000
,  // measure 50
1010
0000
0100
0001
0010
0100
1000
0001
,  // measure 51
1000
0100
0010
0000
1001
0000
1010
0000
,  // measure 52
0001
0100
0010
0100
0000
0001
1000
0100
,  // measure 53
1000
0001
2000
0000
0000
3000
0100
0000
,  // measure 54
0010
0100
0010
0001
0100
0000
0001
0000
,  // measure 55
0000
0100
1000
0000
1000
0000
0011
0011
,  // measure 56
0011
0011
0000
1100
0000
0001
0000
1000
,  // measure 57
0100
0000
1100
0000
0000
0000
1100
1100
,  // measure 58
1100
1100
0000
1010
0000
1010
0000
1010
,  // measure 59
1010
1010
1010
0000
0000
0000
0101
0101
,  // measure 60
0101
0101
0000
1001
0000
1001
0000
1001
,  // measure 61
1001
0000
2200
0000
3300
0000
0011
1100
,  // measure 62
0011
1100
0000
0011
0000
1100
0000
0011
,  // measure 63
0110
1100
0220
0000
0330
0000
0000
0000
;

//---------------dance-single - ----------------
#NOTES:
     dance-single:
     :
     Easy:
     2:
     0.246223,0.494273,0.000000,0.166796,0.000000,155.000000,155.000000,0.000000,15.000000,0.000000,0.000000,0.246223,0.494273,0.000000,0.166796,0.000000,155.000000,155.000000,0.000000,15.000000,0.000000,0.000000:
0000
0000
0000
0000
,
0000
0000
0000
0000
,
0000
0000
0000
0000
,
0000
0000
0000
0000
,
0000
0000
2000
3000
,
0000
1000
0000
1000
0000
0000
0000
0000
,
1000
0000
0010
0000
,
0000
0010
0000
0010
0000
0000
0000
0000
,
0010
0000
1000
0000
,
0100
0000
0010
0000
,
0001
0000
0000
0000
2000
0000
0000
3000
,
1000
0000
0000
0000
0002
0000
0000
0003
,
0000
1000
0000
1000
,
0000
0010
0000
0010
,
0000
0100
0000
0010
,
1000
0002
0003
0000
,
2000
3000
0020
0030
,
0200
0300
0200
0300
,
0020
0030
0020
0030
,
0200
0300
0002
0003
,
0000
1000
0000
0010
,
0000
0100
0000
0010
,
1000
0000
0001
0000
,
0100
0000
0010
0000
,
1000
1000
1000
0000
,
1000
0000
1000
0000
,
0001
0001
0001
0000
,
0001
0001
0001
0000
,
0001
0001
0001
0000
,
0001
0001
0001
0000
,
1000
0000
0001
0000
,
2000
0000
0000
3000
0001
0000
0000
0000
,
0100
0000
0000
0000
0000
0100
0000
0100
,
0000
0000
0100
0000
,
0010
0000
0000
0000
0000
0010
0000
0010
,
0000
0010
0000
0000
0010
0000
0000
1000
,
0000
0010
0000
0100
0100
0100
0000
0010
,
0000
1000
0000
1000
1000
1000
0000
0010
,
0010
0100
0100
0010
0010
1000
1000
0010
,
0000
0010
0000
2000
3000
0010
0000
0000
,
1000
0010
0000
1000
,
0001
1000
0000
0010
,
0010
0010
0100
0010
,
0100
0010
0000
1000
,
0001
1000
0000
0100
,
0010
0001
0000
0001
,
1000
0001
1000
0010
,
0000
0100
0000
0001
,
0010
0100
0000
1000
,
0001
0100
0000
0001
,
1000
0100
0000
0010
,
0001
1000
0000
0100
,
0010
0001
0000
1000
,
0100
0010
0000
0001
,
1000
0001
0100
0010
,
0000
0010
0000
1000
,
0000
0000
0000
1000
0000
1000
0000
0000
,
0000
1000
0000
0010
,
0000
0000
0000
0010
0000
0010
0000
0000
,
0000
0010
0000
1000
,
0000
0000
0000
1000
0000
1000
0000
0000
,
0000
1000
0000
0010
,
0000
0000
0000
0010
0000
0010
0000
0000
,
0000
0020
0030
0000
;

//---------------dance-single - ----------------
#NOTES:
     dance-single:
     :
     Medium:
     6:
     0.403488,0.635494,0.211275,0.088958,0.000000,254.000000,235.000000,19.000000,8.000000,0.000000,0.000000,0.403488,0.635494,0.211275,0.088958,0.000000,254.000000,235.000000,19.000000,8.000000,0.000000,0.000000:
0000
0000
0000
0000
,
0000
0000
0000
0000
,
0000
0000
0000
0000
,
0000
0000
0000
0000
,
1010
0000
0110
0000
0001
1000
0010
1000
,
0000
0001
0000
0001
0000
0000
0000
0000
,
1000
0000
0000
0000
0010
0100
0010
0100
,
0000
0010
0000
0010
0000
0000
0000
0000
,
0010
0000
1000
0000
,
1000
0000
0010
0000
,
0010
0100
0020
0030
,
1000
0000
0000
0000
0001
1000
0001
0000
,
0000
1000
0000
0010
,
0000
0100
0000
0010
,
1000
0000
0010
0000
0000
0100
0010
0000
,
1000
0000
1000
0001
1000
0000
0000
0000
,
1000
0010
0100
0001
,
1000
0100
1000
0010
,
0200
0300
0100
0010
,
0020
0000
0030
0000
0020
0000
0000
0030
,
1000
0001
0100
0010
,
1000
0100
1000
0010
,
1001
0000
0110
0000
,
1001
0000
1100
0000
,
0010
0100
0001
0000
,
1000
0100
1000
0000
,
0010
0100
0001
1000
,
0100
0010
0001
1001
,
0010
0100
0001
0000
,
1000
0100
1000
0000
,
0010
1000
0100
1000
,
0010
0000
0010
0000
,
1000
0000
0000
0001
0000
0100
0000
0101
,
0000
0001
2000
3000
,
0010
0000
0000
0100
0000
0001
0000
0100
,
0000
0010
0100
0001
0100
0000
0000
0001
,
0000
1000
0000
0010
0100
0001
1000
1001
,
0000
0100
0000
0010
1000
1001
0001
0100
,
0100
0010
0010
1000
1000
0010
0100
0001
,
1000
0100
1000
2000
3000
0000
1000
0000
,
0001
1000
0010
0100
,
0001
1000
0000
0010
,
0100
0000
0001
0000
1000
0000
0100
1000
,
0100
1000
0100
0000
1000
0000
0010
0000
,
0100
0000
0001
0000
1000
0000
0010
1000
,
0010
1000
0010
0000
0000
0000
1010
0000
,
0001
0101
0001
1001
,
0000
1010
0000
0110
,
1001
0000
0100
0000
1000
0000
0010
0100
,
0010
0100
0010
0000
0100
0000
0001
0000
,
1000
0000
1100
0000
0010
0000
0100
0001
,
1000
0001
1000
0000
0010
0000
1010
0000
,
0001
0000
0100
0010
0000
0000
0100
0001
,
1000
0001
1000
0000
0000
0000
0010
0000
,
0100
0000
0001
1000
0000
0001
1000
0000
,
0000
0010
0100
0000
0000
0000
1000
0001
,
1000
0001
0000
0100
0000
0010
0000
1000
,
0001
0000
2000
0000
0000
3000
0010
1000
,
0010
1000
0000
0010
0000
0100
0000
0010
,
0100
0001
0100
0000
0000
0000
0001
0010
,
0001
0100
0000
0001
0000
0010
0000
0001
,
0100
0000
1001
0000
0000
0000
1000
0100
,
0010
0001
0000
1000
0000
0010
0000
0100
,
0001
0100
0020
0000
0030
0000
0000
0000
;

//---------------dance-single - ----------------
#NOTES:
     dance-single:
     :
     Hard:
     9:
     0.449556,0.495246,0.211275,0.378072,0.000000,283.000000,264.000000,19.000000,34.000000,0.000000,0.000000,0.449556,0.495246,0.211275,0.378072,0.000000,283.000000,264.000000,19.000000,34.000000,0.000000,0.000000:
0000
0000
0000
0000
,
0000
0000
0000
0000
,
0000
0000
0000
0000
,
0000
0000
0000
0000
,
0000
0000
1001
0000
0010
0000
0000
0100
,
0000
0001
0000
1000
0000
0100
1000
0000
,
0110
0000
0000
0000
0001
0100
0001
0100
,
0000
0010
0000
1000
0000
0100
1000
0100
,
1000
0000
0010
0000
,
0110
0000
1001
0000
,
1100
0000
0100
1000
0020
0000
0000
0030
,
0100
0000
0000
0000
1000
0100
0010
0000
,
0000
0001
0000
1001
,
0000
0110
0000
1001
,
0000
0000
0101
0000
0000
1000
0001
0000
,
0100
0010
1000
0001
1000
0000
0000
0000
,
2000
3020
0230
0302
,
2003
3200
2300
3020
,
0230
0300
0001
0001
,
0200
0000
0000
0300
0020
0000
0000
0030
,
0000
2000
3200
2300
,
3020
0230
0302
0023
,
0032
0000
0003
0000
0020
0000
0030
0002
,
0203
0300
0000
0000
0001
0000
0000
0000
,
1000
0000
0100
0000
1000
0001
0000
0100
,
0010
0100
0010
0100
0010
0000
0000
0000
,
1000
0000
0100
0000
1000
0100
1000
0010
,
1000
0010
0100
0001
0010
0000
0001
0000
,
1000
0000
0100
0000
1000
0010
0010
1000
,
1000
0010
0100
0001
1000
0000
0000
0000
,
0100
0001
1000
0100
,
1000
0000
0000
0100
1000
0000
0000
0000
,
1000
0100
1000
0100
0000
1010
0000
1001
,
0000
0010
0001
0000
0020
0000
0000
0030
,
0001
0010
0001
0010
0000
0001
0000
0200
,
0300
0020
0230
0302
2000
0003
3000
1001
,
0000
0010
0000
0100
0001
1000
0100
1000
,
0000
0001
0000
0001
0001
0001
1000
0020
,
0030
0100
0001
0100
0010
1000
0001
2000
,
3000
0010
0000
0100
0200
0310
0000
0000
,
1000
0000
0001
0010
0100
1000
0001
0010
,
0001
0200
0300
1001
,
0010
0000
0100
0010
1000
0000
1000
0100
,
0010
0001
1000
0000
0010
0000
0100
0000
,
0001
0000
1000
0100
0000
1000
0100
1000
,
0010
1000
0010
0000
0000
0000
0100
0000
,
0001
0100
0010
0100
0001
0000
0101
0000
,
0000
0010
0100
0000
0000
0000
1100
0000
,
1001
0000
0010
0100
0000
0001
1000
0100
,
1000
0010
0100
0000
0001
0000
1000
0000
,
0100
0000
1000
0100
0000
1000
0010
0100
,
0001
0100
0010
0000
0100
0000
0001
0000
,
1000
0000
0100
1000
0000
0010
1000
0000
,
0001
0100
0010
0000
0000
0000
1000
0000
,
0100
1000
0010
0100
0001
1000
0100
0000
,
0000
1000
0100
0000
1000
0000
0001
0000
,
0000
0100
0000
0001
0000
1000
0000
0100
,
1000
0000
1010
0000
0000
0000
0100
0001
,
0100
0001
0000
1000
0000
0100
0000
1000
,
0100
1000
0010
0000
0000
0000
0100
0000
,
0000
1001
0000
0010
0000
1000
0000
0001
,
0100
0000
0101
0000
0000
0000
1000
1000
,
0010
0010
0000
1000
0000
0100
0000
1000
,
0010
1000
0020
0000
0000
0030
0000
0000
;
