#TITLE:Black Rover;
#SUBTITLE:Black Clover Opening 3;
#ARTIST:Vickeblanka;
#TITLETRANSLIT:;
#SUBTITLETRANSLIT:;
#ARTISTTRANSLIT:;
#GENRE:;
#CREDIT:;
#BANNER:BRBN.jpg;
#BACKGROUND:BRBG.jpg;
#LYRICSPATH:;
#CDTITLE:cdtitleitachi.png;
#MUSIC:Black Clover Opening 3 (HD).ogg;
#OFFSET:-0.123000;
#SAMPLESTART:47.988567;
#SAMPLELENGTH:18.823528;
#SELECTABLE:YES;
#DISPLAYBPM:0.000000:204.000000;
#BPMS:0.000000=102.000000
,12.000000=408.000000
,13.500000=204.000000
,38.000000=408.000000
,40.000000=204.000000
,142.000000=102.000000
,145.000000=204.000000
;
#STOPS:12.000000=0.074000,
12.500000=0.074000,
13.000000=0.074000,
38.000000=0.110000,
38.750000=0.110000,
39.500000=0.074000
;
#BGCHANGES:0.063=1.avi=1.000=0=0=1=====,
275.000=BRBG.jpg=1.000=0=0=1=====,
99999=-nosongbg-=1.000=0=0=0 // don't automatically add -songbackground-
;
#KEYSOUNDS:;
#ATTACKS:;

//---------------dance-single - ----------------
#NOTES:
     dance-single:
     :
     Hard:
     10:
     0.434303,0.531783,0.457448,0.104832,0.033356,319.000000,271.000000,48.000000,11.000000,0.000000,0.000000,0.434303,0.531783,0.457448,0.104832,0.033356,319.000000,271.000000,48.000000,11.000000,0.000000,0.000000:
0000
0000
0000
0000
,
0000
0000
0000
0000
,
0000
0000
0000
0000
,
1000
0001
0100
0010
0000
1000
0010
0000
,
0100
0000
0010
0000
1000
0010
1000
0000
,
1000
0100
0010
0001
0000
0001
1000
0000
,
0010
0000
0100
0000
0001
0010
0001
0000
,
0001
0010
0100
1000
0000
0100
1000
0000
,
1000
0000
0100
0000
1000
0100
1000
0000
,
0010
0000
0100
0000
0001
0000
1000
0000
0001
0000
0000
0010
0000
0000
0100
0000
,
1001
0000
1010
0000
,
0110
0000
0100
0000
,
0000
0000
0000
0000
1001
0000
0000
0000
0001
0000
0000
0010
0000
0000
0100
0000
,
1000
0000
0000
0010
0000
0000
0001
0000
0020
0000
0000
0000
0030
0000
0000
0000
,
0000
0000
0000
0000
1001
0000
0000
0000
1000
0000
0000
0100
0000
0000
0010
0000
,
0001
0000
0000
0100
0000
0000
1000
0000
0200
0000
0000
0000
0300
0000
0000
0000
,
0000
1000
0100
0010
,
0001
1000
0020
0030
,
0100
0000
0001
0000
,
1000
0000
0100
1000
,
0110
0000
0011
0000
1000
0000
1000
0001
,
0000
1001
0000
1001
0000
0000
0000
0000
,
0001
0000
0110
0000
1100
0000
1000
0100
,
0000
0100
0010
0001
0000
0000
0000
0000
,
0001
0000
1000
0000
0001
1000
0010
0100
,
0000
2000
3100
0000
0010
0000
1000
0000
,
0001
0100
0010
0000
1000
0100
0010
0000
,
0001
0010
0100
0000
1000
0000
0010
0000
,
0001
0010
1000
0100
,
0001
0100
1000
0010
,
0001
0000
1000
0100
0000
0000
0001
0000
,
0000
0010
0000
0000
0100
0000
0000
0000
,
0001
0000
0011
0000
,
0100
0000
1100
0000
,
0010
0000
0110
0000
,
0010
0000
0000
0000
0000
0000
0000
0000
2000
0000
0000
0000
0020
0000
3000
0030
,
0100
0000
1000
0100
0010
0100
0000
0000
,
0101
1001
1001
0100
,
0001
0000
1000
0000
0100
1000
0000
0000
,
0010
0100
0001
1100
,
0110
0000
1001
0000
0100
0010
0000
0000
,
1000
0000
0100
0000
1000
0000
0010
0100
,
0001
0000
1000
0000
0100
1000
0000
0000
,
0010
0000
0100
0001
1000
0000
0101
0000
,
0000
0000
0110
0000
0000
1001
0000
0000
,
1100
0110
0000
0010
,
0100
0000
1000
0000
1000
0100
0000
0000
,
0010
0001
1001
0010
,
0100
0000
0001
0000
1000
0100
0000
0000
,
1000
0000
0010
0000
0100
0000
0001
1000
,
0100
0000
1000
0000
0010
0100
0000
0000
,
0001
0000
1000
0100
1000
0000
0020
0000
,
0000
0030
0100
0000
0000
1001
1001
0000
,
0110
1100
0010
0100
,
1010
1001
0110
0100
,
0010
0011
0110
1001
,
0010
0001
0110
1001
,
0110
0001
0010
0011
,
1100
0011
0010
1000
,
0110
0011
1010
0001
,
1000
0011
1001
2010
,
0000
0020
3000
0230
,
0000
0300
0000
0000
0001
0010
0100
1000
0000
0000
0000
0000
1000
0000
0000
0000
,
0100
1000
0000
0010
1000
0000
1000
0100
,
0010
0001
0000
0001
1000
0000
0001
0000
,
0100
0001
0000
1000
0001
0000
1000
0100
,
0010
0001
0000
1000
0010
0000
0100
0000
,
0001
1000
0000
0010
1000
0000
0001
1000
,
0010
0100
0000
0001
1000
0000
0200
0000
,
0000
0000
0000
0300
;

//---------------dance-single - ----------------
#NOTES:
     dance-single:
     :
     Easy:
     4:
     0.215109,0.299128,0.104832,0.228724,0.000000,158.000000,147.000000,11.000000,24.000000,0.000000,0.000000,0.215109,0.299128,0.104832,0.228724,0.000000,158.000000,147.000000,11.000000,24.000000,0.000000,0.000000:
0000
0000
0000
0000
,
0000
0000
0000
0000
,
0000
0000
0000
0000
,
2002
3003
0000
1001
0000
0000
0001
0000
,
0000
1000
0000
1000
,
0001
0000
0000
0001
0000
0000
0001
0000
,
0100
0001
0000
0001
,
1000
0000
0000
1001
0000
0000
1000
0000
,
0000
0100
0000
0100
,
0000
0000
0010
0000
,
0001
0000
1000
0000
,
0001
0000
0200
0000
,
0300
0000
0010
0000
,
0010
0000
0020
0000
,
0030
0000
1000
0000
,
1000
0000
0200
0000
,
0000
0300
0000
0000
0010
0000
0010
0000
,
0001
0000
0002
0003
,
1000
0000
0100
0000
,
0010
0000
0001
0000
,
0001
0000
0001
0000
0001
0000
0000
1000
,
0000
1000
0000
1000
0000
0000
0000
0000
,
0100
0000
0100
0000
0100
0000
0000
0100
,
0000
0100
0000
0100
0000
0000
0000
0000
,
0001
0000
0010
0000
,
0100
0000
2000
0000
,
0000
3000
0000
0000
0010
0000
0000
0000
,
0100
0000
0020
0000
,
0000
0030
0000
0000
2000
0000
0000
0000
,
0000
3000
0000
0000
0020
0000
0000
0000
,
0000
0030
0000
0000
0200
0000
0000
0000
,
0000
0300
0000
0000
0020
0000
0000
0000
,
0000
0030
0000
0000
2000
0000
0000
0000
,
0000
3000
0000
0000
0002
0000
0000
0000
,
0000
0003
2000
0000
,
0000
0000
3000
0000
0020
0000
0000
0030
,
0000
0000
2000
0000
0000
3000
0000
0000
,
0010
0010
0000
0010
,
0010
0000
0010
0000
0000
0010
0000
0000
,
1000
1000
0000
1000
,
0001
0000
1000
0000
0000
1000
0000
0000
,
0010
0100
0000
0110
,
0000
0000
0110
0000
0000
0210
0000
0000
,
0000
0300
0000
0000
0000
0000
2002
3003
,
0000
0000
1001
0000
0000
1001
0000
0000
,
0100
0010
0000
1000
,
0000
0000
0010
0000
0000
0100
0000
0000
,
0001
0010
0000
0100
,
0000
0000
1001
0000
0000
1000
0000
0000
,
0010
0100
0000
0001
,
0000
0000
1000
0000
0000
2000
0000
0000
,
0000
0000
3000
0010
,
0000
1000
0000
0001
,
0001
0001
0001
0100
,
0100
0100
0100
0010
,
0010
0010
0010
0100
,
0100
0100
0100
0001
,
1000
0010
1000
0001
,
0100
0001
0010
0100
,
1000
0100
1000
0010
,
0100
0001
0001
2000
,
0000
0000
0000
3000
,
0000
0010
0000
0010
,
0000
1000
0000
0010
,
0000
0100
0000
0010
,
0000
1000
0000
0001
,
0000
0001
0000
0100
,
0000
0010
0000
1000
,
0000
1000
0000
2002
,
0000
0000
0000
3003
;

//---------------dance-single - ----------------
#NOTES:
     dance-single:
     :
     Medium:
     6:
     0.291351,0.430525,0.238254,0.142952,0.004765,214.000000,189.000000,25.000000,15.000000,0.000000,0.000000,0.291351,0.430525,0.238254,0.142952,0.004765,214.000000,189.000000,25.000000,15.000000,0.000000,0.000000:
0000
0000
0000
0000
,
0000
0000
0000
0000
,
0000
0000
0000
0000
,
1000
0001
1000
0001
0000
0000
1000
0000
,
0000
0010
0000
0100
,
0001
1000
0000
0101
,
0000
1000
0000
0010
,
0100
0000
0000
0110
0000
0000
0001
0000
,
0000
1000
0000
0100
,
1000
0000
0000
0000
0001
0000
0000
0000
1000
0000
0000
1000
0000
0000
1000
0000
,
0010
0000
0100
0000
,
0001
0000
0000
0000
2002
0000
0000
3003
,
0000
0000
0100
0000
,
0100
0010
1000
0000
,
0000
0000
0001
0000
,
1000
0001
1001
0000
,
0000
0010
0100
0000
,
0001
0000
0000
0000
2000
0000
0000
3000
,
0010
0000
0000
0000
0200
0000
0000
0300
,
0001
0000
1000
0000
,
0010
0000
0100
0000
0100
0000
0000
0001
,
0000
1000
0000
0001
0000
0000
0000
0000
,
1000
0000
0100
0000
1000
0000
0000
0010
,
0000
0010
0000
0010
0000
0000
0000
0000
,
0100
0000
1001
0000
0100
0010
0001
1000
,
0100
0010
0001
0000
2002
0000
0000
0000
,
3003
0000
0000
0000
,
1010
0010
1000
0010
,
0100
0000
0000
0002
0000
0000
1003
0000
,
0000
0010
0000
0000
0010
0000
0000
0000
,
0100
0000
0000
0000
0001
0000
0000
1000
,
0000
0001
0000
0000
1000
0000
0000
0000
,
0100
0000
0010
0000
,
0001
0000
2000
0000
,
0100
0000
0010
0000
,
0001
3000
0000
0000
1000
0000
0001
0000
,
0100
0000
0010
0000
0000
1000
0000
0000
,
1001
1001
0000
0010
,
0100
0000
0001
0000
0000
1001
0000
0000
,
0100
1000
0000
0001
,
0010
0000
0100
0000
0000
1001
0000
0000
,
0100
1000
0000
0010
,
0100
0000
0001
0000
0000
2002
0000
0000
,
0000
3003
0000
1100
,
0000
0000
0110
0000
0000
0011
0000
0000
,
0001
2000
3000
0010
,
0100
0000
0001
0000
0000
1000
0000
0000
,
0100
1000
0000
0010
,
0010
0000
0010
0000
0000
0010
0000
0000
,
1000
0100
0000
1000
,
0100
0000
1000
0000
0000
0020
0000
0000
,
0000
0030
0000
0200
,
0300
0001
0000
1000
,
0001
1010
0010
0100
,
1001
1000
0100
0011
,
0001
1000
0011
0101
,
0001
1001
0100
1000
,
0010
0110
0001
1000
,
0100
0010
0001
1010
,
0010
1001
0010
1001
,
0001
1000
0001
2000
,
0000
0000
0010
3000
0000
0000
0010
0000
,
0000
0100
0000
0001
,
0000
0000
1000
0000
0000
0000
0001
1000
,
0001
1000
0000
0000
0001
0000
0000
0000
,
0100
0000
0000
0000
0000
0000
0010
0100
,
0010
0100
0000
0010
0100
0000
0000
0000
,
0000
0000
0001
0000
0000
0000
1000
0001
,
1000
0001
0000
1000
0001
0000
2000
0000
,
0000
0000
3000
0000
;

//---------------dance-single - ----------------
#NOTES:
     dance-single:
     :
     Challenge:
     14:
     0.597677,0.764438,0.752883,0.171543,0.195368,439.000000,360.000000,79.000000,18.000000,0.000000,0.000000,0.597677,0.764438,0.752883,0.171543,0.195368,439.000000,360.000000,79.000000,18.000000,0.000000,0.000000:
// measure 0
0000
0000
0000
0000
,  // measure 1
0000
0000
0000
0000
,  // measure 2
0000
0000
0000
0000
,  // measure 3
1000
1001
0100
1010
0000
1000
0010
0000
,  // measure 4
0100
0000
0010
0000
1000
0010
1000
0000
,  // measure 5
1000
0100
0010
0000
0001
0000
1000
0000
0000
0000
0001
0000
1000
0000
0000
0000
,  // measure 6
0010
0000
0000
0000
0101
0000
0000
0000
0001
0010
0100
0000
1000
0000
0000
0000
,  // measure 7
0001
0010
0100
1000
0000
0100
1000
0000
,  // measure 8
1000
0000
0100
0000
0011
0000
0000
0000
1000
0100
0010
0000
0001
0000
0000
0000
,  // measure 9
0010
0000
0100
0000
1000
0000
0001
0000
1100
0000
0000
0110
0000
0000
0011
0000
,  // measure 10
1100
0000
0000
0000
0000
0000
1010
0000
0000
1000
0010
0100
,  // measure 11
0001
0000
0010
0000
0100
0000
1000
0000
0100
0000
0010
0000
0001
0000
0000
0000
0000
0000
1000
0000
0000
0001
0000
0000
,  // measure 12
0000
0000
0001
0000
1000
0000
0000
0000
0001
0000
0000
0010
0000
0000
0100
0000
,  // measure 13
1000
0000
0000
0010
0000
0000
0001
0010
1000
0000
0000
0000
1000
0000
0100
0000
,  // measure 14
0000
0000
0100
0000
1000
0000
0000
0000
1000
0000
0000
0100
0000
0000
0010
0000
,  // measure 15
0001
0000
0000
0100
0000
0000
1000
0100
0001
0000
0000
0000
0001
0000
0100
0000
,  // measure 16
0000
0100
0001
0000
0110
0000
0011
0000
,  // measure 17
0110
0000
0000
0000
1100
0000
1000
0100
0010
0000
0000
0000
0001
0000
0000
0000
,  // measure 18
0100
0001
0100
0000
0001
0000
1000
0000
,  // measure 19
0100
0100
0100
0100
0100
0000
1000
0000
,  // measure 20
0110
0000
0011
0000
1001
0000
1000
0001
,  // measure 21
0000
1001
0000
1001
0010
0000
0100
0000
,  // measure 22
0011
0000
0110
0000
1100
0000
1000
0100
,  // measure 23
0000
0100
0010
1001
0100
0000
0010
0000
,  // measure 24
0001
0000
1000
0000
0001
1000
0010
0100
,  // measure 25
0000
2000
3100
0000
0110
0000
0001
0000
,  // measure 26
0001
0100
0010
1000
0000
1000
0001
0000
,  // measure 27
0001
0000
0010
0000
0100
0000
1000
0000
0000
0010
0000
0000
1001
0000
0000
0000
0000
0000
0010
0000
0000
0000
0000
0000
,  // measure 28
0101
0000
0010
0010
0000
0010
0100
0000
,  // measure 29
0001
0011
0000
0000
1001
0000
0010
0100
,  // measure 30
0001
0000
1000
0100
0000
0000
1001
0000
,  // measure 31
0000
0110
0000
0000
0210
0000
0001
0000
,  // measure 32
0302
0010
0023
0100
,  // measure 33
0230
1000
2300
0001
,  // measure 34
3002
0000
0000
0100
0203
0000
0000
0000
,  // measure 35
0320
0000
2030
0100
,  // measure 36
3010
0000
0000
0000
0000
0000
0100
0001
1000
0000
0000
0000
0001
0000
0000
0000
1000
0000
0000
0000
0010
0000
0000
0000
0000
0000
0000
0000
0000
0000
0000
0000
,  // measure 37
0101
0000
1001
0000
1000
0000
0010
0100
,  // measure 38
0001
0010
0100
0010
0100
2000
0000
3000
,  // measure 39
0110
0000
0000
0000
1001
0000
0000
0000
0001
0000
0000
0000
1000
0100
1000
0000
,  // measure 40
0100
0000
0000
0000
0010
0000
0000
0000
0001
0010
0001
0000
0000
0000
0000
0000
,  // measure 41
1001
0000
0000
0000
0101
0000
0000
0000
1000
0000
0000
0000
0010
0100
0001
0000
,  // measure 42
1000
0000
0100
0000
0010
0200
0000
0000
,  // measure 43
0310
0000
0100
1000
0001
0000
0101
0000
,  // measure 44
0000
0000
0110
0000
0000
1001
0000
0000
,  // measure 45
1100
0000
0110
0000
0001
0000
0010
0100
,  // measure 46
1000
0001
1000
0010
1000
0100
0000
0010
,  // measure 47
0001
0000
0000
0000
0101
0000
0000
0000
0100
0000
0000
0000
0010
1000
0010
0000
,  // measure 48
0100
0000
0000
0000
0010
0000
0000
0000
0100
0001
0100
0000
0000
0000
0000
0000
,  // measure 49
1001
0000
0000
0000
0110
0000
0000
0000
0101
0000
0000
0000
0001
1000
0001
0000
,  // measure 50
0100
0000
0010
0000
1000
0100
0000
0000
,  // measure 51
0001
0000
0100
1000
0010
0000
0020
0000
,  // measure 52
0000
0000
0130
0000
0000
0001
0101
0000
,  // measure 53
0101
0000
0101
0000
0101
0010
0101
1000
,  // measure 54
0101
0000
0101
1000
0101
0000
1001
0000
,  // measure 55
0101
1000
0101
0000
0101
0010
0101
1000
,  // measure 56
0101
0010
0101
1000
0101
0000
1001
0000
,  // measure 57
0101
0010
0101
0000
0101
0000
1001
0000
,  // measure 58
0101
1000
0101
0000
0101
0000
1001
0000
,  // measure 59
0101
0010
0101
0000
0101
0000
1001
0000
,  // measure 60
0101
1000
0101
0000
0101
0000
2010
0000
,  // measure 61
0000
0020
3000
0230
,  // measure 62
0000
0300
0000
0000
0001
0010
0100
1000
0001
0000
1000
0000
0000
0000
0000
0000
,  // measure 63
0100
0000
1000
0000
0000
0000
0010
0000
1000
0000
0000
0000
1000
0100
0010
0001
,  // measure 64
1000
0001
1000
0000
0000
0000
0001
1000
0001
0000
0000
0000
0001
0000
0000
0000
,  // measure 65
0100
0000
0001
0000
0000
0000
1000
0000
0001
0000
0000
0000
0001
0010
0100
1000
,  // measure 66
0001
1000
0001
0000
0000
0000
0100
0010
0100
0000
0000
0000
1000
0000
0000
0000
,  // measure 67
0001
0000
1000
0000
0000
0000
0010
0000
1000
0000
0000
0000
0010
1000
0001
0100
,  // measure 68
0010
0100
0010
0000
0000
0000
1000
0010
0100
0000
0000
0000
0202
0000
0000
0000
,  // measure 69
0000
0000
0000
0303
;
