#TITLE:バラライカ (Balalaika);
#SUBTITLE:Kirarin Revolution Opening 2 Remix;
#ARTIST:Technic;
#TITLETRANSLIT:Balalaika;
#SUBTITLETRANSLIT:;
#ARTISTTRANSLIT:;
#GENRE:;
#CREDIT:;
#BANNER:Balalaika-bn.png;
#BACKGROUND:Balalaika-bg.png;
#LYRICSPATH:;
#CDTITLE:cdtitle.png;
#MUSIC:Balalaika.mp3;
#OFFSET:-9.390586;
#SAMPLESTART:42.353001;
#SAMPLELENGTH:12.000000;
#SELECTABLE:YES;
#BPMS:0.000000=180.009995
;
#STOPS:
;
#BGCHANGES:0.063=Balalaika.avi=1.000=0=0=1=====,
328.000=Balalaika-bg.png=1.000=0=0=1=====,
99999=-nosongbg-=1.000=0=0=0 // don't automatically add -songbackground-
;
#KEYSOUNDS:;
#ATTACKS:;

//---------------dance-single - ----------------
#NOTES:
     dance-single:
     :
     Hard:
     12:
     0.639952,0.613764,0.417101,0.316997,0.150156,537.000000,487.000000,50.000000,38.000000,0.000000,0.000000,0.639952,0.613764,0.417101,0.316997,0.150156,537.000000,487.000000,50.000000,38.000000,0.000000,0.000000:
2002
0000
0000
0000
3003
0000
0001
0100
,
0001
0000
0000
0000
0110
0000
0000
0000
1001
0000
0000
1000
0100
0000
1000
0000
,
0100
0000
0000
0000
1001
0000
0000
0000
0100
0000
0000
0001
1000
0000
0010
0000
,
0100
0000
0101
0000
0001
0000
0100
0001
,
0010
0001
0100
0001
1000
0000
0010
0100
,
0010
0000
0000
0000
1001
0000
0000
0000
0010
0000
0000
1000
0010
0000
1000
0000
,
0010
0000
0000
0000
1001
0000
0000
0000
1000
0000
0000
0010
0100
0000
0001
0000
,
0100
0000
1000
0001
0010
0100
1000
0100
,
1000
0010
0100
0001
0100
0000
0001
0010
,
0100
0000
1000
0100
1000
0000
0010
0100
,
0020
0000
2030
0000
3002
0000
1003
0010
,
1000
0000
0001
0100
0001
0000
0001
0010
,
0001
0100
0001
1000
0010
0000
0100
0001
,
0010
0000
0100
1000
0010
0000
0100
0001
,
0010
0000
1001
0000
1100
0000
0001
0010
,
0100
0000
1000
0100
0010
0001
0010
0001
,
1000
0100
1000
0010
0100
0000
1001
0000
,
0010
0000
0000
0000
1000
0000
0001
0000
0010
0000
0000
0100
0000
0000
1000
0000
,
0001
0000
0000
0000
1000
0000
0000
0000
0001
0000
0000
0100
0000
0000
0001
0000
,
0100
0000
1001
0000
0010
0100
0010
0100
,
0001
1000
0010
0100
0001
0000
1000
0001
,
1000
0000
0010
0100
0001
0100
0010
1000
,
0002
2003
3002
0023
,
0031
0010
0001
1000
0010
0100
0001
0010
,
0001
0000
1001
0000
1001
0000
0001
0010
,
0100
0000
0000
0000
1001
0000
0000
0000
0010
1000
0010
1000
0010
0000
0100
0000
,
0001
0000
0000
0000
2001
0000
0000
0000
3010
0000
0000
0100
0001
0000
0100
0000
,
1001
0000
0100
0010
1000
0001
1000
0001
,
0100
0010
0100
0001
0100
0000
0010
1000
,
0200
0000
0000
0000
1300
0000
0000
0000
1001
0000
0000
1000
0010
0000
1000
0000
,
0010
0000
0000
0000
2001
0000
0000
0000
3100
0000
0000
1000
0100
0000
1000
0000
,
0100
0000
1000
0010
0100
0001
0100
0010
,
2000
0000
3001
0000
1001
0000
0010
0010
,
0010
0000
0000
0000
1010
0000
0000
0000
0100
0010
0100
0010
0100
0000
0001
0000
,
1000
0000
0000
0000
1020
0000
0000
0000
0130
0000
0000
1000
0001
0000
1000
0000
,
1010
0000
1000
0010
1000
0010
0100
0001
,
0010
0100
1000
0010
0100
0000
0010
0100
,
0002
0000
0000
0000
1003
0000
0000
0000
1010
0000
0000
0010
0100
0000
0010
0000
,
0100
0000
0000
0000
2010
0000
0000
0000
3001
0000
0000
0010
0001
0000
0010
0000
,
0100
0000
0010
0100
1000
0001
1000
0010
,
1000
0000
0000
0001
0100
0000
0000
0010
1000
0000
0000
0000
0000
0000
0000
0000
,
2000
0010
0001
3100
,
0020
1000
0100
1030
,
0002
0010
1000
0103
,
0011
0011
1100
1100
,
2001
0010
0001
3010
,
0020
0100
1000
0130
,
2000
3020
0230
0301
,
0020
0000
0000
0030
,
0001
0010
0001
0010
0001
0000
0000
0000
,
1000
0000
0000
0000
0010
0000
0100
0000
0020
0000
0000
1030
0000
0000
0010
0000
,
1000
0000
0000
0000
0001
0000
0010
0000
0002
0000
0000
0013
0000
0000
0001
0000
,
0010
0000
0001
0010
0200
0000
1300
0000
,
0010
1000
0010
0100
0001
0000
1000
0010
,
1000
0000
0010
1000
0010
0000
1000
0000
,
1001
0101
1010
1100
,
0001
0010
0001
0010
0100
1000
0010
0100
,
1001
0000
0110
0000
1001
0000
0010
0001
,
0001
0000
0000
0000
0110
0000
0000
0000
1000
0010
1000
0010
1000
0000
0001
0000
,
0100
0000
0000
0000
0120
0000
0000
0000
1030
0000
0000
0100
0001
0000
0100
0000
,
0110
0000
0001
1000
0010
0100
0010
0100
,
0001
1000
0001
0100
0001
0000
0010
0001
,
2000
0000
0000
0000
3001
0000
0000
0000
0110
0000
0000
0010
1000
0000
0010
0000
,
1000
0000
0000
0000
0210
0000
0000
0000
0301
0000
0000
0010
0001
0000
0010
0000
,
0001
0000
0100
0010
1000
0001
1000
0001
,
0200
0000
0310
0000
0110
0000
0100
0100
,
0010
0000
0000
0000
0101
0000
0000
0000
1000
0001
1000
0001
1000
0000
0010
0000
,
0100
0000
0000
0000
0102
0000
0000
0000
1003
0000
0000
0010
0100
0000
0010
0000
,
0101
0000
0100
0001
0100
0010
0100
0001
,
0100
0010
1000
0100
0010
0000
0001
1000
,
0020
0000
0000
0000
0130
0000
0000
0000
0101
0000
0000
0001
1000
0000
0001
0000
,
1000
0000
0000
0000
0201
0000
0000
0000
0310
0000
0000
0100
0010
0000
1000
0000
,
0010
0000
0100
0001
0010
0100
0010
0001
,
0100
0000
0000
0010
0100
0000
0000
0100
0010
0000
0000
0000
0100
0000
0010
0000
,
0100
0000
0000
0000
0110
0000
0000
0000
0001
0000
0000
1000
0010
0000
1000
0000
,
0020
0000
0000
0000
0130
0000
0000
0000
0001
0000
0000
1000
0001
0000
0010
0000
,
0002
0000
0013
0000
0100
0000
0010
0001
,
0010
0100
1000
0001
1000
0000
0010
1000
,
0010
0000
0000
0000
1010
0000
0000
0000
0010
0000
0000
1000
0100
0000
1000
0000
,
0100
0000
0000
0000
0010
0000
0000
0000
0001
0000
0000
0010
0001
0000
0010
0000
,
0002
0000
1003
0010
1000
0000
0010
0100
,
0001
1000
0010
0100
0001
0000
1001
0000
;

//---------------dance-single - ----------------
#NOTES:
     dance-single:
     :
     Medium:
     7:
     0.487412,0.581439,0.225235,0.342023,0.000000,409.000000,382.000000,27.000000,41.000000,0.000000,0.000000,0.487412,0.581439,0.225235,0.342023,0.000000,409.000000,382.000000,27.000000,41.000000,0.000000,0.000000:
2000
0000
3000
0010
,
1000
0000
1010
0000
0010
0000
1000
0010
,
2000
0000
3010
0000
0100
0000
0001
0010
,
0002
0000
0013
0000
0001
0000
0010
0100
,
1000
0001
1000
0010
1000
0000
0010
1000
,
0020
0000
0130
0000
0001
0000
0010
0001
,
0020
0000
0031
0000
1000
0000
0010
1000
,
0020
0000
1030
0010
2000
0000
3010
0000
,
0100
0001
0100
0010
0100
0000
0001
0000
,
1001
0000
0010
0000
1010
0000
0010
1000
,
0010
0100
0001
2000
,
3001
0000
0010
0001
0010
0000
0001
0000
,
2000
0000
3010
0010
,
1010
0000
0010
0000
1010
0000
0010
0100
,
0020
0130
0001
0001
,
0010
0000
0001
0010
0002
0000
1003
0000
,
0010
1000
1010
0000
,
0010
0000
1000
0000
0001
0000
1000
0001
,
1000
0000
0010
0000
0100
0000
0010
0100
,
0010
0000
1000
0001
0010
0000
0001
0000
,
0010
0001
0010
0100
1000
0000
0010
0000
,
1000
0000
0010
1000
0020
0000
0130
0000
,
0001
0001
1000
1001
,
0001
1000
0001
0000
0010
1000
0010
0000
,
1010
0000
1010
0000
0101
0000
0010
0100
,
0010
0000
0110
0000
0010
1000
0010
1000
,
0020
0000
1030
0000
0001
0000
0010
0001
,
0010
0000
0000
0001
0100
0000
0001
0000
,
1000
0000
0100
0000
1000
0000
0010
0100
,
0010
0000
1010
0000
0020
0000
1030
0010
,
1000
0000
1010
0000
0010
0000
1000
0100
,
1000
0000
0000
0001
0010
0000
0001
0000
,
0020
0000
0031
0000
0011
0000
0001
0001
,
0010
0001
0010
0100
,
1000
0000
1010
0000
0010
0000
1000
0010
,
2000
0000
3000
0010
0100
0000
0001
0000
,
1000
0100
0010
0001
1000
0000
0010
1000
,
0020
0000
2030
0000
3100
0000
1000
0010
,
1000
0000
0010
0000
0100
0000
0001
0100
,
0001
0000
0000
0001
0100
0010
1000
0000
,
2000
3002
0023
0030
,
0002
0000
0103
0000
,
0100
0100
0100
0010
,
0200
0000
0310
0000
,
0010
0010
0100
0110
,
2000
0000
3002
0000
,
0203
0000
0301
0100
,
0002
0000
1003
1000
,
0002
0000
0000
0000
0000
0003
0000
0000
,
0100
0001
0100
0001
0100
0000
0000
0000
,
0101
0000
1000
0001
,
1000
0000
0100
1000
,
0100
0000
0000
1000
0100
0000
1000
0000
,
0100
0010
0100
0000
1000
0000
0001
0000
,
0100
0000
0001
0100
0001
0000
0100
0000
,
0100
0100
0110
0110
,
0001
0010
0001
0010
0100
0010
0001
0010
,
0001
0000
1001
0000
1001
0000
0100
0010
,
0100
0000
0110
0000
0100
0001
0100
0001
,
0200
0000
0301
0000
1000
0000
0100
1000
,
0100
0000
0000
1000
0010
0000
1000
0000
,
0001
0000
0010
0000
0001
0000
0100
0010
,
0100
0000
0101
0000
0200
0000
0301
0100
,
0001
0000
0101
0000
0100
0000
0001
0010
,
0001
0000
0000
1000
0100
0000
1000
0000
,
0100
0000
1000
0000
1100
0000
1000
1000
,
0100
1000
0100
0010
,
0001
0000
0101
0000
0100
0000
0001
0100
,
0002
0000
0003
0100
0010
0000
1000
0000
,
0001
0010
0100
1000
0001
0000
0100
0001
,
0200
0000
0301
0000
0010
0000
0001
0100
,
0001
0000
0100
0000
0010
0000
1000
0010
,
1000
0000
0000
1000
0010
0100
0001
0000
,
0002
2003
3100
0100
,
1000
0000
1010
0000
0010
0000
1000
0010
,
2000
0000
3010
0000
0010
0000
0100
0010
,
0200
0000
0310
0000
1000
0000
0001
0010
,
0001
0100
0001
1000
0001
0000
1000
0010
,
2000
0000
3001
0000
0100
0000
0010
0100
,
0020
0000
0130
0000
1000
0000
0010
1000
,
0020
0000
1030
0010
2000
0000
3001
0000
,
1000
0100
0010
0001
1000
0000
0002
0000
,
1003
0000
0000
0000
;

//---------------dance-single - ----------------
#NOTES:
     dance-single:
     :
     Easy:
     4:
     0.303888,0.340980,0.041710,0.116788,0.000000,255.000000,250.000000,5.000000,14.000000,0.000000,0.000000,0.303888,0.340980,0.041710,0.116788,0.000000,255.000000,250.000000,5.000000,14.000000,0.000000,0.000000:
2000
0000
3000
0000
,
0001
0000
1000
0010
,
1000
0000
0001
0100
,
0001
0000
1000
0010
,
1000
0000
0010
0000
,
0100
0000
0010
0100
,
0010
0000
0100
0001
,
0010
0000
0001
0000
,
1000
0010
1000
0010
,
0010
1000
1000
0001
,
1000
0001
1000
0010
,
1000
0000
0001
0000
,
2000
0000
3010
1000
,
0010
1000
0010
0100
,
0001
0100
0001
0100
,
0020
0000
2030
0000
,
3001
0001
1000
0000
,
0001
0000
1000
0010
,
2000
0000
3001
0010
,
0002
0000
0013
0100
,
0010
0001
1000
0000
,
0010
0000
1000
0010
,
1000
0001
0010
0001
,
1000
1000
0001
0001
,
1000
0001
1000
0000
,
0010
1001
0010
0001
,
0010
0001
1000
0010
,
1000
0000
0010
0010
,
1000
0001
1000
0001
,
0010
0001
1000
0001
,
1000
0010
0100
0010
,
0100
0000
0100
0100
,
0010
0100
0010
0010
,
0010
1010
0010
1000
,
0001
0010
0001
1000
,
0001
0000
1000
0001
,
1000
0001
0010
0100
,
0010
0001
1000
0010
,
1000
0010
0100
0010
,
0110
0000
0010
0010
,
1000
0001
1000
0000
,
0002
0000
0000
0000
,
2003
0000
0000
0000
,
3020
0000
0000
0000
,
0230
0000
0000
0000
,
0302
0000
0000
0000
,
2003
0000
0000
0000
,
3020
0000
0000
0000
,
0230
0000
0000
0000
,
0310
0000
0000
0000
,
0010
0000
1000
0001
,
0010
0000
0010
0001
,
1000
0000
0010
0000
,
1000
1000
1000
0000
,
0010
0000
0100
0100
,
0010
0100
0010
0100
,
0001
0000
1000
0000
,
0001
1000
0001
0000
,
1000
0001
1000
0001
,
0010
0001
0010
0001
,
1000
0000
0010
0010
,
0100
0010
1000
0001
,
0010
0001
1000
0001
,
0100
0010
1000
0010
,
1000
0000
1000
1000
,
0010
0100
0001
0010
,
0001
1000
0001
0001
,
1000
0001
1000
0010
,
1001
0000
0010
0010
,
0100
0010
1000
0001
,
0010
0100
1000
0010
,
0100
0001
1000
0001
,
1000
0000
0001
0001
,
1000
0001
1000
0000
,
0010
0000
1000
0001
,
1000
0000
0001
0001
,
0001
0000
1000
0010
,
1000
0010
0100
0000
,
0010
0000
1000
0001
,
0010
0000
0010
0001
,
1000
0000
1000
0000
,
0010
1000
0001
1001
;

//---------------dance-single - ----------------
#NOTES:
     dance-single:
     :
     Challenge:
     15:
     0.711455,0.720438,0.442127,0.316997,0.300313,597.000000,544.000000,53.000000,38.000000,0.000000,0.000000,0.711455,0.720438,0.442127,0.316997,0.300313,597.000000,544.000000,53.000000,38.000000,0.000000,0.000000:
// measure 0
1000
1000
0001
0001
1000
0000
1000
0010
,  // measure 1
1000
0000
0000
0000
0110
0000
0000
0000
1001
0000
0000
0001
0010
0000
0001
0000
,  // measure 2
0010
0000
0000
0000
1001
0000
0000
0000
0010
0000
0000
1000
0001
0000
0100
0000
,  // measure 3
0010
0000
0000
0000
1010
0000
0000
0000
1000
0000
0000
1000
0001
0000
1000
0000
,  // measure 4
0100
0100
0010
0010
0100
0000
0010
0001
,  // measure 5
1000
0000
0000
0000
1001
0000
0000
0000
0100
0000
0000
0001
0100
0000
0001
0000
,  // measure 6
0100
0000
0000
0000
1001
0000
0000
0000
0001
0000
0000
0100
0010
0000
1000
0000
,  // measure 7
0010
0000
0000
0000
1001
0000
1000
0000
0100
0000
0010
0001
0010
0000
0100
0000
,  // measure 8
1000
1000
0001
0001
1000
0000
1000
0100
,  // measure 9
0010
0000
0001
0010
0001
0000
0100
0010
,  // measure 10
0200
0000
0302
0000
2003
0000
3001
0100
,  // measure 11
0001
0000
1000
0010
1000
0000
1000
0100
,  // measure 12
1000
0010
1000
0001
0100
0000
0010
1000
,  // measure 13
0100
0000
0010
0001
0100
0000
0010
1000
,  // measure 14
0100
0000
1001
0000
0011
0000
1000
0100
,  // measure 15
0010
0000
0001
0010
0100
1000
0100
1000
,  // measure 16
0001
0000
0010
0001
1000
0000
0100
0000
0010
0000
0000
0000
1001
0000
0000
0000
,  // measure 17
0100
0000
0000
0000
0001
0000
1000
0000
0100
0000
0000
0010
0000
0000
0001
0000
,  // measure 18
1000
0000
0000
0000
0001
0000
0000
0000
1000
0000
0000
0010
0000
0000
1000
0000
,  // measure 19
0010
0000
1001
0000
0100
0010
0100
0010
,  // measure 20
1000
0000
0001
0100
0010
0000
1000
0100
0010
0000
0000
0000
0001
0000
1000
0000
,  // measure 21
0001
0000
0100
0010
1000
0010
0100
0001
,  // measure 22
2000
3002
2003
3200
,  // measure 23
1300
0100
1000
0001
0100
0010
1000
0100
,  // measure 24
1001
0000
1001
0000
1001
0000
1000
0100
,  // measure 25
0010
0000
0000
0000
1001
0000
0000
0000
0100
0001
0100
0001
0100
0000
0010
0000
,  // measure 26
1000
0000
0000
0000
1002
0000
0000
0000
0103
0000
0000
0010
1000
0000
0010
0000
,  // measure 27
1001
0000
0010
0100
0001
0001
1000
1000
,  // measure 28
0010
0100
0010
1000
0010
0000
0100
0001
,  // measure 29
0020
0000
0000
0000
0031
0000
0000
0000
1001
0000
0000
0001
0100
0000
0001
0000
,  // measure 30
0100
0000
0000
0000
1002
0000
0000
0000
0013
0000
0000
0001
0010
0000
0001
0000
,  // measure 31
0010
0000
0001
0100
0010
1000
0010
0100
,  // measure 32
0002
0000
1003
0000
1001
0000
0100
0100
,  // measure 33
0100
0000
0000
0000
0101
0000
0000
0000
0010
0100
0010
0100
0010
0000
1000
0000
,  // measure 34
0001
0000
0000
0000
0201
0000
0000
0000
0310
0000
0000
0001
1000
0000
0001
0000
,  // measure 35
0101
0000
0001
0100
0001
0100
0010
1000
,  // measure 36
0100
0010
0001
0100
0010
1000
0100
0010
0001
0000
0000
0000
0100
0000
0010
0000
,  // measure 37
2000
0000
0000
0000
3001
0000
0000
0000
0101
0000
0000
0100
0010
0000
0100
0000
,  // measure 38
0010
0000
0000
0000
0102
0000
0000
0000
1003
0000
0000
0100
1000
0000
0100
0000
,  // measure 39
0010
0000
0100
0010
0001
1000
0001
0100
,  // measure 40
0001
1000
0010
1000
0001
0100
0010
0100
0001
0000
0000
0000
2000
0000
3000
0000
,  // measure 41
0002
0000
0000
0000
0000
0000
0000
0000
0000
0000
0000
0000
0103
0000
0000
0000
0000
0000
0010
0000
0000
1000
0000
0000
0010
0000
0000
0000
0000
0000
0000
0000
0000
0000
0000
0000
1000
0000
0000
0000
0100
0000
0000
0000
0010
0000
0000
0000
,  // measure 42
0200
0000
0000
0000
0001
0000
0000
0000
0010
0000
0000
0000
0301
0000
1000
0001
,  // measure 43
2000
0000
0000
0000
0000
0000
0000
0000
0000
0000
0000
0000
3100
0000
0000
0000
0000
0000
0010
0000
0000
0001
0000
0000
0010
0000
0000
0000
0000
0000
0000
0000
0000
0000
0000
0000
0010
0000
0000
0000
0100
0000
0000
0000
1000
0000
0000
0000
,  // measure 44
0001
1100
0011
0011
,  // measure 45
0002
0000
0000
0000
0000
0000
0000
0000
0000
0000
0000
0000
0103
0000
0000
0000
0000
0000
0010
0000
0000
1000
0000
0000
0010
0000
0000
0000
0000
0000
0000
0000
0000
0000
0000
0000
1000
0000
0000
0000
0100
0000
0000
0000
0010
0000
0000
0000
,  // measure 46
0200
0000
0000
0000
0010
0000
0000
0000
0001
0000
0000
0000
0310
0000
0001
1000
,  // measure 47
0002
0000
0000
0000
0203
0000
0010
1000
0320
0000
0100
0000
0031
0000
1000
0000
,  // measure 48
0210
0010
0010
0310
,  // measure 49
1001
0100
1001
0010
1001
0000
0000
0000
,  // measure 50
0001
0000
0000
0000
0100
0000
0010
0000
0200
0000
0000
0301
0000
0000
0100
0000
,  // measure 51
0001
0000
0000
0000
1000
0000
0100
0000
2000
0000
0000
3100
0000
0000
1000
0000
,  // measure 52
0100
0000
1000
0100
0020
0000
0031
0000
,  // measure 53
0100
0001
0100
0010
1000
0000
0001
0100
,  // measure 54
0001
0000
0100
0001
0100
0000
0001
0000
,  // measure 55
1001
1010
0101
0011
,  // measure 56
1000
0100
1000
0100
0010
0001
0100
0010
,  // measure 57
1001
0000
0110
0000
1001
0000
0100
1000
,  // measure 58
1000
0000
0000
0000
0110
0000
0000
0000
0001
0100
0001
0100
0001
0000
1000
0000
,  // measure 59
0010
0000
0000
0000
0210
0000
0000
0000
0301
0000
0000
0010
1000
0000
0010
0000
,  // measure 60
0110
0000
1000
0001
0100
0010
0100
0010
,  // measure 61
1000
0001
1000
0010
0100
0001
1000
0001
0010
0000
0000
0000
0100
0000
1000
0000
,  // measure 62
0002
0000
0000
0000
1003
0000
0000
0000
0110
0000
0000
0100
0001
0000
0100
0000
,  // measure 63
0001
0000
0000
0000
0120
0000
0000
0000
1030
0000
0000
0100
1000
0000
0100
0000
,  // measure 64
1000
0000
0010
0100
0001
1000
0001
1000
,  // measure 65
0020
0000
0130
0000
0110
0000
0010
0010
,  // measure 66
0100
0000
0000
0000
1010
0000
0000
0000
0001
1000
0001
1000
0001
0000
0100
0000
,  // measure 67
0010
0000
0000
0000
2010
0000
0000
0000
3001
0000
0000
0100
0010
0000
0100
0000
,  // measure 68
1010
0000
0010
1000
0010
0100
0010
1000
,  // measure 69
0010
0100
0001
0010
0100
1000
0010
0100
0001
0000
0000
0000
1000
0000
0001
0000
,  // measure 70
0200
0000
0000
0000
0310
0000
0000
0000
1010
0000
0000
1000
0001
0000
1000
0000
,  // measure 71
0001
0000
0000
0000
1020
0000
0000
0000
0130
0000
0000
0010
0100
0000
0001
0000
,  // measure 72
0100
0000
0010
1000
0100
0010
0100
1000
,  // measure 73
0010
0000
1000
0100
0010
0000
0001
0010
0100
0000
0000
0000
0010
0000
0100
0000
,  // measure 74
0010
0000
0000
0000
0110
0000
0000
0000
1000
0000
0000
0001
0100
0000
0001
0000
,  // measure 75
0200
0000
0000
0000
0310
0000
0000
0000
1000
0000
0000
0001
1000
0000
0100
0000
,  // measure 76
2000
0000
0000
0000
3100
0000
0000
0000
0010
0000
0000
0100
1000
0000
0100
0000
,  // measure 77
0010
0001
0010
0100
1000
0010
0100
0001
0100
0000
0000
0000
0100
0000
0001
0000
,  // measure 78
0100
0000
0000
0000
0101
0000
0000
0000
0100
0000
0000
0001
0010
0000
0001
0000
,  // measure 79
0010
0000
0000
0000
0100
0000
0000
0000
1000
0000
0000
0100
1000
0000
0100
0000
,  // measure 80
2000
0000
3001
0100
0001
0000
0100
0010
,  // measure 81
1000
1000
0001
0001
1000
0000
1001
0000
,  // measure 82
0200
0300
0000
0000
;
